#TITLE:Vs.RAyDRiC;
#SUBTITLE:Ragnarok Online;
#ARTIST:soundTeMP;
#TITLETRANSLIT:;
#SUBTITLETRANSLIT:;
#ARTISTTRANSLIT:;
#CREDIT:;
#BANNER:Vs.RAyDRiC.png;
#BACKGROUND:Vs.RAyDRiC-bg.png;
#LYRICSPATH:;
#CDTITLE:kn33growzw9.png;
#MUSIC:Vs.RAyDRiC.mp3;
#OFFSET:-0.938;
#SAMPLESTART:142.153;
#SAMPLELENGTH:12.000;
#SELECTABLE:YES;
#BPMS:0.000=96.010,26.000=192.020,314.000=96.010,322.000=192.020;
#STOPS:;
#BGCHANGES:;
// cache tags:
#FIRSTBEAT:0.000;
#LASTBEAT:701.375;
#SONGFILENAME:Songs/VGMP 2/Vs.RAyDRiC (Kn33groW)/Vs.RAyDRiC.sm;
#HASMUSIC:1;
#HASBANNER:1;
#MUSICLENGTH:236.569;
// end cache tags

//---------------dance-single - Blank----------------
#NOTES:
     dance-single:
     Blank:
     Challenge:
     13:
     1.000,1.000,1.000,1.000,1.000,1740.000,733.000,446.000,0.000,238.000:



1002
0000
0000
0000
0000
0000
0000
0000
1000
0000
0000
0003
0100
0000
0010
0000
1002
0000
0000
0000
0000
0000
0000
0000
1000
0000
0000
0003
0100
0000
0010
0000
,
1002
0000
0000
0000
0000
0000
0000
0000
1000
0000
0000
0003
0100
0000
0010
0000
1002
0000
0000
0000
0000
0000
0000
0003
1020
0000
0000
0000
0000
0000
0000
0030
,
1002
0000
0000
0000
0000
0000
0000
0000
1000
0000
0000
0003
0100
0000
0010
0000
1002
0000
0000
0000
0000
0000
0000
0000
1000
0000
0000
0003
0100
0000
0010
0000
,
1002
0000
0000
0000
0000
0000
0000
0000
1000
0000
0000
0003
0100
0000
0010
0000
1002
0000
0000
0000
0000
0000
0000
0003
1020
0000
0000
0000
0000
0000
0000
0030
,
2210
0000
0000
0000
0300
0000
0000
0000
0000
0000
0000
0000
0000
0000
0000
0000
0000
0000
0000
0000
0000
0000
0000
0000
0000
0000
0000
0000
0000
0000
3000
0000
2000
0000
0000
0000
0000
0000
0000
0000
0000
0000
0000
0000
0020
0030
0000
0000
0000
0000
0000
0000
0000
0000
0020
0030
0000
0000
0000
0000
0000
0000
0000
0000
,
0000
0000
0020
0030
0000
0000
0000
0000
0000
0000
0000
0000
0000
0000
0000
0000
0020
0030
0000
0000
0000
0000
3000
0000
1002
0000
0000
0000
0000
0000
0003
0000
2201
0000
0000
0000
0300
0000
0000
0000
0101
0000
0000
0000
0101
0000
0000
0000
0101
0000
0000
0000
0101
0000
3000
0000
1010
0000
0000
0000
0001
0000
0010
0000
,
0100
0000
1011
0000
1010
0000
1100
0000
1011
0000
1011
0000
0011
1100
0011
1100
0011
0000
0000
0000
0100
0000
0000
0000
1001
0000
1000
0000
1000
0000
1000
0000
,
0101
0000
0010
0000
1001
1000
1000
1000
0011
0000
0100
0000
1001
1000
1000
1000
,
0202
0000
0000
0000
0000
0000
0000
0303
2020
0000
0000
0000
0000
0000
0000
3030
0011
0000
0000
0000
0100
0000
0000
0000
1001
0000
1000
0000
1000
0000
1000
0000
,
0101
0000
0010
0000
1001
1000
1000
1000
0011
0000
0100
0000
1001
1000
1000
1000
,
0202
0000
0000
0000
0000
0000
0000
0303
2020
0000
0000
0000
0000
0000
0000
3030
0011
0000
0000
0000
0100
0000
0000
0000
1001
0000
1000
0000
1000
0000
1000
0000
,
0101
0000
0010
0000
1001
1000
1000
1000
0011
0000
0100
0000
1001
1000
1000
1000
,
0202
0000
0000
0000
0000
0000
0000
0303
2020
0000
0000
0000
0000
0000
0000
3030
0011
0000
0000
0000
0100
0000
0000
0000
1001
0000
1000
0000
1000
0000
1000
0000
,
0101
0000
0010
0000
1100
0011
1100
0011
1100
0010
0001
1000
0001
0010
1100
0010
,
0001
1000
0001
0010
1001
0010
1100
0011
1100
0000
0100
1011
0000
0010
1101
0000
,
0100
1011
0000
0010
1101
0000
0100
0000
1011
0000
0010
1101
0000
0100
1011
0000
,
0001
1110
0000
1000
0111
0000
0011
1100
0011
0000
1000
0111
0000
0001
1110
0000
,
1000
0111
0000
0001
1110
0000
0010
0000
0111
0000
0001
1110
0000
1000
0111
0000
,
0100
0000
1011
0000
0000
0000
0010
0000
1102
0000
0000
0000
0000
0000
1100
0003
1100
0000
0000
0000
0100
0000
1011
0000
0000
0000
0010
0000
1101
0000
0000
0000
,
0100
1011
0000
0010
1101
0000
0100
0000
1011
0000
0010
1101
0000
0100
1011
0000
,
1000
0111
0000
0001
1110
0000
0011
1100
0011
0000
0001
1110
0000
1000
0111
0000
,
0001
1110
0000
1000
0111
0000
0100
0000
1110
0000
0000
0111
0000
0000
1110
0000
,
0000
1101
0000
0000
0011
1100
0011
1100
0012
0000
0000
0000
0000
0000
0010
0000
,
0000
0000
0010
0000
0000
0010
0000
0000
,
0100
0000
0000
0000
0000
0000
0000
0000
1000
0000
0000
0003
0100
0000
0010
0000
0201
0000
0000
0000
0000
0000
0000
0000
0000
0000
0000
0000
0001
0000
0000
0000
,
0000
0000
0001
0000
0000
0001
0000
0000
,
1000
0000
0000
0000
0000
0000
0000
0000
0011
0000
1000
0000
0000
0000
1000
0300
0011
0000
1000
0000
0000
0000
1000
0000
0011
0000
1000
0000
0000
0000
1000
0000
,
0011
1000
0000
1000
0011
1000
0000
1000
0011
1000
0000
1000
0011
1000
0000
1000
,
0011
1000
0000
1000
0011
1000
0000
1000
0011
1000
0000
1000
0011
1000
0000
1000
,
0011
1000
0000
1000
0012
1000
0003
1000
0011
1100
0010
0001
1010
0100
1000
0011
,
1000
0000
0101
0000
0000
0000
0010
0000
1100
0000
0011
0000
1100
0000
0011
0000
2000
3000
0000
0000
2100
3000
0000
0000
0001
0000
0010
0000
2100
3000
0000
0000
,
2001
3000
0000
0000
0110
0000
0000
0000
2001
3000
0010
0000
2100
3000
0000
0000
0001
0000
0000
0000
2100
3000
0000
0000
2001
3000
0010
0000
1100
0000
0000
0000
,
1020
0000
0000
0000
1001
0000
0000
0030
1002
0000
0100
0000
1010
0000
0000
0003
2001
3000
0000
0000
2100
3000
0000
0000
0001
0000
0010
0000
2100
3000
0000
0000
,
2001
3000
0000
0000
0110
0000
0000
0000
2001
3000
0010
0000
2100
3000
0000
0000
0001
0000
0000
0000
2100
3000
0000
0000
2001
3000
0010
0000
1100
0000
0000
0000
,
1002
0000
0000
0000
0110
0000
0000
0003
2010
0000
0000
0000
0001
0000
0110
3000
2001
3000
0000
0000
2100
3000
0000
0000
0001
0000
0010
0000
2100
3000
0000
0000
,
2001
3000
0000
0000
0110
0000
0000
0000
2001
3000
0010
0000
2100
3000
0000
0000
0001
0000
0000
0000
2100
3000
0000
0000
2001
3000
0010
0000
1100
0000
0000
0000
,
1020
0000
0000
0000
1001
0000
0000
0030
1002
0000
0100
0000
1010
0000
0000
0003
2001
3000
0000
0000
2100
3000
0000
0000
0001
0000
0010
0000
2100
3000
0000
0000
,
2001
3000
0000
0000
0110
0000
0000
0000
0110
0000
1001
0000
0110
0000
1001
0000
0110
0000
1000
0000
0100
0000
0010
0000
0001
0000
0010
0000
1100
0000
0010
0000
,
0001
1000
0001
0100
1001
0010
1100
0011
2000
0000
0011
0000
0000
0000
0011
0000
,
0000
0000
0000
0000
0011
0000
0000
0000
0000
0000
0000
0000
0011
0000
0000
0000
0000
0000
0000
0000
0011
0000
0000
0000
0000
0000
0000
3000
1001
0000
0100
0000
,
0001
0000
0000
0000
0000
0000
0000
0000
0010
0000
0000
0000
0000
0000
0000
0000
1000
0000
0000
0000
0000
0000
0000
0000
0100
0000
0000
0000
0000
0000
0000
0000
0001
0000
0000
0000
0000
0000
0000
0000
1000
0000
0000
0000
0000
0000
0000
0000
0010
0000
0000
0000
0000
0000
0000
0000
0000
0000
0000
0000
0001
0000
0000
0000
0000
0000
0000
0000
0000
0000
0000
0000
0100
0000
0000
0000
0000
0000
0000
0000
0000
0000
0000
0000
0001
0000
0000
0000
0000
0000
0000
0000
0000
0000
0000
0000
1000
0000
0000
0000
0000
0000
0000
0000
0000
0000
0000
0000
0100
0000
0000
0000
0000
0000
0000
0000
0000
0000
0000
0000
0001
0000
0000
0000
0000
0000
0000
0000
0000
0000
0000
0000
2000
0000
0000
0000
0000
0000
0000
0000
0000
0000
0000
0000
0000
0000
0000
0000
0000
0000
3000
0000
0000
0000
0000
0000
0010
0000
0000
0000
0000
0000
0000
0000
0000
0000
0000
0000
1000
0000
0000
0000
0000
0000
0000
0000
0000
0000
0000
0000
0100
0000
0000
0000
0000
0000
0000
0000
0000
0000
0000
0000
,
0001
0000
2000
0000
0000
3000
0010
0000
1000
0000
0100
0000
0001
0000
0010
0000
1000
0000
0010
0000
0100
0000
2000
0000
0000
3000
0100
0000
0010
0000
0100
0000
,
1000
0000
0002
0000
0000
0003
1000
0000
0001
0000
0100
0000
2000
0000
0000
0000
0000
0000
0000
0000
0101
0000
0000
0000
0000
0000
0000
0000
0101
0000
0000
0000
,
0000
0000
0000
3000
0112
0000
0000
0000
0000
0000
0000
0000
0110
0000
0000
0000
0000
0000
0000
0000
0110
0000
0000
0000
0000
0000
0000
0003
1201
0000
0000
0000
,
0000
1001
0000
1001
0000
1001
0000
1001
,
0000
0000
0000
0300
0110
0000
0000
0000
1001
0000
0110
0000
1001
0000
0110
0000
1001
0000
0010
0000
1000
0000
0001
0000
0010
0000
1000
0000
0101
0000
0010
0000
,
0001
0000
0010
0000
1000
0000
0100
0000
1012
0000
1010
0000
1010
0000
1010
0000
0000
0000
0000
0003
1120
0000
0000
0000
0000
0000
0000
0000
1100
0000
0000
0000
,
0000
1100
0000
1100
0000
1100
0000
1100
,
0000
0000
0000
0000
1100
0000
0000
0000
0000
0000
0000
0000
1100
0000
0000
0000
0031
0000
0010
0000
1100
0000
0010
0000
0002
0000
0000
0003
1001
0000
0010
0000
,
0100
0000
0010
0000
1002
0000
0000
0003
0001
0000
0010
0000
1100
0000
0010
0000
0002
0000
0000
0003
1001
0000
0010
0000
0100
0000
0010
0000
1001
0000
0000
0000
,
2000
0000
0000
3000
0021
0000
0030
0000
0021
0000
0000
0000
1000
0000
0101
0030
1000
0000
0100
0000
0011
0000
0100
0000
2000
0000
0000
3000
1001
0000
0100
0000
,
0010
0000
0100
0000
2001
0000
0000
3000
1000
0000
0100
0000
0011
0000
0100
0000
2000
0000
0000
3000
1001
0000
0100
0000
0010
0000
0100
0000
2001
0000
0000
3000
,
0200
0000
0000
0000
0000
0000
0000
0300
0020
0000
0000
0000
0000
0000
0000
0030
0001
0000
0010
0000
1100
0000
0010
0000
0002
0000
0000
0003
1001
0000
0010
0000
,
0100
0000
0010
0000
1001
0000
0000
0000
0110
0000
1001
0000
0110
0000
1001
0000
0210
0000
0000
0300
0200
0000
0000
0000
0010
0000
0000
0000
0000
0000
0000
0300
,
0012
0000
0000
0000
0000
0000
0000
0003
1100
0000
0011
0000
1100
0000
0011
0000
2000
0000
0000
0000
0110
0000
0000
0000
0001
0000
0001
0000
0110
0000
0000
0000
,
0001
0000
0000
0000
0110
0000
0000
0000
0001
0000
0001
0000
0110
0000
0010
3000
1002
0000
0000
0000
0110
0000
0000
0000
1000
0000
1000
0000
0110
0000
0000
0000
,
1000
0000
0000
0000
0110
0000
0000
0000
1000
0000
1000
0000
1000
0000
1000
0003
0020
0000
0000
0000
0101
0000
0000
0000
1000
0000
1000
0000
0101
0000
0000
0000
,
1000
0000
0000
0000
0101
0000
0000
0000
1000
0000
1000
0000
0101
0000
0100
0030
2001
0000
0000
0000
0110
0000
0000
0000
0001
0000
0001
0000
0110
0000
0000
0000
,
0001
0000
0000
0000
0110
0000
0000
3000
0210
0000
0000
0000
1000
0000
0011
0300
2000
0000
0000
0000
0011
0000
0000
0000
0100
0000
0100
0000
0011
0000
0000
0000
,
0100
0000
0000
0000
0011
0000
0000
0000
0100
0000
0100
0000
0011
0000
0001
3000
1002
0000
0000
0000
0110
0000
0000
0000
1000
0000
1000
0000
0110
0000
0000
0000
,
1000
0000
0000
0000
0110
0000
0000
0000
1000
0000
1000
0000
1000
0000
1000
0003
0020
0000
0000
0000
0101
0000
0000
0000
1000
0000
1000
0000
0101
0000
0000
0000
,
1000
0000
0000
0000
0000
0000
0000
0000
0000
0000
0000
0000
0000
0000
0000
0000
0000
0000
0000
0000
0000
0000
0000
0000
0101
0000
0000
0000
0000
0000
0000
0000
0000
0000
0000
0000
0000
0000
0000
0000
0000
0000
0030
0000
0000
0000
0000
0000
1100
0000
0000
0000
0000
0000
0000
0000
0000
0000
0000
0000
0011
0000
0000
0000
0000
0000
0000
0000
0000
0000
0000
0000
1100
0000
0000
0000
0000
0000
0000
0000
0000
0000
0000
0000
0011
0000
0000
0000
0000
0000
0000
0000
0000
0000
0000
0000
1200
0000
0000
0000
0300
0000
0000
0000
0000
0000
0000
0000
0000
0000
0000
0000
0000
0000
0000
0000
0000
0000
0000
0000
1000
0000
0000
0000
0000
0000
0000
0000
0000
0000
0000
0000
0120
0000
0000
0000
0030
0000
0000
0000
0000
0000
0000
0000
1000
0000
0000
0000
0000
0000
0000
0000
0000
0000
0000
0000
0100
0000
0000
0000
0000
0000
0000
0000
0000
0000
0000
0000
0021
0000
0000
0000
0030
0000
0000
0000
0000
0000
0000
0000
0000
0000
0000
0000
0000
0000
0000
0000
0000
0000
0000
0000
,
0001
0000
0000
0020
0030
0000
0001
0000
0000
2100
3000
0000
0000
0000
0000
0000
0200
0300
0000
0000
0000
0000
0000
0000
0010
0000
0000
1000
0000
0000
0100
0000
0000
0001
0000
0000
0010
0000
0000
1000
0000
0000
0100
0000
0000
0001
0000
0000
,
1000
0100
0010
0001
1000
0001
0100
1000
0010
0001
1000
0010
0100
0001
0100
0010
,
0001
0000
0100
0000
0010
0000
0001
0000
2000
0000
0000
0000
0000
0000
0000
3000
1000
0000
0010
0000
0100
0000
0010
0000
0001
0000
0010
0000
0100
0000
0010
0000
,
0001
0010
0100
0010
0001
0010
1000
0010
0001
0010
0100
1000
0001
0010
0100
0010
,
0100
1000
0100
1000
0100
0010
0100
1000
0010
0001
1000
0010
0100
0001
0010
0100
,
0010
0100
1000
0100
1000
0100
0010
0100
0010
0001
0010
0100
0010
0100
1000
0100
,
1000
0100
0010
0001
0100
0010
0001
0010
1000
0100
0010
0100
0010
0001
1000
0100
,
0010
0001
0100
0010
0001
0010
1000
0010
1001
0010
1100
0001
1000
0010
1001
0010
,
1100
0000
0000
0001
0000
0000
0010
0000
0000
0101
0000
0000
1000
0000
0000
0000
0100
0000
0000
0000
0010
0000
0000
0000
0002
0000
0000
0000
0000
0000
1010
0000
0000
0000
0000
0000
0000
0000
0000
0000
0000
0000
1010
0000
0000
0000
0000
0000
,
0000
0000
1010
0000
0000
0000
1010
0000
0000
0000
1010
0000
0000
0000
1010
0003
,
0020
0000
0000
0000
1100
0000
0000
0000
0000
0000
0000
0000
1100
0000
0000
0030
0200
0000
0000
0000
0011
0000
0000
0000
0000
0000
0000
0000
0011
0000
0000
0000
,
0000
0000
0000
0000
0011
0000
0000
0000
0000
0000
0000
0000
0011
0000
0000
0300
2000
0000
0000
0000
0101
0000
0000
0000
0000
0000
0000
0000
0101
0000
0000
0000
,
0000
0000
0000
0000
0101
0000
0000
3000
1120
0000
0000
0000
0001
0000
1100
0030
0002
0000
0000
0000
1100
0000
0000
0000
0000
0000
0000
0000
1100
0000
0000
0000
,
0000
1100
0000
1100
0000
1100
0000
1100
,
0000
0000
1100
0000
1003
1000
1000
1000
0001
0000
1100
0000
0001
0001
1100
0000
,
0001
0000
0000
0000
0000
0000
1100
0000
0000
0000
0000
0000
1001
0000
0000
0110
0000
0000
1001
0000
0000
0110
0000
0000
1112
0000
0000
0000
0000
0000
0003
0000
1112
0000
0000
0000
0000
0000
0003
0000
1112
0000
0000
0000
0000
0000
0003
0000
,
1112
0000
0000
0000
0000
0000
0000
0000
0000
0000
0000
0000
0000
0000
0000
0000
0000
0000
0000
0000
0000
0000
0000
0000
0003
0000
0000
0000
0000
0000
0000
0000
2111
0000
0000
0000
0000
0000
0000
0000
0000
0000
0000
0000
0000
0000
0000
0000
0000
0000
0000
0000
0000
0000
0000
0000
3000
0000
0000
0000
0000
0000
0000
0000
1211
0000
0000
0000
0000
0000
0000
0000
0000
0000
0000
0000
0000
0000
0000
0000
0000
0000
0000
0000
0000
0000
0000
0000
0300
0000
0000
0000
0000
0000
0000
0000
1121
0000
0000
0000
0000
0000
0000
0000
0000
0000
0000
0000
0000
0000
0000
0000
0000
0000
0000
0000
0000
0000
0000
0000
0000
0000
0000
0000
0000
0000
0030
0000
0000
0000
0000
0000
0000
0000
0000
0000
0000
0000
0000
0000
0000
0000
0000
0000
0000
0000
0000
0000
0000
0000
0000
0000
0000
0000
0000
0000
0000
0000
0000
0000
0000
0000
0000
0000
0000
0000
0000
0000
0000
0000
0000
0000
0000
0000
0000
0000
0000
0000
0000
0000
0000
0000
0000
0000
0000
0000
0000
0000
0000
0000
0000
0000
,
0000
0000
0000
0000
,
0000
0000
0000
0000
0000
0000
0000
0000
0000
0000
0000
0000
1002
0000
0000
0000
0003
0000
0000
0000
0000
0000
0000
0000
1020
0000
0000
0000
0030
0000
0000
0000
0000
0000
0000
0000
1002
0000
0000
0000
0003
0000
0000
0000
0000
0000
0000
0000
1200
0000
0000
0000
0300
0000
0000
0000
0000
0000
0000
0000
1002
0000
0000
0000
0003
0000
0000
0000
0000
0000
0000
0000
1001
0000
0000
0000
0000
0000
0110
0000
0000
0000
0000
0000
1001
0000
0000
0000
0000
0000
0110
0000
0000
0000
0000
0000
1002
0000
0000
0000
0000
0000
0003
0000
0000
0000
0000
0000
0000
0000
0000
0000
0000
0000
0000
0000
0000
0000
0000
0000
1000
0000
0000
0000
0000
0000
0000
0000
0000
0000
0000
0000
0000
0000
0000
0000
0000
0000
0000
0000
0000
0000
0000
0000
1200
0000
0000
0000
0000
0000
0300
0000
0000
0000
0000
0000
0000
0000
0000
0000
0000
0000
0000
0000
0000
0000
0000
0000
1000
0000
0000
0000
0000
0000
0000
0000
0000
0000
0000
0000
0000
0000
0000
0000
0000
0000
0000
0000
0000
0000
0000
0000
,
1020
0030
0000
0000
1000
0000
0000
0000
1002
0003
0000
0000
1200
0300
0000
0000
1000
0000
0000
0000
1002
0003
0000
0000
1020
0030
0000
0000
1002
0003
0000
0000
,
1020
0030
0000
0000
1002
0003
0000
0000
1200
0000
0000
0000
1000
0000
0000
0300
1020
0030
0000
0000
1000
0000
0000
0000
1002
0003
0000
0000
1000
0000
0000
0000
,
1020
0030
0000
0000
1000
0000
0000
0000
1002
0003
0000
0000
1200
0300
0000
0000
1000
0000
0000
0000
1002
0003
0000
0000
1020
0030
0000
0000
1002
0003
0000
0000
,
2100
3000
0000
0000
0102
0003
0000
0000
0120
0000
0000
0000
0100
0000
0000
0030
1002
0003
0000
0000
1000
0000
0000
0000
1200
0300
0000
0000
1000
0000
0000
0000
,
1020
0030
0000
0000
1000
0000
0000
0000
1002
0003
0000
0000
1200
0300
0000
0000
1000
0000
0000
0000
1002
0003
0000
0000
1020
0030
0000
0000
1002
0003
0000
0000
,
1020
0030
0000
0000
1002
0003
0000
0000
1200
0000
0000
0000
1000
0000
0000
0300
1020
0030
0000
0000
1000
0000
0000
0000
1002
0003
0000
0000
1000
0000
0000
0000
,
1020
0030
0000
0000
1000
0000
0000
0000
1002
0003
0000
0000
1200
0300
0000
0000
1000
0000
0000
0000
1002
0003
0000
0000
1200
0300
0000
0000
1002
0003
0000
0000
,
2100
0000
0000
0000
0002
0003
0000
0000
0020
0000
0000
0000
0000
0000
0000
0030
0200
0300
0000
0000
0000
0000
0000
3000
1001
0000
0010
0000
0100
0000
0010
0000
,
1001
0010
1000
0100
0011
1000
0001
0010
1100
0001
1000
0100
1010
0001
0010
0100
,
1001
0000
0100
0000
0002
0003
0000
0000
0200
0000
0000
0000
0000
0000
0000
0300
2000
3000
0000
0000
0000
0000
0000
0000
1100
0000
0010
0000
0001
0000
0010
0000
,
0101
1000
0100
0010
1100
0001
0010
1000
0011
1000
0100
0010
1001
0100
1000
0100
,
0002
0003
0000
0000
0200
0300
0000
0000
0020
0000
0000
0000
0000
0000
0000
0030
0002
0003
0000
0000
0000
0000
0000
0000
0011
0000
0100
0000
1000
0000
0100
0000
,
0011
0100
0001
1000
0110
0001
0010
0100
1001
0010
0001
1000
0101
0010
0100
1000
,
0011
0000
0100
0000
2000
3000
0000
0000
0002
0000
0000
0000
0000
0000
0000
0003
0020
0030
0000
0000
0000
0000
0000
0000
1001
0000
0100
0000
0010
0000
0100
0000
,
1010
0001
1000
0100
1001
0010
0100
0001
0110
0001
1000
0100
0011
1000
0001
1000
,
0020
0030
0000
0000
0002
0003
0000
0000
2000
0000
0000
0000
0000
0000
0000
3000
0200
0300
0000
0000
0000
0000
0000
0000
1001
0000
0010
0000
0100
0000
0010
0000
,
1001
0010
1000
0100
0011
1000
0001
0010
1100
0001
1000
0100
1010
0001
0010
0100
,
1001
0000
0100
0000
0020
0030
0000
0000
0200
0000
0000
0000
0000
0000
0000
0300
2000
3000
0000
0000
0000
0000
0000
0000
1100
0000
0010
0000
0001
0000
0010
0000
,
0101
1000
0100
0010
1100
0001
0010
1000
0011
1000
0100
0010
1001
0100
1000
0100
,
0002
0003
0000
0000
2000
3000
0000
0000
0200
0000
0000
0000
0000
0000
0000
0300
0020
0030
0000
0000
0000
0000
0000
0000
1001
0000
0010
0000
0100
0000
0010
0000
,
1001
0010
1000
0100
0011
1000
0001
0010
1100
0001
1000
0100
1010
0001
0010
0100
,
1001
0000
0100
0000
0020
0030
0000
0000
0200
0000
0000
0000
0000
0000
0000
0300
2000
3000
0000
0000
0000
0000
0000
0000
0011
0000
0100
0000
1000
0000
0100
0000
,
1011
1000
1011
0220
0000
1001
0000
0000
,
1001
0000
0000
0000
1001
0000
0000
0000
1001
0000
0000
0000
0000
0000
0000
0330
1000
0000
0000
0000
1000
0000
0000
0000
0000
0000
0000
0000
0102
0000
0000
0000
,
0000
0000
0000
0000
0010
0000
0000
0003
1100
0000
0011
0000
1100
0000
0011
0000
1000
0000
0000
0000
1000
0000
0000
0000
0100
0000
0011
0000
0100
0000
1000
0000
,
0011
0100
1000
0011
0100
1000
0011
0100
1000
0010
1000
0010
0001
0001
0001
0001
,
0010
0010
0010
0010
0100
1001
0100
0010
0100
0010
0100
0010
1001
0110
1001
0110
,
0001
0000
1100
0000
0001
0000
0010
0000
2100
0000
0000
0000
0000
0000
0000
3000
0002
0003
0100
0000
1010
0000
0001
0000
2000
3000
0000
0000
0101
0000
0010
0000
,
0200
0300
0010
0000
1001
0000
0000
0000
0002
0003
0010
0000
2001
3000
0100
0000
0000
0000
0000
0000
1002
0003
0010
0000
0200
0300
0010
0000
1002
0003
0000
0000
,
0200
0300
0000
0000
1020
0030
0000
0000
0002
0000
0000
0000
1010
0000
0003
0000
0200
0300
0010
0000
0101
0000
1000
0000
0002
0003
0000
0000
1001
0000
0100
0000
,
0020
0030
0001
0000
1010
0000
0000
0000
0002
0003
0010
0000
2100
3000
0010
0000
0000
0000
0000
0000
1002
0003
0010
0000
0200
0300
0010
0000
1002
0003
0000
0000
,
0020
0030
0000
0000
0201
0300
0000
0000
2001
0000
0000
0000
0100
0000
3011
0000
0200
0300
0010
0000
1100
0000
0010
0000
0002
0003
0000
0000
1001
0000
0010
0000
,
0200
0300
1000
0000
0011
0000
0000
0000
2100
3000
0010
0000
0002
0003
0010
0000
0000
0000
0000
0000
2001
3000
0100
0000
0020
0030
0001
0000
2100
3000
0000
0000
,
0002
0003
0000
0000
2010
3000
0000
0000
0002
0000
0000
0000
1100
0000
0003
0000
0020
0030
0100
0000
0011
0000
0100
0000
2000
3000
0000
0000
0101
0000
0010
0000
,
0200
0300
0010
0000
1001
0000
0000
0000
0110
0000
1001
0000
0110
0000
1001
0000
0110
0000
0000
0000
1000
0000
1000
0000
0000
0000
1000
0000
0101
0000
0000
0000
,
1000
0000
0000
0000
0000
0000
0000
0000
0000
0000
0000
0000
0002
0000
0000
0000
0000
0000
0000
0000
0003
0000
0000
0000
0000
0000
0000
0000
0000
0000
0000
0000
0000
0000
0000
0000
1000
0000
0000
0000
0000
0000
0000
0000
0000
0000
0000
0000
0011
0000
0000
0000
0000
0000
0000
0000
0000
0000
0000
0000
1100
0000
0000
0000
0000
0000
0000
0000
0000
0000
0000
0000
0011
0000
0000
0000
0000
0000
0000
0000
0000
0000
0000
0000
1100
0000
0000
0000
0000
0000
0000
0000
0000
0000
0000
0000
0020
0000
0000
0000
0000
0000
0030
0000
0000
0000
0000
0000
0100
0000
0000
0000
0000
0000
0000
0000
0000
0000
0000
0000
1001
0000
0000
0000
0000
0000
0000
0000
0000
0000
0000
0000
0100
0000
0000
0000
0000
0000
0000
0000
0000
0000
0000
0000
0002
0000
0000
0000
0000
0000
0003
0000
0000
0000
0000
0000
0000
0000
0000
0000
0000
0000
0000
0000
0000
0000
0000
0000
1010
0000
0000
0000
0000
0000
0000
0000
0000
0000
0000
0000
0100
0000
0000
0000
0000
0000
0000
0000
0000
0000
0000
0000
,
2000
3000
0100
0000
0011
0000
0000
0000
0200
0300
0010
0000
1002
0003
0010
0000
0000
0000
0000
0000
1020
0030
0100
0000
2000
3000
0100
0000
0012
0003
0000
0000
,
2000
3000
0000
0000
0102
0003
0000
0000
0020
0000
0000
0000
1100
0000
0030
0000
2000
3000
0100
0000
1010
0000
0100
0000
0002
0003
0000
0000
0110
0000
1000
0000
,
0200
0300
1000
0000
0101
0000
0000
0000
0020
0030
0100
0000
1002
0003
0100
0000
0000
0000
0000
0000
1020
0030
0100
0000
2000
3000
0100
0000
0012
0003
0000
0000
,
0200
0300
0000
0000
2010
3000
0000
0000
0012
0000
0000
0000
1000
0000
0113
0000
2000
3000
0100
0000
1001
0000
0010
0000
0002
0003
0000
0000
1100
0000
0001
0000
,
0020
0030
0100
0000
1010
0000
0000
0000
0102
0003
0010
0000
2000
3000
0100
0000
0000
0000
0000
0000
0012
0003
1000
0000
0020
0030
0100
0000
1002
0003
0000
0000
,
0200
0300
0000
0000
0012
0003
0000
0000
2000
0000
0000
0000
0101
0000
3000
0000
0020
0030
0001
0000
1010
0000
0001
0000
0200
0300
0000
0000
1010
0000
0100
0000
,
2000
3000
0010
0000
0101
0000
0000
0000
0020
0030
0000
0000
2001
0000
0000
0000
0000
0000
0000
3000
2001
0000
3000
0000
0201
0000
0000
0000
0011
0000
0000
0300
,
1100
0000
0011
0000
2100
3000
0011
0000
0200
0300
1000
0000
0020
0030
1000
0000
0102
0003
0000
0000
0020
0030
1000
0000
0200
0300
0000
0000
0012
0000
0000
0000
,
0000
0000
0000
0003
0200
0300
0000
0000
2001
3000
0000
0000
0200
0300
0010
0000
1002
0003
0000
0000
0200
0300
0010
0000
2001
3000
0110
0000
0002
0003
0010
0000
,
1200
0300
0011
0000
0200
0300
0100
0000
0020
0030
0010
0000
0002
0003
0000
0000
2000
0000
0000
0000
0110
0000
0000
0000
0001
0000
0010
3000
1200
0000
0000
0000
,
0010
0000
0000
0000
1001
0000
0000
0300
0020
0000
1000
0000
1000
0000
1000
0030
2001
0000
0000
0000
0000
0000
0000
0000
0001
0000
0000
3000
0210
0000
0000
0000
,
0000
0000
0000
0000
1000
0000
0000
0300
0120
0000
0000
0000
1000
0000
0100
0030
1002
0003
0000
0000
0020
0030
0100
0000
2000
3000
0000
0000
0120
0000
0000
0000
,
0000
0000
0000
0030
2000
3000
0000
0000
0012
0003
0000
0000
2000
3000
0100
0000
0021
0030
0000
0000
2000
3000
0100
0000
0012
0003
1100
0000
0020
0030
0100
0000
,
2001
3000
0110
0000
0002
0003
0001
0000
0020
0030
0010
0000
0200
0300
0000
0000
2001
0000
0000
0000
0110
0000
0000
0000
0001
0000
0001
0000
0110
0000
0000
0000
,
0001
0000
0000
0000
0110
0000
0000
0000
0001
0000
0001
0000
0001
0000
3001
0000
1020
0030
0000
0000
0200
0300
0000
0000
0002
0003
0000
0000
1020
0000
0000
0000
,
0200
0300
0000
0030
0002
0003
0000
0000
2010
3000
0000
0000
0201
0300
0010
0000
1002
0003
0000
0000
0020
0030
1000
0000
0200
0300
0000
0000
0012
0000
0000
0000
,
0000
0000
0000
0003
0200
0300
0000
0000
2001
3000
0000
0000
0200
0300
0010
0000
1002
0003
0000
0000
0200
0300
0010
0000
2001
3000
0110
0000
0002
0003
0010
0000
,
1200
0300
0011
0000
2000
3000
1000
0000
0020
0030
0010
0000
0002
0003
0000
0000
2000
0000
0000
0000
0110
0000
0000
0000
0001
0000
0010
3000
1200
0000
0000
0000
,
0010
0000
0000
0000
1001
0000
0000
0300
0020
0000
1000
0000
1000
0000
1000
0030
2001
0000
0000
0000
0000
0000
0000
0000
0001
0000
0000
3000
0210
0000
0000
0000
,
0000
0000
0000
0000
1000
0000
0000
0300
0120
0000
0000
0000
1000
0000
0100
0030
1002
0003
0000
0000
0010
0000
0001
0000
0010
0000
0001
0000
0010
0000
0001
0000
,
1000
0000
0100
1000
0100
1000
0100
0010
0001
0000
0110
1001
0110
1001
0010
0100
,
1001
0000
0110
0000
0001
0000
0001
0000
0010
0000
0010
0000
0100
0000
0100
0000
1002
0003
0000
0000
1020
0030
0000
0000
1002
0003
0000
0000
1020
0030
0000
0000
,
1002
0000
0000
0000
0000
0000
0003
0000
0000
0000
0000
0000
0000
0000
0000
0000
0000
0000
0000
0000
0000
0000
0000
0000
1020
0000
0000
0000
0000
0000
0030
0000
0000
0000
0000
0000
0000
0000
0000
0000
0000
0000
0000
0000
0000
0000
0000
0000
1002
0000
0000
0000
0000
0000
0003
0000
0000
0000
0000
0000
0000
0000
0000
0000
0000
0000
0000
0000
0000
0000
0000
0000
1020
0000
0000
0000
0000
0000
0030
0000
0000
0000
0000
0000
0000
0000
0000
0000
0000
0000
0000
0000
0000
0000
0000
0000
1002
0000
0000
0000
0000
0000
0000
0000
0003
0000
0000
0000
0000
0000
0000
0000
0000
0000
0000
0000
0000
0000
0000
0000
0020
0000
0000
0000
0000
0000
0030
0000
0000
0000
0000
0000
0100
0000
0000
0000
0000
0000
0000
0000
0000
0000
0000
0000
0002
0000
0000
0000
0000
0000
0003
0000
0000
0000
0000
0000
0000
0000
0000
0000
0000
0000
0000
0000
0000
0000
0000
0000
1020
0000
0000
0000
0000
0000
0030
0000
0000
0000
0000
0000
0100
0000
0000
0000
0000
0000
0000
0000
0000
0000
0000
0000
,
0002
0003
0100
0000
2000
3000
0000
0000
0201
0300
1000
0000
0020
0030
1000
0000
0002
0000
0000
0000
0110
0000
0000
0000
0000
0000
0000
0000
0110
0000
0000
0003
,
2000
0000
0000
0000
0011
0000
0000
0000
0000
0000
0000
0000
0011
0000
0000
3000
0200
0000
0000
0000
1001
0000
0000
0000
0000
0000
0000
0000
1001
0000
0000
0300
,
0020
0000
0000
0000
1100
0000
0000
0000
0000
0000
0000
0000
1100
0000
0000
0030
0002
0000
0000
0000
0110
0000
0000
0000
0000
0000
0000
0000
0110
0000
0000
0000
,
0000
0000
0000
0003
1200
0000
0000
0300
0020
0000
0000
0030
1002
0000
0000
0003
2000
0000
0000
0000
0011
0000
0000
0000
0000
0000
0000
0000
0011
0000
0000
0000
,
0000
0000
0000
0000
0011
0000
0000
0000
0011
0000
0000
0000
0100
0000
0011
3000
0200
0000
0000
0000
1001
0000
0000
0000
0000
0000
0000
0000
1001
0000
0000
0000
,
0000
0000
0000
0000
1001
0000
0000
0000
0000
0000
0000
0000
1001
0000
0000
0300
0002
0000
0000
0000
1100
0000
0000
0000
0000
0000
0000
0000
1100
0000
0000
0000
,
0000
0000
0000
0003
0021
0000
0000
0030
0200
0000
0000
0300
2001
0000
0000
3000
0020
0000
0000
0000
1100
0000
0000
0030
0200
0000
0000
0000
0011
0000
0000
0300
,
2000
0000
0000
0000
0110
0000
0000
3000
0200
0000
0000
0000
1010
0000
0000
0300
2011
0000
0000
0000
0011
0000
0000
0000
0011
0000
0000
0000
0011
0000
0000
0000
,
0011
0000
0000
0000
0011
0000
0000
0000
0011
0000
0011
0000
0011
0000
0011
3000
0200
0000
0000
0000
1001
0000
0000
0000
0000
0000
0000
0000
1001
0000
0000
0000
,
0000
0000
0000
0000
1001
0000
0000
0300
0002
0000
0000
0003
0210
0000
0000
0300
2000
0000
0000
0000
0101
0000
0000
0000
0000
0000
0000
0000
0101
0000
0000
0000
,
0000
0000
0000
0000
0101
0000
0000
0000
0000
0000
0000
0000
0101
0000
0000
3000
0200
0000
0000
0000
0011
0000
0000
0000
0000
0000
0000
0000
0011
0000
0000
0000
,
0000
0000
0000
0300
2001
0000
0000
3000
0200
0000
0000
0300
0021
0000
0000
0030
0002
0000
0000
0000
1010
0000
0000
0000
0000
0000
0000
0000
1010
0000
0000
0000
,
0000
0000
0000
0000
1010
0000
0000
0000
1010
0000
0000
0000
0100
0000
1010
0003
0200
0000
0000
0000
0011
0000
0000
0000
0000
0000
0000
0000
0011
0000
0000
0300
,
0002
0000
0000
0000
1010
0000
0000
0000
0000
0000
0000
0000
1010
0000
0000
0003
0020
0000
0000
0000
1001
0000
0000
0000
0000
0000
0000
0000
1001
0000
0000
0000
,
0000
0000
0000
0000
1001
0000
0000
0030
0002
0000
0000
0003
0210
0000
0000
0300
2000
0000
0000
0000
0011
0000
0000
0000
0011
0000
0000
0000
0011
0000
0000
3000
,
0200
0000
0000
0000
0011
0000
0000
0000
0011
0000
0000
0000
0011
0000
0000
0300
0002
0000
1100
0000
0000
0000
0010
0000
1100
0000
1100
0000
0000
0000
0010
0000
,
0000
0000
0010
0000
1100
0000
0000
0000
1100
0000
0000
0000
0010
0000
1100
0003
0002
0000
0000
0003
1010
0000
0100
0000
1000
0000
0100
0000
0011
0000
0100
0000
,
0010
0001
1010
0002
0000
0003
0110
0000
1000
0100
0011
0100
0010
0001
1010
0001
,
0010
0000
0100
0000
1010
0000
0001
0000
2000
0000
0000
0000
0110
0000
0000
3000
0002
0003
0100
0000
1010
0000
0001
0000
2000
3000
0000
0000
0101
0000
0010
0000
,
0200
0300
0010
0000
1001
0000
0000
0000
0002
0003
0010
0000
2001
3000
0100
0000
0000
0000
0000
0000
1002
0003
0000
0000
0200
0300
0000
0000
0012
0003
0000
0000
,
0200
0300
0000
0000
1020
0030
0000
0000
0102
0000
0000
0000
0010
0000
1100
0003
0020
0000
0000
0030
1100
0000
0010
0000
0001
0000
0010
0000
0101
0000
0010
0000
,
0100
0000
1000
0000
0101
0000
0010
0000
0002
0000
0000
0003
1020
0000
0000
0030
1000
0000
0100
0000
0011
0000
0100
0000
1000
0000
0100
0000
1010
0000
0001
0000
,
0020
0000
0000
0000
1100
0000
0000
0000
0000
0000
0000
0000
1100
0000
0000
0030
2000
3000
0100
0000
1001
0000
0010
0000
0002
0003
0000
0000
1100
0000
0001
0000
,
0020
0030
0100
0000
1001
0000
0000
0000
0011
0000
1100
0000
0011
0000
1100
0000
0011
0000
0000
0000
1000
0000
1000
0000
0000
0000
1000
0000
0101
0000
0000
0000
,
1000
0000
0200
0300
0000
0000
1000
0000
0011
0000
0000
0000
1100
0000
0011
0000
0200
0000
0000
0000
1001
0000
0000
0000
0000
0000
0000
0000
1001
0000
0000
0000
,
0000
0000
0000
0000
1001
0000
0000
0000
0000
0000
0000
0000
1001
0000
0000
0300
2000
0000
0000
0000
0110
0000
0000
0000
0000
0000
0000
3000
0120
0000
0000
0030
,
0002
0000
0000
0000
1100
0000
0000
0000
0000
0000
0000
0000
1100
0000
0000
0003
0020
0030
1000
0000
0101
0000
0010
0000
0002
0003
0000
0000
1010
0000
0100
0000
,
2000
3000
0100
0000
0011
0000
0000
0000
0020
0030
0100
0000
0012
0003
1000
0000
0000
0000
0000
0000
0021
0030
0000
0000
2000
3000
0000
0000
0120
0030
0000
0000
,
2000
3000
0000
0000
0201
0300
0000
0000
1020
0000
0000
0000
0001
0000
1100
0030
0001
0000
0000
0000
0110
0000
0000
0000
0000
0000
0000
0000
2100
0000
0000
0000
,
0000
0000
0000
3000
0101
0000
0000
0000
0010
0000
0000
0000
1100
0000
0000
0000
0001
0000
0000
0000
1010
0000
0000
0000
0000
0000
0000
0000
1200
0000
0000
0000
,
0000
0000
0000
0000
0011
0000
0000
0300
0000
0000
2000
0000
0011
0000
0000
3000
0002
0003
1000
0000
0011
0000
0100
0000
0020
0030
0000
0000
1001
0000
0010
0000
,
0200
0300
1000
0000
0011
0000
0000
0000
0110
0000
1001
0000
0110
0000
1001
0000
0110
0000
0000
0000
0010
0000
0010
0000
0000
0000
0010
0000
1001
0000
0000
0000
,
0010
0000
0200
0300
0000
0000
0010
0000
1001
0000
0000
0000
1001
0000
0110
0000
2000
0000
0000
0000
0000
0000
0000
0000
0000
0000
0000
0000
0000
0000
0000
0000
,
0000
0000
0000
0000
,
0000
0000
0000
0000
,
0000
0000
0000
0000
0000
0000
0000
0000
0000
0000
0000
3000
0000
0000
0000
0000
0000
0000
0000
0000
0000
0000
0000
0000
0000
0000
0000
0000
0000
0000
0000
0000
;

//---------------dance-single - Copied from Blank----------------
#NOTES:
     dance-single:
     Copied from Blank:
     Hard:
     11:
     1.000,1.000,0.871,1.000,1.000,1645.000,206.000,445.000,0.000,0.000:

1002
0000
0000
0000
0000
0000
0000
0000
1000
0000
0000
0003
0100
0000
0010
0000
1002
0000
0000
0000
0000
0000
0000
0000
1000
0000
0000
0003
0100
0000
0010
0000
,
1002
0000
0000
0000
0000
0000
0000
0000
1000
0000
0000
0003
0100
0000
0010
0000
1002
0000
0000
0000
0000
0000
0000
0003
1020
0000
0000
0000
0000
0000
0000
0030
,
1002
0000
0000
0000
0000
0000
0000
0000
1000
0000
0000
0003
0100
0000
0010
0000
1002
0000
0000
0000
0000
0000
0000
0000
1000
0000
0000
0003
0100
0000
0010
0000
,
1002
0000
0000
0000
0000
0000
0000
0000
1000
0000
0000
0003
0100
0000
0010
0000
1002
0000
0000
0000
0000
0000
0000
0003
1020
0000
0000
0000
0000
0000
0000
0030
,
2200
0000
0000
0000
0300
0000
0000
0000
0000
0000
0000
0000
0000
0000
0000
0000
0000
0000
0000
0000
0000
0000
0000
0000
0000
0000
0000
0000
0000
0000
3000
0000
2000
0000
0000
0000
0000
0000
0000
0000
0000
0000
0000
0000
0020
0030
0000
0000
0000
0000
0000
0000
0000
0000
0020
0030
0000
0000
0000
0000
0000
0000
0000
0000
,
0000
0000
0020
0030
0000
0000
0000
0000
0000
0000
0000
0000
0000
0000
0000
0000
0020
0030
0000
0000
0000
0000
3000
0000
1002
0000
0000
0000
0000
0000
0003
0000
2020
0000
0000
0000
0030
0000
0000
0000
0010
0000
0000
0000
0010
0000
0000
0000
0010
0000
0000
0000
0010
0000
3000
0000
0100
0000
0000
0000
0001
0000
0010
0000
,
0100
0000
1001
0000
1010
0000
1100
0000
0011
0000
0011
0000
0001
1000
0001
1000
0001
0000
0000
0000
0100
0000
0000
0000
1000
0000
0010
0000
1000
0000
0010
0000
,
0100
0000
1000
0000
0010
0100
0001
0100
0010
0000
0100
0000
0001
0010
0100
1000
,
0202
0000
0000
0000
0000
0000
0000
0303
2020
0000
0000
0000
0000
0000
0000
3030
1000
0000
0000
0000
0100
0000
0000
0000
0001
0000
0010
0000
0100
0000
1000
0000
,
0100
0000
0010
0000
0001
1000
0100
0010
0001
0000
0100
0000
1000
0010
1000
0010
,
0202
0000
0000
0000
0000
0000
0000
0303
2020
0000
0000
0000
0000
0000
0000
3030
0100
0000
0000
0000
0010
0000
0000
0000
0010
0000
1000
0000
0001
0000
1000
0000
,
0100
0000
0010
0000
0001
0010
0100
1000
0010
0000
0100
0000
1000
0100
1000
0010
,
0202
0000
0000
0000
0000
0000
0000
0303
2020
0000
0000
0000
0000
0000
0000
3030
0100
0000
0000
0000
0010
0000
0000
0000
0100
0000
0010
0000
1000
0000
0001
0000
,
0100
0000
0010
0000
1000
0001
1000
0001
1000
0010
0100
0001
1000
0010
0100
0010
,
1000
0100
0010
0001
0110
0000
0100
0010
0100
0000
0100
1001
0000
0010
1001
0000
,
0100
1001
0000
0010
1001
0000
0100
0000
1001
0000
0010
1001
0000
0100
1001
0000
,
0001
0110
0000
1000
0110
0000
0010
0100
0010
0000
1000
0110
0000
0001
0110
0000
,
1000
0110
0000
0001
0110
0000
0010
0000
0101
0000
0001
0110
0000
1000
0110
0000
,
0100
0000
0011
0000
0000
0000
0010
0000
0102
0000
0000
0000
0000
0000
1000
0003
1000
0000
0000
0000
0100
0000
1001
0000
0000
0000
0010
0000
1001
0000
0000
0000
,
0100
1001
0000
0010
1001
0000
0100
0000
1001
0000
0010
1001
0000
0100
1001
0000
,
1000
0011
0000
0001
1100
0000
0001
1000
0001
0000
0001
1100
0000
1000
0011
0000
,
0001
1100
0000
1000
0011
0000
0100
0000
1010
0000
0000
0101
0000
0000
0110
0000
,
0000
1100
0000
0000
0001
1000
0001
1000
0002
0000
0000
0000
0000
0000
0010
0000
,
0000
0000
0010
0000
0000
0010
0000
0000
,
0100
0000
0000
0000
0000
0000
0000
0000
1000
0000
0000
0003
0100
0000
0010
0000
0201
0000
0000
0000
0000
0000
0000
0000
0000
0000
0000
0000
0001
0000
0000
0000
,
0000
0000
0001
0000
0000
0001
0000
0000
,
1000
0000
0000
0000
0301
1000
0000
1000
0001
1000
0000
1000
0001
1000
0000
1000
,
0001
1000
0000
1000
0001
1000
0000
1000
0001
1000
0000
1000
0001
1000
0000
1000
,
0001
1000
0000
1000
0001
1000
0000
1000
0001
1000
0000
1000
0001
1000
0000
1000
,
0001
1000
0000
1000
0002
1000
0003
1000
0010
0100
0000
0000
0100
0000
0000
0010
,
0000
0000
0100
0000
0000
0000
0010
0000
1000
0000
0001
0000
1000
0000
0001
0000
2000
3000
0000
0000
2010
3000
0000
0000
0000
0000
0000
0000
2100
3000
0000
0000
,
2000
3000
0000
0000
0010
0000
0000
0000
2000
3000
0000
0000
2010
3000
0000
0000
0000
0000
0000
0000
2010
3000
0000
0000
2000
3000
0000
0000
0100
0000
0000
0000
,
0020
0000
0000
0000
1000
0000
0000
0030
0002
0000
0000
0000
0100
0000
0000
0003
2000
3000
0000
0000
2100
3000
0000
0000
0000
0000
0000
0000
2010
3000
0000
0000
,
2000
3000
0000
0000
0001
0000
0000
0000
2000
3000
0000
0000
2010
3000
0000
0000
0000
0000
0000
0000
2010
3000
0000
0000
2000
3000
0000
0000
0010
0000
0000
0000
,
0002
0000
0000
0000
0010
0000
0000
0003
2010
0000
0000
0000
0001
0000
0010
3000
2100
3000
0000
0000
2100
3000
0000
0000
0000
0000
0000
0000
2010
3000
0000
0000
,
2000
3000
0000
0000
0010
0000
0000
0000
2000
3000
0000
0000
2100
3000
0000
0000
0000
0000
0000
0000
2001
3000
0000
0000
2000
3000
0000
0000
0100
0000
0000
0000
,
0020
0000
0000
0000
0100
0000
0000
0030
0002
0000
0000
0000
0010
0000
0000
0003
2000
3000
0000
0000
2100
3000
0000
0000
0000
0000
0000
0000
2010
3000
0000
0000
,
2000
3000
0000
0000
0100
0000
0000
0000
0001
0000
0100
0000
0001
0000
0100
0000
0001
0000
0000
0000
0000
0000
0000
0000
0000
0000
0000
0000
0100
0000
0000
0000
,
0000
0000
0000
0000
1001
0000
0100
0010
2000
0000
0001
0000
0000
0000
0001
0000
,
0000
0000
0000
0000
0001
0000
0000
0000
0000
0000
0000
0000
0001
0000
0000
0000
0000
0000
0000
0000
0001
0000
0000
0000
0000
0000
0000
3000
1000
0000
0100
0000
,
0010
0000
0000
0000
0000
0000
0000
0000
0001
0000
0000
0000
0000
0000
0000
0000
1000
0000
0000
0000
0000
0000
0000
0000
0100
0000
0000
0000
0000
0000
0000
0000
0010
0000
0000
0000
0000
0000
0000
0000
0100
0000
0000
0000
0000
0000
0000
0000
1000
0000
0000
0000
0000
0000
0000
0000
0000
0000
0000
0000
0001
0000
0000
0000
0000
0000
0000
0000
0000
0000
0000
0000
0100
0000
0000
0000
0000
0000
0000
0000
0000
0000
0000
0000
0001
0000
0000
0000
0000
0000
0000
0000
0000
0000
0000
0000
1000
0000
0000
0000
0000
0000
0000
0000
0000
0000
0000
0000
0100
0000
0000
0000
0000
0000
0000
0000
0000
0000
0000
0000
0010
0000
0000
0000
0000
0000
0000
0000
0000
0000
0000
0000
0002
0000
0000
0000
0000
0000
0000
0000
0000
0000
0000
0000
0000
0000
0000
0000
0000
0000
0003
0000
0000
0000
0000
0000
1000
0000
0000
0000
0000
0000
0000
0000
0000
0000
0000
0000
0010
0000
0000
0000
0000
0000
0000
0000
0000
0000
0000
0000
1000
0000
0000
0000
0000
0000
0000
0000
0000
0000
0000
0000
,
0100
0000
0020
0000
0000
0030
0001
0000
0010
0000
0100
0000
1000
0000
0010
0000
0100
0000
0010
0000
0100
0000
2000
0000
0000
3000
0100
0000
0010
0000
0100
0000
,
1000
0000
0002
0000
0000
0003
1000
0000
0001
0000
0100
0000
2000
0000
0000
0000
0000
0000
0000
0000
0001
0000
0000
0000
0000
0000
0000
0000
0001
0000
0000
0000
,
0000
0000
0000
3000
0102
0000
0000
0000
0000
0000
0000
0000
0100
0000
0000
0000
0000
0000
0000
0000
0100
0000
0000
0000
0000
0000
0000
0003
1200
0000
0000
0000
,
0000
1000
0000
1000
0000
1000
0000
1000
,
0000
0000
0000
0300
0010
0000
0000
0000
1000
0000
0010
0000
1000
0000
0010
0000
0001
0000
0010
0000
1000
0000
0001
0000
0010
0000
1000
0000
0100
0000
0010
0000
,
0001
0000
0010
0000
1000
0000
0100
0000
1002
0000
1000
0000
1000
0000
1000
0000
0000
0000
0000
0003
0120
0000
0000
0000
0000
0000
0000
0000
0100
0000
0000
0000
,
0000
0100
0000
0100
0000
0100
0000
0100
,
0000
0000
0000
0000
0100
0000
0000
0000
0000
0000
0000
0000
0100
0000
0000
0000
0031
0000
0010
0000
0100
0000
0010
0000
0002
0000
0000
0003
0001
0000
0010
0000
,
0100
0000
0010
0000
0002
0000
0000
0003
0001
0000
0010
0000
0100
0000
0010
0000
0002
0000
0000
0003
0001
0000
0010
0000
0100
0000
0010
0000
0001
0000
0000
0000
,
2000
0000
0000
3000
0021
0000
0030
0000
0021
0000
0000
0000
0000
0000
0100
0030
1000
0000
0100
0000
0010
0000
0100
0000
2000
0000
0000
3000
1000
0000
0100
0000
,
0010
0000
0100
0000
2000
0000
0000
3000
1000
0000
0100
0000
0010
0000
0100
0000
2000
0000
0000
3000
1000
0000
0100
0000
0010
0000
0100
0000
2000
0000
0000
3000
,
0200
0000
0000
0000
0000
0000
0000
0300
0020
0000
0000
0000
0000
0000
0000
0030
0001
0000
0010
0000
0100
0000
0010
0000
0002
0000
0000
0003
0001
0000
0010
0000
,
0100
0000
0010
0000
0001
0000
0000
0000
0100
0000
0001
0000
0100
0000
0001
0000
0200
0000
0000
0300
0200
0000
0000
0000
0010
0000
0000
0000
0000
0000
0000
0300
,
0012
0000
0000
0000
0000
0000
0000
0003
1000
0000
0001
0000
1000
0000
0001
0000
2000
0000
0000
0000
0010
0000
0000
0000
0001
0000
0000
0000
0001
0000
0000
0000
,
0010
0000
0000
0000
0100
0000
0000
0000
0001
0000
0000
0000
0010
0000
0000
3000
1002
0000
0000
0000
0100
0000
0000
0000
1000
0000
0000
0000
0100
0000
0000
0000
,
1000
0000
0000
0000
0100
0000
0000
0000
1000
0000
0000
0000
1000
0000
0000
0003
0020
0000
0000
0000
0100
0000
0000
0000
1000
0000
0000
0000
1000
0000
0000
0000
,
1000
0000
0000
0000
0100
0000
0000
0000
1000
0000
0000
0000
0100
0000
0000
0030
2001
0000
0000
0000
0010
0000
0000
0000
0001
0000
0000
0000
0001
0000
0000
0000
,
0001
0000
0000
0000
0010
0000
0000
3000
0210
0000
0000
0000
0000
0000
0001
0300
2000
0000
0000
0000
0001
0000
0000
0000
0100
0000
0000
0000
0100
0000
0000
0000
,
0100
0000
0000
0000
0010
0000
0000
0000
0100
0000
0000
0000
0100
0000
0000
3000
1002
0000
0000
0000
0100
0000
0000
0000
1000
0000
0000
0000
1000
0000
0000
0000
,
1000
0000
0000
0000
0100
0000
0000
0000
1000
0000
0000
0000
1000
0000
0000
0003
0020
0000
0000
0000
0100
0000
0000
0000
1000
0000
0000
0000
1000
0000
0000
0000
,
1000
0000
0000
0000
0000
0000
0000
0000
0000
0000
0000
0000
0000
0000
0000
0000
0000
0000
0000
0000
0000
0000
0000
0000
0100
0000
0000
0000
0000
0000
0000
0000
0000
0000
0000
0000
0000
0000
0000
0000
0000
0000
0030
0000
0000
0000
0000
0000
1000
0000
0000
0000
0000
0000
0000
0000
0000
0000
0000
0000
0001
0000
0000
0000
0000
0000
0000
0000
0000
0000
0000
0000
1000
0000
0000
0000
0000
0000
0000
0000
0000
0000
0000
0000
0001
0000
0000
0000
0000
0000
0000
0000
0000
0000
0000
0000
0200
0000
0000
0000
0300
0000
0000
0000
0000
0000
0000
0000
0000
0000
0000
0000
0000
0000
0000
0000
0000
0000
0000
0000
0000
0000
0000
0000
0000
0000
0000
0000
0000
0000
0000
0000
0020
0000
0000
0000
0030
0000
0000
0000
0000
0000
0000
0000
0000
0000
0000
0000
0000
0000
0000
0000
0000
0000
0000
0000
0000
0000
0000
0000
0000
0000
0000
0000
0000
0000
0000
0000
0020
0000
0000
0000
0030
0000
0000
0000
0000
0000
0000
0000
0000
0000
0000
0000
0000
0000
0000
0000
0000
0000
0000
0000
,
0000
0000
0000
0020
0030
0000
0000
0000
0000
2000
3000
0000
0000
0000
0000
0000
0200
0300
0000
0000
0000
0000
0000
0000
0001
0000
0000
0010
0000
0000
0100
0000
0000
1000
0000
0000
0100
0000
0000
1000
0000
0000
0100
0000
0000
0010
0000
0000
,
0001
0100
0010
0100
0001
0010
0100
1000
0100
0010
0001
0010
0100
1000
0010
0100
,
0001
0000
0100
0000
0010
0000
0100
0000
2000
0000
0000
0000
0000
0000
0000
3000
1000
0000
0010
0000
0100
0000
0010
0000
0001
0000
0010
0000
0100
0000
0010
0000
,
0001
0010
0100
0010
0001
0010
1000
0010
0001
0010
0100
1000
0001
0010
0100
0010
,
0100
1000
0100
1000
0100
0010
0100
1000
0001
0010
0100
0010
0100
1000
0010
0100
,
0010
0100
0001
0100
0001
1000
0010
0100
0010
1000
0010
0100
0010
0100
0001
0100
,
0001
0100
0010
1000
0100
0010
0001
0010
0001
0100
0010
0100
0010
1000
0001
0100
,
0010
1000
0100
0010
0001
0010
0100
0010
0001
0010
0001
1000
0001
1000
0001
1000
,
0100
0000
0000
0010
0000
0000
0001
0000
0000
0010
0000
0000
0100
0000
0000
0000
1000
0000
0000
0000
0010
0000
0000
0000
0002
0000
0000
0000
0000
0000
1000
0000
0000
0000
0000
0000
0000
0000
0000
0000
0000
0000
1000
0000
0000
0000
0000
0000
,
0000
0000
1000
0000
0000
0000
1000
0000
0000
0000
1000
0000
0000
0000
1000
0003
,
0020
0000
0000
0000
0100
0000
0000
0000
0000
0000
0000
0000
0100
0000
0000
0030
0200
0000
0000
0000
0001
0000
0000
0000
0000
0000
0000
0000
0001
0000
0000
0000
,
0000
0000
0000
0000
0001
0000
0000
0000
0000
0000
0000
0000
0001
0000
0000
0300
2000
0000
0000
0000
0001
0000
0000
0000
0000
0000
0000
0000
0001
0000
0000
0000
,
0000
0000
0000
0000
0001
0000
0000
3000
1020
0000
0000
0000
0000
0000
1000
0030
0002
0000
0000
0000
0100
0000
0000
0000
0000
0000
0000
0000
0100
0000
0000
0000
,
0000
0100
0000
0100
0000
0100
0000
0100
,
0000
0000
0100
0000
1003
0010
1000
0010
0100
0000
1000
0000
0001
0010
1000
0000
,
0001
0000
0000
0000
0000
0000
0010
0000
0000
0000
0000
0000
1000
0000
0000
0100
0000
0000
1000
0000
0000
0100
0000
0000
0012
0000
0000
0000
0000
0000
0003
0000
0012
0000
0000
0000
0000
0000
0003
0000
0012
0000
0000
0000
0000
0000
0003
0000
,
0012
0000
0000
0000
0000
0000
0000
0000
0000
0000
0000
0000
0000
0000
0000
0000
0000
0000
0000
0000
0000
0000
0000
0000
0003
0000
0000
0000
0000
0000
0000
0000
2100
0000
0000
0000
0000
0000
0000
0000
0000
0000
0000
0000
0000
0000
0000
0000
0000
0000
0000
0000
0000
0000
0000
0000
3000
0000
0000
0000
0000
0000
0000
0000
0210
0000
0000
0000
0000
0000
0000
0000
0000
0000
0000
0000
0000
0000
0000
0000
0000
0000
0000
0000
0000
0000
0000
0000
0300
0000
0000
0000
0000
0000
0000
0000
0021
0000
0000
0000
0000
0000
0000
0000
0000
0000
0000
0000
0000
0000
0000
0000
0000
0000
0000
0000
0000
0000
0000
0000
0000
0000
0000
0000
0000
0000
0030
0000
0000
0000
0000
0000
0000
0000
0000
0000
0000
0000
0000
0000
0000
0000
0000
0000
0000
0000
0000
0000
0000
0000
0000
0000
0000
0000
0000
0000
0000
0000
0000
0000
0000
0000
0000
0000
0000
0000
0000
0000
0000
0000
0000
0000
0000
0000
0000
0000
0000
0000
0000
0000
0000
0000
0000
0000
0000
0000
0000
0000
0000
0000
0000
0000
,
0000
0000
0000
0000
,
0000
0000
0000
0000
0000
0000
0000
0000
0000
0000
0000
0000
0002
0000
0000
0000
0003
0000
0000
0000
0000
0000
0000
0000
0020
0000
0000
0000
0030
0000
0000
0000
0000
0000
0000
0000
0002
0000
0000
0000
0003
0000
0000
0000
0000
0000
0000
0000
0200
0000
0000
0000
0300
0000
0000
0000
0000
0000
0000
0000
0002
0000
0000
0000
0003
0000
0000
0000
0000
0000
0000
0000
1000
0000
0000
0000
0000
0000
0100
0000
0000
0000
0000
0000
1000
0000
0000
0000
0000
0000
0100
0000
0000
0000
0000
0000
1002
0000
0000
0000
0000
0000
0003
0000
0000
0000
0000
0000
0000
0000
0000
0000
0000
0000
0000
0000
0000
0000
0000
0000
1000
0000
0000
0000
0000
0000
0000
0000
0000
0000
0000
0000
0000
0000
0000
0000
0000
0000
0000
0000
0000
0000
0000
0000
1200
0000
0000
0000
0000
0000
0300
0000
0000
0000
0000
0000
0000
0000
0000
0000
0000
0000
0000
0000
0000
0000
0000
0000
1000
0000
0000
0000
0000
0000
0000
0000
0000
0000
0000
0000
0000
0000
0000
0000
0000
0000
0000
0000
0000
0000
0000
0000
,
1020
0030
0000
0000
1000
0000
0000
0000
1002
0003
0000
0000
1200
0300
0000
0000
1000
0000
0000
0000
1002
0003
0000
0000
1020
0030
0000
0000
1002
0003
0000
0000
,
1020
0030
0000
0000
1002
0003
0000
0000
1200
0000
0000
0000
1000
0000
0000
0300
1020
0030
0000
0000
1000
0000
0000
0000
1002
0003
0000
0000
1000
0000
0000
0000
,
1020
0030
0000
0000
1000
0000
0000
0000
1002
0003
0000
0000
1200
0300
0000
0000
1000
0000
0000
0000
1002
0003
0000
0000
1020
0030
0000
0000
1002
0003
0000
0000
,
2100
3000
0000
0000
0102
0003
0000
0000
0120
0000
0000
0000
0100
0000
0000
0030
1002
0003
0000
0000
1000
0000
0000
0000
1200
0300
0000
0000
1000
0000
0000
0000
,
1020
0030
0000
0000
1000
0000
0000
0000
1002
0003
0000
0000
1200
0300
0000
0000
1000
0000
0000
0000
1002
0003
0000
0000
1020
0030
0000
0000
1002
0003
0000
0000
,
1020
0030
0000
0000
1002
0003
0000
0000
1200
0000
0000
0000
1000
0000
0000
0300
1020
0030
0000
0000
1000
0000
0000
0000
1002
0003
0000
0000
1000
0000
0000
0000
,
1020
0030
0000
0000
1000
0000
0000
0000
1002
0003
0000
0000
1200
0300
0000
0000
1000
0000
0000
0000
1002
0003
0000
0000
1200
0300
0000
0000
1002
0003
0000
0000
,
2100
0000
0000
0000
0002
0003
0000
0000
0020
0000
0000
0000
0000
0000
0000
0030
0200
0300
0000
0000
0000
0000
0000
3000
0001
0000
0010
0000
0100
0000
0010
0000
,
0001
0010
0100
1000
0001
1000
0100
0010
0001
0010
0100
1000
0100
0010
0001
0010
,
0100
0000
1000
0000
0002
0003
0000
0000
0200
0000
0000
0000
0000
0000
0000
0300
2000
3000
0000
0000
0000
0000
0000
0000
0100
0000
0010
0000
0001
0000
0010
0000
,
0100
1000
0010
0100
0001
1000
0010
1000
0100
1000
0100
0010
0001
0100
0010
0100
,
0002
0003
0000
0000
0200
0300
0000
0000
0020
0000
0000
0000
0000
0000
0000
0030
0002
0003
0000
0000
0000
0000
0000
0000
0001
0000
0100
0000
0010
0000
0100
0000
,
0001
0100
0001
1000
0010
0100
0001
0100
0010
1000
0001
1000
0001
0010
0100
1000
,
0010
0000
0100
0000
2000
3000
0000
0000
0002
0000
0000
0000
0000
0000
0000
0003
0020
0030
0000
0000
0000
0000
0000
0000
1000
0000
0100
0000
0010
0000
0100
0000
,
1000
0001
1000
0100
1000
0010
0100
0001
0010
0001
0010
0100
0010
0001
1000
0001
,
0020
0030
0000
0000
0002
0003
0000
0000
2000
0000
0000
0000
0000
0000
0000
3000
0200
0300
0000
0000
0000
0000
0000
0000
0001
0000
0010
0000
0100
0000
0010
0000
,
0001
0010
0100
1000
0001
1000
0001
0010
0100
1000
0100
0010
0001
0010
0100
0010
,
0100
0000
1000
0000
0020
0030
0000
0000
0200
0000
0000
0000
0000
0000
0000
0300
2000
3000
0000
0000
0000
0000
0000
0000
0100
0000
0010
0000
0001
0000
0010
0000
,
0100
1000
0100
0010
0100
1000
0010
1000
0001
1000
0100
0010
0001
0100
0010
0100
,
0002
0003
0000
0000
2000
3000
0000
0000
0200
0000
0000
0000
0000
0000
0000
0300
0020
0030
0000
0000
0000
0000
0000
0000
0001
0000
0010
0000
0100
0000
0010
0000
,
0001
0010
0100
1000
0001
1000
0001
0010
0100
1000
0010
0100
0010
1000
0010
0100
,
0001
0000
0100
0000
0020
0030
0000
0000
0200
0000
0000
0000
0000
0000
0000
0300
2000
3000
0000
0000
0000
0000
0000
0000
0001
0000
0100
0000
1000
0000
0100
0000
,
0011
1000
0011
0002
0000
1000
0000
0000
,
1000
0000
0000
0000
1000
0000
0000
0000
1000
0000
0000
0000
0000
0000
0000
0003
1000
0000
0000
0000
1000
0000
0000
0000
0000
0000
0000
0000
0102
0000
0000
0000
,
0000
0000
0000
0000
0010
0000
0000
0003
1000
0000
0001
0000
1000
0000
0001
0000
1000
0000
0000
0000
1000
0000
0000
0000
0100
0000
0001
0000
0100
0000
1000
0000
,
0001
0100
1000
0001
0100
1000
0001
0100
0001
0010
0001
0010
0001
0100
0001
0100
,
0010
1000
0010
1000
0100
1000
0100
0010
0100
0010
0100
0010
0001
0100
0001
0100
,
0001
0000
0100
0000
0001
0000
0010
0000
2100
0000
0000
0000
0000
0000
0000
3000
0002
0003
0100
0000
0010
0000
0001
0000
2000
3000
0000
0000
0100
0000
0010
0000
,
0200
0300
0010
0000
0001
0000
0000
0000
0002
0003
0010
0000
2000
3000
0010
0000
0000
0000
0000
0000
0002
0003
0010
0000
0200
0300
0010
0000
0002
0003
0000
0000
,
0200
0300
0000
0000
0020
0030
0000
0000
0002
0000
0000
0000
1000
0000
0003
0000
0200
0300
0010
0000
0001
0000
1000
0000
0002
0003
0000
0000
1000
0000
0100
0000
,
0020
0030
0001
0000
0010
0000
0000
0000
0002
0003
0010
0000
2000
3000
0010
0000
0000
0000
0000
0000
0002
0003
0010
0000
0200
0300
0010
0000
0002
0003
0000
0000
,
0020
0030
0000
0000
0200
0300
0000
0000
2001
0000
0000
0000
0000
0000
3001
0000
0200
0300
0010
0000
1000
0000
0010
0000
0002
0003
0000
0000
0001
0000
0010
0000
,
0200
0300
1000
0000
0010
0000
0000
0000
2000
3000
0100
0000
0002
0003
0100
0000
0000
0000
0000
0000
2000
3000
0100
0000
0020
0030
0001
0000
2000
3000
0000
0000
,
0002
0003
0000
0000
2000
3000
0000
0000
0002
0000
0000
0000
1000
0000
0003
0000
0020
0030
0100
0000
0001
0000
0100
0000
2000
3000
0000
0000
0001
0000
0010
0000
,
0200
0300
0010
0000
0001
0000
0000
0000
0010
0000
1000
0000
0010
0000
1000
0000
0010
0000
0000
0000
1000
0000
0100
0000
0000
0000
1000
0000
0100
0000
0000
0000
,
1000
0000
0000
0000
0000
0000
0000
0000
0000
0000
0000
0000
0002
0000
0000
0000
0000
0000
0000
0000
0003
0000
0000
0000
0000
0000
0000
0000
0000
0000
0000
0000
0000
0000
0000
0000
1000
0000
0000
0000
0000
0000
0000
0000
0000
0000
0000
0000
0001
0000
0000
0000
0000
0000
0000
0000
0000
0000
0000
0000
1000
0000
0000
0000
0000
0000
0000
0000
0000
0000
0000
0000
0001
0000
0000
0000
0000
0000
0000
0000
0000
0000
0000
0000
1000
0000
0000
0000
0000
0000
0000
0000
0000
0000
0000
0000
0020
0000
0000
0000
0000
0000
0030
0000
0000
0000
0000
0000
0100
0000
0000
0000
0000
0000
0000
0000
0000
0000
0000
0000
0001
0000
0000
0000
0000
0000
0000
0000
0000
0000
0000
0000
0100
0000
0000
0000
0000
0000
0000
0000
0000
0000
0000
0000
0002
0000
0000
0000
0000
0000
0003
0000
0000
0000
0000
0000
0000
0000
0000
0000
0000
0000
0000
0000
0000
0000
0000
0000
0010
0000
0000
0000
0000
0000
0000
0000
0000
0000
0000
0000
0100
0000
0000
0000
0000
0000
0000
0000
0000
0000
0000
0000
,
2000
3000
0100
0000
0010
0000
0000
0000
0200
0300
0010
0000
0002
0003
0010
0000
0000
0000
0000
0000
0020
0030
0100
0000
2000
3000
0100
0000
0002
0003
0000
0000
,
2000
3000
0000
0000
0002
0003
0000
0000
0020
0000
0000
0000
0100
0000
0030
0000
2000
3000
0100
0000
0010
0000
0100
0000
0002
0003
0000
0000
0010
0000
1000
0000
,
0200
0300
1000
0000
0001
0000
0000
0000
0020
0030
0100
0000
0002
0003
0100
0000
0000
0000
0000
0000
0020
0030
0100
0000
2000
3000
0100
0000
0002
0003
0000
0000
,
0200
0300
0000
0000
2000
3000
0000
0000
0002
0000
0000
0000
0000
0000
0013
0000
2000
3000
0100
0000
0001
0000
0010
0000
0002
0003
0000
0000
1000
0000
0001
0000
,
0020
0030
0100
0000
0010
0000
0000
0000
0002
0003
0010
0000
2000
3000
0100
0000
0000
0000
0000
0000
0002
0003
1000
0000
0020
0030
0100
0000
0002
0003
0000
0000
,
0200
0300
0000
0000
0002
0003
0000
0000
2000
0000
0000
0000
0001
0000
3000
0000
0020
0030
0001
0000
1000
0000
0001
0000
0200
0300
0000
0000
0010
0000
0100
0000
,
2000
3000
0010
0000
0100
0000
0000
0000
0020
0030
0000
0000
2001
0000
0000
0000
0000
0000
0000
3000
2001
0000
3000
0000
0201
0000
0000
0000
0001
0000
0000
0300
,
1000
0000
0001
0000
2000
3000
0001
0000
0200
0300
0001
0000
0020
0030
0100
0000
1002
0003
0000
0000
0020
0030
1000
0000
0200
0300
0000
0000
0012
0000
0000
0000
,
0000
0000
0000
0003
0200
0300
0000
0000
2001
3000
0000
0000
0200
0300
0010
0000
0002
0003
0000
0000
0200
0300
0010
0000
2000
3000
0010
0000
0002
0003
0010
0000
,
0200
0300
1000
0000
0200
0300
1000
0000
0020
0030
0100
0000
0002
0003
0000
0000
2000
0000
0000
0000
0010
0000
0000
0000
0000
0000
0000
3000
0201
0000
0000
0000
,
0000
0000
0000
0000
1000
0000
0000
0300
0020
0000
0000
0000
0100
0000
0000
0030
2001
0000
0000
0000
0000
0000
0000
0000
0001
0000
0000
3000
0210
0000
0000
0000
,
0000
0000
0000
0000
1000
0000
0000
0300
0120
0000
0000
0000
0000
0000
0000
0030
1002
0003
0000
0000
0020
0030
0100
0000
2000
3000
0000
0000
0120
0000
0000
0000
,
0000
0000
0000
0030
2000
3000
0000
0000
0012
0003
0000
0000
2000
3000
0100
0000
0021
0030
0000
0000
2000
3000
0100
0000
0002
0003
1000
0000
0020
0030
0100
0000
,
2000
3000
0010
0000
0002
0003
0100
0000
0020
0030
1000
0000
0200
0300
0000
0000
2001
0000
0000
0000
0010
0000
0000
0000
0000
0000
0000
0000
0010
0000
0000
0000
,
0000
0000
0000
0000
0010
0000
0000
0000
0000
0000
0000
0000
0000
0000
3000
0000
1020
0030
0000
0000
0200
0300
0000
0000
0002
0003
0000
0000
1020
0000
0000
0000
,
0200
0300
0000
0030
0002
0003
0000
0000
2010
3000
0000
0000
0200
0300
0000
0000
1002
0003
0000
0000
0020
0030
0000
0000
0200
0300
0000
0000
0012
0000
0000
0000
,
0000
0000
0000
0003
0200
0300
0000
0000
2001
3000
0000
0000
0200
0300
0010
0000
1002
0003
0000
0000
0200
0300
0010
0000
2000
3000
0010
0000
0002
0003
0010
0000
,
0200
0300
0001
0000
2000
3000
0001
0000
0020
0030
0100
0000
0002
0003
0000
0000
2000
0000
0000
0000
0010
0000
0000
0000
0000
0000
0000
3000
0201
0000
0000
0000
,
0000
0000
0000
0000
0001
0000
0000
0300
0020
0000
0000
0000
0000
0000
0000
0030
2001
0000
0000
0000
0000
0000
0000
0000
0001
0000
0000
3000
0210
0000
0000
0000
,
0000
0000
0000
0000
1000
0000
0000
0300
0120
0000
0000
0000
0000
0000
0000
0030
1002
0003
0000
0000
0010
0000
0001
0000
0010
0000
0001
0000
0010
0000
0001
0000
,
1000
0000
0100
1000
0100
1000
0100
0010
0001
0000
0100
1000
0100
1000
0010
0100
,
0001
0000
0100
0000
0001
0000
0100
0000
0010
0000
1000
0000
0100
0000
0010
0000
1002
0003
0000
0000
1020
0030
0000
0000
1002
0003
0000
0000
1020
0030
0000
0000
,
1002
0000
0000
0000
0000
0000
0003
0000
0000
0000
0000
0000
0000
0000
0000
0000
0000
0000
0000
0000
0000
0000
0000
0000
1020
0000
0000
0000
0000
0000
0030
0000
0000
0000
0000
0000
0000
0000
0000
0000
0000
0000
0000
0000
0000
0000
0000
0000
1002
0000
0000
0000
0000
0000
0003
0000
0000
0000
0000
0000
0000
0000
0000
0000
0000
0000
0000
0000
0000
0000
0000
0000
1020
0000
0000
0000
0000
0000
0030
0000
0000
0000
0000
0000
0000
0000
0000
0000
0000
0000
0000
0000
0000
0000
0000
0000
1002
0000
0000
0000
0000
0000
0000
0000
0003
0000
0000
0000
0000
0000
0000
0000
0000
0000
0000
0000
0000
0000
0000
0000
0020
0000
0000
0000
0000
0000
0030
0000
0000
0000
0000
0000
0100
0000
0000
0000
0000
0000
0000
0000
0000
0000
0000
0000
0002
0000
0000
0000
0000
0000
0003
0000
0000
0000
0000
0000
0000
0000
0000
0000
0000
0000
0000
0000
0000
0000
0000
0000
0020
0000
0000
0000
0000
0000
0030
0000
0000
0000
0000
0000
0100
0000
0000
0000
0000
0000
0000
0000
0000
0000
0000
0000
,
0002
0003
0100
0000
2000
3000
0000
0000
0200
0300
1000
0000
0020
0030
1000
0000
0002
0000
0000
0000
0100
0000
0000
0000
0000
0000
0000
0000
0100
0000
0000
0003
,
2000
0000
0000
0000
0001
0000
0000
0000
0000
0000
0000
0000
0001
0000
0000
3000
0200
0000
0000
0000
0001
0000
0000
0000
0000
0000
0000
0000
0001
0000
0000
0300
,
0020
0000
0000
0000
1000
0000
0000
0000
0000
0000
0000
0000
1000
0000
0000
0030
0002
0000
0000
0000
0100
0000
0000
0000
0000
0000
0000
0000
0100
0000
0000
0000
,
0000
0000
0000
0003
1200
0000
0000
0300
0020
0000
0000
0030
1002
0000
0000
0003
2000
0000
0000
0000
0001
0000
0000
0000
0000
0000
0000
0000
0001
0000
0000
0000
,
0000
0000
0000
0000
0001
0000
0000
0000
0001
0000
0000
0000
0000
0000
0001
3000
0200
0000
0000
0000
0001
0000
0000
0000
0000
0000
0000
0000
0001
0000
0000
0000
,
0000
0000
0000
0000
0001
0000
0000
0000
0000
0000
0000
0000
0001
0000
0000
0300
0002
0000
0000
0000
1000
0000
0000
0000
0000
0000
0000
0000
1000
0000
0000
0000
,
0000
0000
0000
0003
0021
0000
0000
0030
0200
0000
0000
0300
2001
0000
0000
3000
0020
0000
0000
0000
1000
0000
0000
0030
0200
0000
0000
0000
0001
0000
0000
0300
,
2000
0000
0000
0000
0010
0000
0000
3000
0200
0000
0000
0000
1000
0000
0000
0300
2001
0000
0000
0000
0001
0000
0000
0000
0001
0000
0000
0000
0001
0000
0000
0000
,
0001
0000
0000
0000
0001
0000
0000
0000
0001
0000
0001
0000
0001
0000
0001
3000
0200
0000
0000
0000
0001
0000
0000
0000
0000
0000
0000
0000
0001
0000
0000
0000
,
0000
0000
0000
0000
0001
0000
0000
0300
0002
0000
0000
0003
0210
0000
0000
0300
2000
0000
0000
0000
0001
0000
0000
0000
0000
0000
0000
0000
0001
0000
0000
0000
,
0000
0000
0000
0000
0001
0000
0000
0000
0000
0000
0000
0000
0001
0000
0000
3000
0200
0000
0000
0000
0001
0000
0000
0000
0000
0000
0000
0000
0001
0000
0000
0000
,
0000
0000
0000
0300
2001
0000
0000
3000
0200
0000
0000
0300
0021
0000
0000
0030
0002
0000
0000
0000
1000
0000
0000
0000
0000
0000
0000
0000
1000
0000
0000
0000
,
0000
0000
0000
0000
1000
0000
0000
0000
1000
0000
0000
0000
0000
0000
1000
0003
0200
0000
0000
0000
0001
0000
0000
0000
0000
0000
0000
0000
0001
0000
0000
0300
,
0002
0000
0000
0000
1000
0000
0000
0000
0000
0000
0000
0000
1000
0000
0000
0003
0020
0000
0000
0000
0001
0000
0000
0000
0000
0000
0000
0000
0001
0000
0000
0000
,
0000
0000
0000
0000
0001
0000
0000
0030
0002
0000
0000
0003
0210
0000
0000
0300
2000
0000
0000
0000
0001
0000
0000
0000
0001
0000
0000
0000
0001
0000
0000
3000
,
0200
0000
0000
0000
0001
0000
0000
0000
0001
0000
0000
0000
0001
0000
0000
0300
0002
0000
1000
0000
0000
0000
0000
0000
1000
0000
1000
0000
0000
0000
0000
0000
,
0000
0000
0000
0000
1000
0000
0000
0000
1000
0000
0000
0000
0000
0000
1000
0003
0002
0000
0000
0003
1000
0000
0100
0000
1000
0000
0100
0000
0010
0000
0100
0000
,
0010
0001
1000
0002
0000
0003
0110
0000
1000
0100
0010
0100
0010
0001
0010
0001
,
0010
0000
0100
0000
0010
0000
0001
0000
2000
0000
0000
0000
0010
0000
0000
3000
0002
0003
0100
0000
0010
0000
0001
0000
2000
3000
0000
0000
0001
0000
0010
0000
,
0200
0300
0010
0000
0001
0000
0000
0000
0002
0003
0010
0000
2000
3000
0100
0000
0000
0000
0000
0000
1002
0003
0000
0000
0200
0300
0000
0000
0012
0003
0000
0000
,
0200
0300
0000
0000
1020
0030
0000
0000
0102
0000
0000
0000
0000
0000
1000
0003
0020
0000
0000
0030
1000
0000
0100
0000
0010
0000
0001
0000
0010
0000
0100
0000
,
1000
0000
0100
0000
0010
0000
0100
0000
0002
0000
0000
0003
1020
0000
0000
0030
1000
0000
0100
0000
0001
0000
0100
0000
1000
0000
0100
0000
0010
0000
0001
0000
,
0020
0000
0000
0000
1000
0000
0000
0000
0000
0000
0000
0000
1000
0000
0000
0030
2000
3000
0100
0000
0010
0000
0100
0000
0002
0003
0000
0000
1000
0000
0001
0000
,
0020
0030
0100
0000
1000
0000
0000
0000
0010
0000
0100
0000
0010
0000
0100
0000
0010
0000
0000
0000
1000
0000
0100
0000
0000
0000
1000
0000
0100
0000
0000
0000
,
1000
0000
0200
0300
0000
0000
1000
0000
0001
0000
0000
0000
1000
0000
0001
0000
0200
0000
0000
0000
0001
0000
0000
0000
0000
0000
0000
0000
0001
0000
0000
0000
,
0000
0000
0000
0000
0001
0000
0000
0000
0000
0000
0000
0000
0001
0000
0000
0300
2000
0000
0000
0000
0010
0000
0000
0000
0000
0000
0000
3000
0120
0000
0000
0030
,
0002
0000
0000
0000
1000
0000
0000
0000
0000
0000
0000
0000
1000
0000
0000
0003
0020
0030
1000
0000
0100
0000
0010
0000
0002
0003
0000
0000
0010
0000
0100
0000
,
2000
3000
0100
0000
0010
0000
0000
0000
0020
0030
0100
0000
0002
0003
1000
0000
0000
0000
0000
0000
0021
0030
0000
0000
2000
3000
0000
0000
0120
0030
0000
0000
,
2000
3000
0000
0000
0201
0300
0000
0000
1020
0000
0000
0000
0000
0000
0100
0030
0001
0000
0000
0000
0110
0000
0000
0000
0000
0000
0000
0000
2100
0000
0000
0000
,
0000
0000
0000
3000
0101
0000
0000
0000
0010
0000
0000
0000
1100
0000
0000
0000
0001
0000
0000
0000
1010
0000
0000
0000
0000
0000
0000
0000
1200
0000
0000
0000
,
0000
0000
0000
0000
0001
0000
0000
0300
0000
0000
2000
0000
0010
0000
0000
3000
0002
0003
1000
0000
0001
0000
0100
0000
0020
0030
0000
0000
0001
0000
0010
0000
,
0200
0300
1000
0000
0010
0000
0000
0000
0100
0000
0001
0000
0100
0000
0001
0000
0100
0000
0000
0000
0010
0000
0100
0000
0000
0000
0010
0000
0100
0000
0000
0000
,
0010
0000
0200
0300
0000
0000
0010
0000
1000
0000
0000
0000
1000
0000
0100
0000
2000
0000
0000
0000
0000
0000
0000
0000
0000
0000
0000
0000
0000
0000
0000
0000
,
0000
0000
0000
0000
,
0000
0000
0000
0000
,
0000
0000
0000
0000
0000
0000
0000
0000
0000
0000
0000
3000
0000
0000
0000
0000
0000
0000
0000
0000
0000
0000
0000
0000
0000
0000
0000
0000
0000
0000
0000
0000
;
