#TITLE:Magical;
#SUBTITLE:Kannagi;
#ARTIST:Satoru Kousaki;
#TITLETRANSLIT:;
#SUBTITLETRANSLIT:;
#ARTISTTRANSLIT:;
#CREDIT:;
#BANNER:bn.jpg;
#BACKGROUND:bg.jpg;
#LYRICSPATH:;
#CDTITLE:bombastik.png;
#MUSIC:Magical.mp3;
#OFFSET:-0.580;
#SAMPLESTART:38.060;
#SAMPLELENGTH:12.000;
#SELECTABLE:YES;
#BPMS:0.000=160.000;
#STOPS:;
#BGCHANGES:;
// cache tags:
#FIRSTBEAT:0.000;
#LASTBEAT:244.250;
#SONGFILENAME:Songs/FUCK ANIME PACK/Magical/Magical.sm;
#HASMUSIC:1;
#HASBANNER:1;
#MUSICLENGTH:97.671;
// end cache tags

//---------------dance-single - Blank----------------
#NOTES:
     dance-single:
     Blank:
     Challenge:
     9:
     1.000,1.000,1.000,1.000,0.497,470.000,249.000,356.000,0.000,93.000:




1110
0000
0000
0000
0000
0000
0111
0000
0000
0000
0110
0000
1101
0000
0010
0100
,
1000
0111
0000
1100
0110
1001
0220
0330
,
1011
0000
0000
0000
0000
0000
1110
0000
0000
0000
0110
0000
0111
0000
1000
0100
,
0010
0000
1110
0000
0000
0000
0101
0000
2002
0000
0000
3013
0002
0010
0100
1003
,
0111
0000
0000
0000
0000
0000
1110
0000
0000
0000
1010
0000
0110
0000
0101
0010
,
2200
3300
0000
0000
0011
0000
0000
0000
0000
0000
0000
0000
1100
0000
0000
0000
0111
0000
0000
0000
0110
0000
0000
0000
2200
0000
0000
0000
3300
0000
0000
0000
,
1101
0000
0000
0000
0000
0000
0000
0000
0000
0000
0000
0000
0111
0000
0000
0000
0000
0000
0000
0000
1001
0000
0000
0000
1101
0000
0000
0000
0000
0000
0220
0330
,
0000
0000
1011
0000
0000
0000
0101
0000
2110
0000
0000
0100
3022
1000
0133
1000
,
0011
0000
0000
0000
0100
0000
0000
0000
0101
0000
0000
0000
2220
3330
0000
0000
0000
0000
0000
0000
0001
0000
0000
0000
0110
0000
0000
0000
2220
3330
0000
0000
,
0000
0000
0000
0000
0100
0000
0000
0000
1001
0000
0000
0000
0222
0333
0000
0000
0000
0000
0000
0000
1000
0000
0000
0000
0001
0000
1000
0000
0001
0000
1000
0000
,
0222
0333
0000
0000
0222
0333
0000
0000
0000
0000
0000
0000
2220
3330
0000
0000
2220
3330
0000
0000
0000
0000
0000
0000
2222
0000
0000
0000
0333
0000
0000
0000
,
0000
0000
0001
0000
0110
0000
0010
0000
0101
0010
0100
0010
0001
0100
0011
3100
,
2002
3003
0000
0000
0100
0000
0000
0000
0011
0000
0100
0000
1010
0000
0002
0000
,
0000
0000
0000
0003
0110
0000
0000
0000
0011
0000
0000
0000
1100
0000
0000
0000
,
1110
0000
0000
0000
0002
0003
0000
0000
2000
3000
0000
0000
0002
0000
0000
0000
0003
0000
0000
0000
0010
0000
0000
0000
0101
0000
0000
0000
1000
0000
0000
0000
,
0011
0000
0000
0000
2200
3300
0000
0000
0220
0330
0000
0000
2002
0000
0000
0000
0000
0000
0000
0000
0000
3003
0000
0000
0101
0000
0000
0000
0010
0000
0000
0000
,
0102
0000
1103
0020
0000
0030
1100
0001
,
1110
0011
0101
1010
,
2110
0000
0000
0000
0000
0000
0000
0000
0001
0000
0000
0000
3220
0000
0000
0000
0000
0000
0330
0000
2000
3000
0000
0000
0020
0030
0000
0000
0202
0303
0000
0000
,
0000
0000
0100
0000
0011
0000
1000
0000
0101
0000
1000
0000
1010
0100
0010
0100
,
2022
3033
2100
0000
3101
0010
1100
0220
,
0330
1100
0101
0110
,
1110
0000
0000
0000
0002
0003
0000
0000
0200
0300
0000
0000
2000
0000
0000
0000
3000
0000
0000
0000
0010
0000
0000
0000
0101
0000
0000
0000
2000
0000
0000
0000
,
0100
0000
0000
0000
0022
0033
0000
0000
3220
0330
0000
0000
2002
0000
0000
0000
3003
0000
0000
0000
0000
0000
0000
0000
1100
0000
0000
0000
0010
0000
0000
0000
,
0222
0333
0000
2200
3300
0000
0101
0010
,
2200
0000
3300
0000
0022
0033
0000
0000
0220
0330
0000
0000
2002
3003
0000
0000
,
1102
0000
0000
0000
1100
0000
0020
0003
1001
0000
0000
0000
1100
0000
0002
0003
,
0000
0000
1030
0000
0110
0000
0100
1000
0100
0010
0100
0010
1100
0001
0110
1000
,
0011
0000
0000
0000
0000
0000
0000
0000
0011
0000
0000
0000
0100
0000
0000
0000
0022
0033
1000
0000
0022
0033
0100
0000
0022
0033
1000
0000
0022
0033
0100
0000
,
1000
0000
0100
0000
1000
0000
0100
0000
0022
0033
1000
0000
0100
0000
1000
0000
0022
0033
0100
0000
1000
0000
0100
0000
0022
0033
1000
0000
0100
0000
1000
0000
,
0022
0033
0100
0000
1000
0000
0100
0000
1000
0000
0100
0000
1000
0000
0100
0000
1000
0000
0100
0000
0022
0033
1000
0000
0022
0033
0100
0000
0022
0033
1000
0000
,
0200
0000
0300
0000
0011
0000
1100
0000
0011
0000
1100
0000
0011
0000
1100
0000
0011
0000
0000
0000
0110
0000
0000
0000
0022
0033
0100
0000
1000
0000
0100
0000
,
0022
0033
1000
0000
0100
0000
1000
0000
0100
0000
1000
0000
0100
0000
1000
0000
0022
0033
1000
0000
0022
0033
0100
0000
0022
0033
1000
0000
0022
0033
0100
0000
,
1000
0000
0100
0000
1000
0000
0100
0000
0022
0033
1000
0000
0100
0000
1000
0000
0022
0033
0100
0000
1000
0000
0100
0000
0022
0033
1000
0000
0100
0000
1000
0000
,
0022
0033
0100
0000
1000
0000
0100
0000
0022
0033
1000
0000
0100
0000
1000
0000
0022
0033
0100
0000
1000
0000
0100
0000
0022
0033
1000
0000
0100
0000
1000
0000
,
0022
0100
1000
0100
1000
0100
1033
0100
1000
0100
1000
0100
1001
0010
0100
0010
,
1101
0000
0000
0000
0000
0000
0000
0000
1100
0000
0000
0000
0010
0000
0000
0000
2200
3300
0000
0000
0220
0330
0000
0000
0022
0033
0000
0000
2200
0000
0000
0000
,
0000
3300
0000
0000
0000
0000
0000
0000
0022
0000
0033
0000
0000
0000
0000
0000
2200
0000
0000
0000
3310
0000
0000
0000
2002
0000
0000
0000
3103
0000
0000
0000
,
0022
0000
0000
0000
0130
0000
0000
0000
1010
0000
0000
0000
0200
0000
0000
0000
0303
0000
0000
0000
0220
0330
0000
0000
0022
0033
0000
0000
2002
0000
0000
0000
,
3003
0000
0200
0000
0310
0000
0002
0000
1003
0000
0210
0000
0022
0333
1000
0001
,
2220
3330
0000
0000
0000
0000
0000
0000
0000
0000
0000
0000
0000
0000
0000
0000
2200
3300
0000
0000
0220
0330
0000
0000
2002
3003
0000
0000
0220
0000
0000
0000
,
0330
0000
0000
0000
0000
0000
0000
0000
2002
3003
0100
0000
0010
0000
0100
0000
2002
3003
0010
0000
0100
0000
0010
0000
2002
3003
0100
0000
0010
0000
0100
0000
,
2022
0000
0000
0000
0000
0000
3003
0000
0030
0000
0000
0000
0000
0000
0000
0000
0000
0000
0000
0000
0000
0000
0000
0000
0000
0000
0000
0000
0000
0000
0000
0000
0000
0000
0000
0000
0000
0000
0000
0000
0000
0000
0000
0000
0000
0000
0000
0000
0202
0000
0000
0000
0000
0000
0303
0000
0000
0000
0000
0000
0000
0000
0000
0000
0000
0000
0000
0000
0000
0000
0000
0000
0000
0000
0000
0000
0000
0000
0000
0000
0000
0000
0000
0000
0000
0000
0000
0000
0000
0000
0000
0000
0000
0000
0000
0000
0220
0000
0000
0000
0000
0000
0330
0000
0000
0000
0000
0000
0000
0000
0000
0000
0000
0000
0000
0000
0000
0000
0000
0000
0000
0000
0000
0000
0000
0000
0000
0000
0000
0000
0000
0000
0000
0000
0000
0000
0000
0000
0000
0000
0000
0000
0000
0000
2020
0000
0000
0000
0000
0000
3030
0000
0000
0000
0000
0000
0000
0000
0000
0000
0000
0000
0000
0000
0000
0000
0000
0000
0000
0000
0000
0000
0000
0000
0000
0000
0000
0000
0000
0000
0000
0000
0000
0000
0000
0000
0000
0000
0000
0000
0000
0000
,
0222
0000
0333
0000
1000
0000
0220
0000
0330
0000
1000
0000
0101
0010
1000
0001
,
2110
0000
0000
0000
0002
0003
0000
0000
0020
0030
0000
0000
0200
0300
0000
3000
0012
0000
0000
0000
0200
0300
0000
0003
2010
0000
0000
0000
0002
0003
0000
3000
,
0120
0000
0000
0000
2000
3000
0000
0000
0002
0003
0000
0000
0200
0300
0000
0030
1200
0000
0000
0000
0020
0030
0000
0300
1002
0000
0000
0000
0020
0030
0000
0003
,
2110
0000
0000
0000
0020
0030
0000
0000
0002
0003
0000
0000
0200
0300
0000
3000
0012
0000
0000
0000
0200
0300
0000
0003
1020
0000
0000
0000
0002
0003
0000
0030
,
2200
3300
0000
0000
2002
3003
0000
0000
0022
0033
0100
0000
2200
0000
3300
0000
,
0112
0000
0000
0000
2000
3000
0000
0000
0020
0030
0000
0000
0200
0300
0003
0000
2010
0000
0000
0000
0002
0003
0000
3000
0120
0000
0000
0000
2000
3000
0000
0030
,
1002
0000
0000
0000
0200
0300
0000
0000
2000
3000
0000
0000
0020
0030
0000
0003
2100
0000
0000
0000
0020
0030
0000
3000
0102
0000
0000
0000
0020
0030
0000
0003
,
2010
0000
0000
0000
0200
0300
0000
0000
0002
0003
0000
0000
0200
0300
0000
3000
0012
0000
0000
0000
2000
3000
0000
0003
0210
0000
0000
0000
0002
0003
0000
0300
,
2010
0000
0000
0000
0101
0000
0000
0000
0101
0000
0000
0000
0101
0000
0000
3000
0102
0000
0000
0000
1010
0000
0000
0000
1010
0000
0000
0000
1010
0000
0003
0000
,
2222
3333
0000
0000
0000
0000
0000
0000
0000
0000
0000
0000
2220
3330
0000
0000
0000
0000
0000
0000
0110
0000
0000
0000
0222
0333
0000
0000
1100
0000
0010
0000
,
1101
0000
0000
0000
0220
0330
0000
0000
0000
0000
0000
0000
2200
3300
0000
0000
0220
0330
0000
0000
2002
3003
0000
0000
0022
0000
0000
0000
0033
0000
0000
0000
,
2220
3330
0000
0000
0000
0000
0000
0000
0000
0000
0000
0000
0222
0333
0000
0000
0000
0000
0000
0000
0110
0000
0000
0000
2220
3330
0001
0000
0010
0000
0100
0000
,
1011
0000
0000
0000
2200
3300
0000
0000
0000
0000
0000
0000
0022
0033
0000
0000
2220
0000
3330
0000
0001
0000
0010
0000
2200
0000
0001
3300
0010
0000
0100
0000
,
1011
0000
0000
0000
0000
0000
0000
0000
0000
0000
0000
0000
2202
3303
0000
0000
0000
0000
0000
0000
0110
0000
0000
0000
2220
3330
0000
0000
0110
0000
1001
0000
,
0110
0000
0000
0000
2200
3300
0000
0000
0000
0000
0000
0000
0022
0033
0000
0000
0220
0330
0000
0000
2200
3300
0000
0000
0022
0000
0000
0033
0000
0000
0000
0000
,
0222
0000
0000
0333
0000
0000
0000
0000
0000
0000
0000
0000
2022
3033
0000
0000
0000
0000
0000
0000
0110
0000
0000
0000
0222
0000
0333
0000
0000
0000
0220
0330
,
0000
0000
0000
0000
2200
3300
0000
0000
0000
0000
0000
0000
0022
0033
0000
0000
0220
0000
0000
0000
0000
0000
0000
0000
2332
0000
0000
3003
0000
0000
0000
0000
,
2222
3333
0000
0000
2222
3333
0000
0000
2222
3333
0000
0000
0222
0333
0000
0000
0000
0000
0000
0000
2222
3333
0000
0000
2222
0000
0000
0000
0000
0000
0000
0000
,
3333
0000
0000
0000
;

//---------------dance-single - Blank----------------
#NOTES:
     dance-single:
     Blank:
     Hard:
     7:
     1.000,1.000,1.000,1.000,0.379,447.000,182.000,226.000,0.000,22.000:

1100
0000
0000
0000
0000
0000
0011
0000
0000
0000
0100
0000
1001
0000
0100
0010
,
1100
0011
0000
0100
0100
0011
2200
3300
,
2002
0000
3003
0000
0000
0000
0000
0000
0000
0000
0000
0000
0000
0000
0000
0000
0000
0000
0110
0000
0000
0000
0000
0000
0000
0000
0000
0000
0000
0000
0100
0000
0000
0000
0000
0000
0011
0000
0000
0000
0000
0000
1000
0000
0000
0100
0000
0000
,
0011
0000
1100
0000
0000
0000
0010
0000
2200
0000
3300
0000
0220
0000
0000
0330
,
1001
0000
0000
0000
0000
0000
1100
0000
0000
0000
0100
0000
0011
0000
0100
0010
,
2002
3003
0000
0000
0110
0000
0000
0000
0000
0000
0000
0000
0001
0000
0000
0000
0001
0000
0000
0000
0110
0000
0000
0000
2200
0000
0000
0000
0000
0000
3300
0000
,
0022
0033
0000
0000
0000
0000
0000
0000
0000
0000
0000
0000
1001
0000
0000
0000
0000
0000
0000
0000
0100
0000
0000
0000
0011
0000
0000
0000
1000
0000
0200
0300
,
0011
0000
1100
0000
0000
0000
0001
0000
0220
0000
0000
0330
2002
0000
0000
3003
,
1100
0000
0010
0000
1001
0000
0220
0330
0000
0000
0001
0000
0001
0000
2200
3300
,
0000
0000
0010
0000
0010
0000
2002
0000
0000
0000
3103
0000
0010
0100
0010
0100
,
0022
0033
0000
0000
0022
0033
0000
0000
0000
0000
0000
0000
0220
0330
0000
0000
2200
3300
0000
0000
0000
0000
0000
0000
2002
0000
0000
0000
0000
0000
0000
0000
,
3003
0000
0100
0000
0010
0000
0001
0000
1000
0000
0100
0000
0001
1000
0001
1000
,
0022
0033
1000
0000
0011
0100
1010
0002
,
1100
0000
0000
0003
0110
0000
0000
0000
1100
0000
0000
0000
0011
0000
0000
0000
,
1100
0000
0000
0000
0020
0030
0000
0000
0200
0300
0000
0000
2000
0000
0000
0000
3000
0000
0000
0000
0100
0000
0000
0000
0011
0000
0000
0000
0100
0000
0000
0000
,
2002
3003
0000
0000
0020
0030
0000
0000
0200
0300
0000
0000
2000
0000
0000
0000
3000
0000
0000
0000
0000
0000
0000
0000
0011
0000
0000
0000
1000
0000
0000
0000
,
0220
0000
1330
0022
0000
0033
0011
0100
,
1001
0110
1001
0110
,
2001
0000
0000
0000
0100
0000
3000
0000
0012
0000
0000
0000
0100
0000
0000
0000
0000
0000
0000
0000
2003
3000
0000
0000
0200
0300
0000
0000
0022
0000
0000
0033
,
0000
0000
0100
0000
0010
0000
0100
0000
0011
0000
0110
1000
0100
0010
0100
1000
,
0022
0033
2100
3000
0101
0110
1100
0002
,
1100
0003
1001
0000
0011
0000
1010
0000
,
1100
0000
0000
0000
0020
0030
0000
0000
0002
0003
0000
0000
2000
0000
0000
0000
0000
0000
0000
3000
0010
0000
0000
0000
1100
0000
0000
0000
0001
0000
0000
0000
,
2200
0300
0000
0000
0002
0003
0000
0000
0200
0300
0000
0000
0020
0030
0000
0000
0000
0000
0000
3000
0000
0000
0000
0000
0100
0000
0000
0000
1000
0000
0000
0000
,
0022
1000
0100
2033
0000
0000
3110
0011
,
1100
0110
1001
0110
,
2100
0001
3110
0012
0000
0000
0110
1003
,
0000
0000
0001
0000
0110
0000
1000
0000
0011
0100
1000
0100
0010
0100
0010
0001
,
2200
0000
0000
0000
0000
0000
3300
0000
0000
0000
0000
0000
0110
0000
0000
0000
0000
0000
0000
0000
0000
0000
0000
0000
0002
0000
0003
1000
0000
0000
0002
0000
0003
0100
0000
0000
0002
0000
0003
1000
0000
0000
0002
0000
0003
0010
0000
0000
,
0100
0000
0000
0010
0000
0000
0100
0000
0000
0010
0000
0000
0002
0000
0003
0010
0000
0000
0100
0000
0000
1000
0000
0000
0002
0000
0003
0100
0000
0000
0010
0000
0000
0100
0000
0000
0002
0000
0003
1000
0000
0000
0100
0000
0000
0010
0000
0000
,
0002
0000
0003
0010
0000
0000
0100
0000
0000
0010
0000
0000
0100
0000
0000
0010
0000
0000
0001
0000
0000
0010
0000
0000
0100
0000
0000
1000
0000
0000
0002
0000
0003
0010
0000
0000
0002
0000
0003
1000
0000
0000
0002
0000
0000
0000
0000
0000
,
0000
0000
0000
0003
0000
0000
0100
0000
0000
1000
0000
0000
0100
0000
0000
1000
0000
0000
0100
0000
0000
1000
0000
0000
0200
0000
0000
0000
0000
0000
0301
0000
0000
0000
0000
0000
2200
0000
3300
0000
0000
0000
0010
0000
0000
0000
0000
0000
,
2000
0000
3000
0100
0000
0000
0010
0000
0000
0100
0000
0000
1000
0000
0000
0100
0000
0000
0010
0000
0000
0001
0000
0000
2000
0000
3000
0100
0000
0000
2000
0000
3000
0010
0000
0000
2000
0000
3000
0001
0000
0000
2000
0000
3000
0100
0000
0000
,
0010
0000
0000
0100
0000
0000
1000
0000
0000
0100
0000
0000
2000
0000
3000
0010
0000
0000
0100
0000
0000
0010
0000
0000
2000
0000
3000
0001
0000
0000
0010
0000
0000
0100
0000
0000
2000
0000
3000
0010
0000
0000
0100
0000
0000
0010
0000
0000
,
2000
0000
3000
0001
0000
0000
0010
0000
0000
0100
0000
0000
2000
0000
3000
0010
0000
0000
0100
0000
0000
0010
0000
0000
2000
0000
3000
0001
0000
0000
0010
0000
0000
0100
0000
0000
2000
0000
3000
0010
0000
0000
0100
0000
0000
0010
0000
0000
,
2000
0000
0000
0000
0000
0000
0001
0000
0000
0000
3000
0000
0110
0000
0000
0000
0000
0000
0002
0000
0000
0000
0000
0000
0003
0000
0000
0000
0000
0000
0100
0000
0000
0000
0000
0000
0011
0000
0000
1000
0000
0000
0011
0000
0000
1000
0000
0000
,
0022
0000
0000
0033
0000
0000
0000
0000
0000
0000
0000
0000
1100
0000
0000
0000
0000
0000
0010
0000
0000
0000
0000
0000
2200
0000
3300
0000
0000
0000
0220
0000
0330
0000
0000
0000
0022
0000
0033
0000
0000
0000
2002
0000
0000
0000
0000
0000
,
0000
3003
0000
0000
0000
0000
2200
3300
0000
0000
0000
0000
0220
0330
0000
0000
0000
0000
2002
3003
0000
0000
0000
0000
,
0022
0030
0000
0000
0000
0000
0113
0000
0000
2000
0000
0000
0000
0000
0000
3220
0330
0000
0022
0033
0000
0220
0000
0000
,
0330
0000
0000
0000
0000
0000
0002
0000
0000
0000
0000
0000
1103
0000
0000
0000
0000
0000
0020
0000
0000
0000
0030
0000
1100
0000
0000
0000
0000
0000
0011
0000
0000
0000
0000
0000
2100
0000
0000
0000
0000
0000
0001
0000
3000
0010
0000
0000
,
2000
0000
0000
0000
0000
0000
3101
0000
0000
0000
0000
0000
2200
3300
0000
0022
0033
0000
0220
0330
0000
2002
0000
0000
,
0000
0000
0000
0000
3003
0000
0000
0000
0000
0000
0000
0000
1000
0000
0000
0100
0000
0000
0010
0000
0000
0000
0000
0000
0001
0000
0000
0010
0000
0000
0100
0000
0000
0000
0000
0000
0010
0000
0000
0100
0000
0000
1000
0000
0000
0000
0000
0000
,
0022
0033
0000
0000
0000
0000
0220
0330
0000
0000
0000
0000
2200
3300
0000
0000
0000
0000
2002
3003
0000
0000
0000
0000
,
0012
0000
0000
0000
0000
0000
0000
0000
0000
0000
0000
0000
1100
0000
0000
0000
0003
0000
0002
0000
0000
0000
0000
0000
0100
0000
0000
0000
0000
0000
0013
0000
0000
0000
0000
0000
1100
0000
0000
0001
0000
0000
1100
0000
0000
0000
0000
0000
,
0012
0000
0000
0000
0200
0300
0000
0000
0020
0030
0000
0000
2000
3000
0003
0000
0012
0000
0000
0000
1000
0000
0000
0000
0123
0000
0000
0000
0032
0000
0000
0003
,
2100
0000
0000
0000
0020
0030
0000
0000
0200
0300
0000
0000
0002
0003
3000
0000
2100
0000
0000
0000
0010
0000
0000
3000
0200
0000
0000
0000
1300
0000
0000
0000
,
0012
0000
0000
0000
0200
0300
0000
0000
0020
0030
0000
0000
2000
3000
0003
0000
0120
0000
0000
0000
0001
0000
0000
0030
2000
0000
0000
0000
3100
0000
0000
0000
,
0022
0033
0000
0000
0220
0330
0000
0000
2002
3003
0100
0000
2200
3300
0000
0000
,
0012
0000
0000
0000
0200
0300
0000
0000
0020
0030
0000
0000
2000
3000
0003
0000
0012
0000
0000
0000
1000
0000
0000
0000
0123
0000
0000
0000
0032
0000
0000
0003
,
2100
0000
0000
0000
0020
0030
0000
0000
0200
0300
0000
0000
0002
0003
3000
0000
2100
0000
0000
0000
0010
0000
0000
3000
0200
0000
0000
0000
1300
0000
0000
0000
,
0012
0000
0000
0000
0200
0300
0000
0000
0020
0030
0000
0000
2000
3000
0003
0000
0120
0000
0000
0000
0001
0000
0000
0030
2000
0000
0000
0000
3100
0000
0000
0000
,
1001
1001
1001
1001
0110
0110
0110
0110
,
2220
0000
3330
0000
0000
0000
0000
0000
0000
0000
0000
0000
0000
0000
0000
0000
0000
0000
0011
0000
0000
0000
0000
0000
0000
0000
0000
0000
0000
0000
0100
0000
0000
0000
0000
0000
1001
0000
0000
0000
0000
0000
0100
0000
0000
0010
0000
0000
,
1100
0000
0000
0000
0000
0000
0022
0000
0033
0000
0000
0000
0000
0000
0000
0000
0000
0000
0010
0000
0000
0000
0000
0000
1100
0000
0000
0000
0000
0000
0011
0000
0000
0000
0000
0000
2200
0000
0000
0000
0000
0000
0000
0000
0000
3300
0000
0000
,
0222
0333
0000
0000
0000
0000
0000
0000
0000
0000
0000
0000
1100
0000
0000
0000
0000
0000
0000
0000
0100
0000
0000
0000
0011
0000
0000
0000
0001
0000
0010
0000
,
1100
0000
0011
0000
0000
0000
1000
0000
0222
0000
0333
0000
2000
0001
0010
3100
,
2002
0000
3003
0000
0000
0000
0000
0000
0000
0000
0000
0000
0000
0000
0000
0000
0000
0000
1100
0000
0000
0000
0000
0000
0000
0000
0000
0000
0000
0000
0001
0000
0000
0000
0000
0000
0110
0000
0000
0000
0000
0000
1000
0000
0000
0001
0000
0000
,
0220
0330
0000
0000
1100
0000
0000
0000
0000
0000
0000
0000
0010
0000
0000
0000
1100
0000
0000
0000
1100
0000
0000
0000
2200
0000
0000
0000
3300
0000
0000
0000
,
0222
0000
0000
0000
0000
0000
0000
0000
0333
0000
0000
0000
0000
0000
0000
0000
0000
0000
0000
0000
0000
0000
0000
0000
0000
0000
0000
0000
0000
0000
0000
0000
0000
0000
0000
0000
0000
0000
0000
0000
0000
0000
0000
0000
0000
0000
0000
0000
0000
0000
0000
0000
0000
0000
0000
0000
0000
0000
0000
0000
0000
0000
0000
0000
0000
0000
0000
0000
0000
0000
0000
0000
1100
0000
0000
0000
0000
0000
0000
0000
0000
0000
0000
0000
0000
0000
0000
0000
0000
0000
0000
0000
0000
0000
0000
0000
0000
0000
0000
0000
0000
0000
0000
0000
0000
0000
0000
0000
0000
0000
0000
0000
0000
0000
0000
0000
0000
0000
0000
0000
0001
0000
0000
0000
0000
0000
0000
0000
0000
0000
0000
0000
0000
0000
0000
0000
0000
0000
0000
0000
0000
0000
0000
0000
1100
0000
0000
0000
0000
0000
0000
0000
0000
0000
0000
0000
0000
0000
0000
0000
0000
0000
0000
0000
0000
0000
0000
0000
0000
0000
0000
0000
0000
0000
0000
0000
0000
0000
0000
0000
0020
0000
0000
0000
0000
0000
0030
0000
0000
0000
0000
0000
,
0000
0000
1100
0000
0000
0000
0010
0000
0012
0000
0000
0000
2000
0000
0000
3003
,
0111
1100
1100
2200
3300
0011
0022
0000
,
0000
0033
0000
0000
0000
0000
0000
0000
0000
0000
0000
0000
0000
0000
0000
0000
;
