#TITLE:Mr. Larpus;
#SUBTITLE:;
#ARTIST:Banya;
#TITLETRANSLIT:;
#SUBTITLETRANSLIT:;
#ARTISTTRANSLIT:;
#CREDIT:;
#BANNER:mrLarpus.png;
#BACKGROUND:mrLarpus-bg.png;
#LYRICSPATH:;
#CDTITLE:!kilgacdtitle.png;
#MUSIC:mrLarpus.mp3;
#OFFSET:-0.068;
#SAMPLESTART:21.540;
#SAMPLELENGTH:15.060;
#SELECTABLE:YES;
#BPMS:0.000=189.990;
#STOPS:;
#BGCHANGES:0.000=Mr. LARPUS.avi=1.000=1=1=0,
304.000=mrLarpus-bg.png=1.000=0=0=1,
99999=-nosongbg-=1.000=0=0=0 // don't automatically add -songbackground-
;
// cache tags:
#FIRSTBEAT:0.000;
#LASTBEAT:304.000;
#SONGFILENAME:Songs/Community Keyboard Megapack - Volume 1/(Kilgamayan) Mr. Larpus/mrLarpus.sm;
#HASMUSIC:1;
#HASBANNER:1;
#MUSICLENGTH:98.478;
// end cache tags

//---------------dance-single - Heavy----------------
#NOTES:
     dance-single:
     Heavy:
     Hard:
     11:
     1.000,1.000,1.000,0.173,0.802,713.000,158.000,17.000,0.000,0.000:
0100
1000
0100
1000
0010
0100
0010
0100
0001
0010
0001
0010
1000
0001
1000
0001
,
0110
0000
0100
0100
0100
0001
0000
0001
,
1010
0000
0010
0100
0010
0001
0000
1000
,
0011
0000
0000
0000
1000
0000
1000
0000
0100
0000
0001
0000
1000
0100
0001
0000
,
1000
0000
0001
0010
0100
1000
0100
0010
0001
0010
0100
1000
0001
0010
0100
1000
,
0010
0010
0010
0100
0010
0010
0010
0100
,
0010
0000
0010
0000
1001
0000
0020
0000
0000
0030
1100
0000
1010
0000
1100
0000
,
1010
0010
0010
0100
0010
0010
0010
0100
,
0010
0000
0010
0000
1001
0000
0020
0000
0000
0030
1100
0000
1010
0000
1100
0000
,
1001
0001
0001
1000
0001
0001
0001
1000
,
0001
0000
0001
0000
0110
0000
0002
0000
0000
0003
1100
0000
1001
0000
1100
0000
,
1010
0010
0010
0100
0010
0010
0010
0100
,
0010
0000
0010
0000
1001
0000
0020
0000
0000
0000
0000
0030
1001
0000
0000
0000
,
1000
0000
0110
0100
0001
0010
1000
0200
,
0000
0301
0110
0011
0100
0100
1010
1000
,
0010
0010
0010
1001
0010
0010
1001
0010
,
0000
0000
1000
0001
1000
0001
1000
0001
1000
0100
0010
0001
1000
0100
0010
0001
,
1000
1000
1000
0100
0001
0001
0010
0100
,
1001
1000
1000
0100
0001
0001
0010
0100
,
1001
1000
1000
0100
0001
0001
0010
0100
,
1001
1000
1000
0100
0001
0001
0010
0100
,
0110
0010
0010
0100
1000
1000
0001
0100
,
0110
0010
0010
0100
1000
1000
0100
0001
,
1001
1000
1000
0100
0001
0001
0010
0100
,
1001
1000
1000
0100
0001
0001
0010
0100
,
0110
0010
0010
0100
1000
1000
0100
0010
,
1001
0001
0001
0010
1000
1000
0010
0100
,
1001
1000
1000
0100
0001
0001
0010
1000
,
0000
0000
0110
0000
1001
0000
0110
0000
1001
0000
0110
0000
0001
0010
1000
0100
,
0011
0000
0000
0011
0000
0000
0011
0000
0110
0000
0000
0110
0000
0000
0110
0000
,
1100
0000
0000
1100
0000
0000
1100
0000
0001
0000
0010
0000
1100
0000
0010
0000
,
1001
0000
0110
0100
0011
0010
1001
0001
,
1010
0000
0000
0110
0000
0000
0011
0000
1000
0000
0100
0000
0001
0010
0100
1000
,
0110
0001
0010
1100
0000
0001
0010
1100
,
0000
0000
0000
0110
0000
0000
1001
0000
0100
0000
0011
0000
1000
0000
0100
0000
,
0110
0000
1000
0001
1000
0000
0010
0000
1000
0000
0010
0000
1001
0000
0100
1000
,
0001
0100
0001
0100
0010
1000
0010
1000
0100
0010
0100
0010
1000
0001
1000
0001
,
0110
0000
0100
0100
1001
0100
0000
0100
,
1001
0000
0000
0010
0001
0000
0001
0000
0110
0000
0001
0000
0000
0000
0001
0000
,
0110
0000
0000
0000
0010
0000
0010
0000
1001
0000
0010
0000
1000
0100
0001
0000
,
0110
0000
1000
0001
0100
0010
0100
1000
0010
0001
0010
0100
0001
1000
0001
0010
,
1100
0010
0101
0010
1100
0010
1001
0010
,
1100
0000
0010
0000
0001
0000
0020
0000
0000
0030
0101
0000
1100
0000
0101
0000
,
1100
0001
0110
0001
1100
0001
1010
0001
,
1100
0000
0001
0000
0010
0000
0002
0000
0000
0003
0101
0000
1100
0000
0101
0000
,
1010
0100
0011
0100
1010
0100
1001
0100
,
1010
0000
0100
0000
0001
0000
0200
0000
0000
0300
0101
0000
1010
0000
0101
0000
,
1100
1000
1001
0100
1100
1000
1010
0100
,
1100
0000
1000
0000
0100
0000
2002
0000
0000
0000
0000
3003
0110
0000
0000
0000
,
1001
0000
1001
0000
1100
0101
0000
0011
,
0000
1100
0011
1100
0011
1100
0101
1010
,
1000
0100
1010
0101
1010
0101
0010
0001
,
1001
0000
0001
1000
0001
1000
0001
1000
0001
1000
0001
1000
0001
1000
0001
1000
,
0001
0010
0100
1000
0010
0100
0010
1000
0001
0010
1000
0100
1000
0001
0100
1000
,
0001
0010
0100
1000
0100
0010
0001
0010
0100
1000
0110
0000
1001
0000
0110
0000
,
1001
0100
0001
0100
1000
0001
0010
0100
0010
0001
1000
0100
0010
0100
0001
1000
,
0001
0010
0100
1000
0100
0010
0001
0010
0100
1000
0110
0000
1001
0000
0110
0000
,
1010
0100
1000
0001
0100
1000
0001
0010
1000
0010
0100
0001
0010
1000
0001
1000
,
0010
0001
0010
0100
0010
0100
1000
0100
0010
0001
0110
0000
1010
0000
0110
0000
,
1001
0100
0010
1000
0100
0001
0100
0001
0010
1000
0001
0010
0100
0001
1000
0100
,
1000
0010
1000
0100
0001
0100
0022
0000
0000
0000
0000
0000
0000
0000
0000
0033
,
1000
0100
0010
0001
1000
0100
0010
0001
1000
0100
0010
0001
1000
0100
0010
0001
,
0010
0100
0001
1000
0010
0100
0001
1000
0100
0010
0001
0010
0100
1000
0100
0010
,
0001
1000
0001
1000
0001
1000
0001
1000
0001
1000
0001
1000
0001
1000
0001
1000
,
0001
0010
0100
1000
0001
0010
0100
1000
0001
0010
0100
1000
0001
0010
0100
1000
,
0001
0010
0001
0010
0001
0010
0001
0010
0001
0000
1100
0000
0011
0000
0001
0000
,
1010
0000
0100
0000
1010
0000
0001
0000
0210
0000
0001
0000
0010
0000
0001
0300
,
1100
0110
0011
0110
1000
0001
1000
0001
,
0020
0130
2000
3001
0110
0001
1000
0001
,
1000
0100
1000
0100
1000
0100
1000
0100
1000
0000
0011
0000
1010
0000
0011
0000
,
1000
0100
0001
0000
1010
0000
0100
0000
0011
0000
0100
0000
1001
0000
0100
0000
,
1000
0001
1000
0000
0100
0000
0001
0000
0010
0100
0010
0000
1000
0000
0010
0000
,
0100
0000
2010
0000
0010
0000
0010
0000
0010
0000
0010
0000
0010
0000
0010
3010
,
1001
0000
1001
0000
,
1001
0010
1001
0100
1001
0010
1001
0100
,
0002
0000
0000
0003
1000
0001
1000
0001
0100
1000
0100
1000
0010
0100
0010
0100
,
1001
0000
0000
0000
;
