#TITLE:Fury of the Storm;
#SUBTITLE:;
#ARTIST:Dragonforce;
#TITLETRANSLIT:;
#SUBTITLETRANSLIT:;
#ARTISTTRANSLIT:;
#CREDIT:B. Abear;
#BANNER:Bn-Fury.png;
#BACKGROUND:Bg-Fury.png;
#LYRICSPATH:;
#CDTITLE:;
#MUSIC:Fury Of The Storm.ogg;
#OFFSET:-2.374;
#SAMPLESTART:53.882;
#SAMPLELENGTH:19.300;
#SELECTABLE:YES;
#BPMS:0.000=200.000;
#STOPS:169.000=0.600
,478.500=0.900
;
#BGCHANGES:;
// cache tags:
#FIRSTBEAT:0.000;
#LASTBEAT:1339.333;
#SONGFILENAME:Songs/Dragonforce/Fury of the Storm/Fury of the Storm.sm;
#HASMUSIC:1;
#HASBANNER:1;
#MUSICLENGTH:407.066;
// end cache tags

//---------------dance-single - B. Abear----------------
#NOTES:
     dance-single:
     B. Abear:
     Challenge:
     15:
     1.000,1.000,0.238,0.440,1.000,3732.000,97.000,179.000,91.000,5.000:

0101
0000
0001
0100
1000
0100
0010
0010
,
1010
0000
0000
0000
1000
0000
0100
0000
0010
0000
1000
0000
0020
0000
0000
0030
,
0012
0000
0000
1003
0010
0000
0100
0000
0001
0000
1000
0000
0100
0000
0010
0000
,
0001
0010
0001
0010
0100
1000
0100
1000
0001
0100
0001
0100
0020
0000
0000
0030
,
0110
0000
0000
0000
0010
0000
1000
0000
0100
0000
0001
0000
0200
0000
0000
0300
,
1000
0100
0000
0000
1000
0000
0001
0000
0100
0000
1000
0000
0200
0000
0000
0300
,
0101
0110
1010
1001
,
1100
0000
0000
0000
0000
0000
0101
0000
0000
0000
0000
0000
1001
0000
0000
0001
1000
0001
1000
0000
0000
0000
0000
0000
,
0010
1000
0010
1000
0001
0100
0001
0100
0010
1000
0001
0010
0100
1000
0100
0010
,
0001
1000
0001
1000
0100
1000
0100
1000
0001
0010
0100
0010
0001
1000
0010
0100
,
0001
0100
0001
0100
0010
1000
0010
1000
0001
0010
0100
1000
0100
0010
0001
0010
,
0001
1000
0001
1000
0010
0100
0010
0100
0001
1000
0001
1000
0200
0000
0000
0300
,
0010
0001
0010
0001
1000
0100
1000
0100
0010
0001
1000
0001
0100
0010
1000
0001
,
1000
0100
1000
0100
0010
0001
0010
0001
1000
0010
0100
0001
0100
0010
1000
0001
,
1000
0010
1000
0010
0100
0001
0100
0001
1000
0010
0100
0001
1000
0100
0010
0001
,
1000
0100
1000
0100
0010
0100
0010
0100
0010
0001
0010
0001
2000
0000
3002
0000
,
0103
0001
1000
0100
0010
0001
1000
0001
0010
0100
1000
0001
0200
0000
0320
0000
,
1030
0100
0010
0001
1000
0100
0010
0001
0100
0010
0100
0001
1000
0001
0100
0001
,
1000
0100
1000
0100
0010
0001
0010
0001
1000
0010
0100
0001
1000
0001
1000
0100
,
1000
0010
1000
0010
0100
0010
0100
0010
0100
0001
0100
0001
2000
0000
0000
3000
,
0100
0010
0001
1000
0010
0100
0010
1000
0001
0100
0001
1000
0100
0010
0001
0010
,
0001
1000
0010
0100
0010
1000
0001
0010
0001
1000
0010
0100
0010
1000
0001
0100
,
0001
0000
0000
1000
0000
0000
0001
0000
0000
0100
0000
0000
0010
0000
1000
0000
0010
0000
1000
0000
0000
0001
0000
0000
1000
0000
0000
0001
0000
0000
0100
0000
0001
0000
0100
0000
0001
0000
0000
1000
0000
0000
0100
0000
0000
0010
0000
0000
,
0002
0000
2000
0000
,
0040
0000
0000
0000
0000
0000
0000
3033
,
0100
0000
0001
0000
1000
0100
1000
0000
0001
0000
0010
0000
0100
1000
0100
0000
,
1000
0000
0010
0000
0100
0010
0100
0000
0001
0000
1000
0000
0001
0010
0001
0000
,
1000
0000
0010
0000
0100
0010
0100
0000
0001
0000
1000
0000
0001
0100
0001
0000
,
0010
0000
0100
0000
1000
0100
1000
0000
0010
0000
0100
0000
0001
1000
0001
0000
,
1000
0000
0010
0000
0100
0001
0100
0000
0001
0000
1000
0000
0100
0010
0100
0000
,
0010
0000
0001
0000
1000
0001
1000
0000
0010
0000
0100
0000
0001
0100
0001
0000
,
1000
0000
0100
0000
0010
0001
0010
0000
0100
0000
0010
0000
0001
1000
0001
0000
,
1000
0010
1000
0010
0100
0001
0100
0001
1000
0001
1000
0001
0100
0010
0100
0010
,
1000
0000
0100
0000
0010
0100
0010
0000
0001
0000
0100
0000
0001
0100
0001
0000
,
1000
0000
0100
0000
0010
0001
0010
0000
0001
0000
1000
0000
0010
1000
0010
0000
,
0100
0000
0001
0000
1000
0100
1000
0000
0001
0000
0100
0000
0001
0100
0001
0000
,
0101
1001
0000
1010
0110
0000
1001
0000
,
0001
0000
0100
0000
0001
1000
0001
0000
1000
0000
0100
0000
0010
0100
0010
0000
,
0001
0000
1000
0000
0001
1000
0001
0000
1000
0000
0010
0000
0100
0001
0100
0000
,
0001
0100
0001
0100
0010
1000
0010
1000
0001
1000
0001
1000
0010
0100
0010
0100
,
0001
1000
0100
0010
0001
1000
0100
0010
0001
1000
0010
0100
0001
1000
0010
0100
,
0004
1000
0000
1000
0000
1000
0000
1000
0000
1000
0000
1000
0000
1000
0003
0000
,
1MM1
0000
0000
0000
M11M
0000
0000
0000
0010
0000
1000
0000
0001
0100
0001
0000
,
1000
0000
0100
0000
0010
0001
0010
0000
0002
0000
0013
0000
0100
1000
0020
0000
,
0130
0000
0001
0000
1000
0100
1000
0000
0001
0000
1000
0000
0001
0010
0001
0000
,
1000
0000
0010
0000
0100
0001
0100
0000
0002
0000
0000
0000
1003
0000
0200
0000
,
0300
0000
0010
0000
0001
1000
0100
0000
1000
0001
1000
0000
0001
1000
0001
0000
,
1000
0100
1000
0000
0100
0010
0100
0000
0010
0001
2000
0000
3001
0000
0100
0010
,
2000
0000
3001
0000
0100
0001
0100
0000
0010
1000
0010
0000
1000
0100
1000
0000
,
0001
0010
0001
0000
1000
0001
1000
0000
0001
1000
0001
1000
0010
0100
0010
0100
,
0001
1000
0001
1000
0010
0100
0010
0100
0001
1000
0010
0000
1000
0001
0010
0000
,
0001
1000
0010
0000
1000
0001
0010
0000
0001
0100
0010
0000
1000
0100
0010
0000
,
0001
0100
0010
0000
1000
0100
0010
0000
0001
0010
0100
0000
0010
0100
1000
0000
,
0001
0010
0100
0000
0010
0100
1000
0000
0001
0100
0010
0000
0100
0010
1000
0000
,
0001
1000
0010
1000
0100
0010
0001
1000
0010
0100
0010
0000
1000
0001
1000
0000
,
0010
0100
0010
0000
1000
0001
1000
0000
0001
0010
0001
0000
1000
0100
1000
0000
,
0001
0010
0001
0000
1000
0100
1000
0000
0001
0100
0001
0000
1000
0010
1000
0000
,
0001
0100
0001
0000
1000
0010
1000
0000
0004
0010
0000
0010
0000
0010
0000
0013
,
0400
1000
0000
1000
0000
1000
0300
0000
1000
0000
0001
0000
1000
0100
1000
0000
,
0001
0000
0100
0000
0010
0100
0010
0000
2000
0000
3001
0000
0010
0100
2000
0000
,
3010
0000
0100
0000
0001
1000
0001
0000
1000
0000
0100
0000
0010
0001
0010
0000
,
0001
0000
1000
0000
0010
1000
0010
0000
0100
0001
0010
0000
0100
0000
0100
1000
,
0010
0000
0010
0000
0100
0001
1000
0000
0001
0100
0001
0000
0100
0010
0100
0000
,
0010
1000
0010
0000
0100
0001
0100
0000
0002
0000
1003
0000
0001
0000
0010
0000
,
0001
0010
0001
1000
0010
0100
0001
1000
0010
1000
0010
0000
0100
0001
0100
0000
,
0001
0010
0001
0000
1000
0100
1000
0000
0100
1000
0100
0010
0001
1000
0001
0100
,
0001
1000
0010
0100
0001
0100
0001
1000
0100
0000
01M0
0000
0010
0000
0100
0000
,
M100
1000
0100
0100
1000
100M
0001
1000
,
10M0
0010
1000
1000
0001
0M01
0100
0001
,
00M1
0000
0010
0000
0001
0000
0001
0000
1000
0100
1000
0001
0100
0010
0100
0001
,
1000
0100
0010
0001
1000
0001
0010
0001
1000
0000
0100
0000
0010
0000
1001
0000
,
0001
0100
0110
0010
0101
1000
0010
1001
,
1000
0100
0011
0001
1001
0100
0001
1100
,
0100
0000
0010
0000
0011
0000
0001
0000
1000
0100
1000
0001
0100
0001
1000
0010
,
1000
0001
0010
0001
1000
0100
1000
0001
0100
0000
0100
0000
0010
1000
0010
0000
,
1000
0000
1000
0000
0001
0010
0001
0000
0100
0000
0100
0000
0001
1000
0001
0000
,
0010
0000
0010
0000
0100
1000
0100
0000
1000
0000
1000
0000
0001
0100
0001
0000
,
0100
0000
0100
0000
0010
0100
0010
0000
1000
0000
1000
0000
0001
0010
0001
0000
,
1000
0000
1000
0000
0001
0100
0101
0000
0001
0000
0001
0000
1000
0100
0010
0000
,
0100
0000
0100
0000
1000
0001
0100
0000
0010
0000
0010
0000
0100
0001
1000
0000
,
0001
0000
0001
0000
1000
0010
0100
0000
0001
0000
0001
0000
1000
0100
0010
0000
,
0100
0000
0100
0000
0010
0001
1000
0000
0010
0100
0010
0100
0001
0100
0010
0100
,
0010
1000
0010
0100
0001
1000
0100
0000
0010
0001
0010
0000
0100
1000
0100
0000
,
1000
0001
1000
0000
0010
1000
0010
0000
0100
0001
2000
0000
3001
0000
0010
0001
,
2000
0000
3010
0000
0100
0001
1000
0000
0100
0010
0100
0000
0010
0001
0010
0000
,
0001
0100
0001
0000
1000
0010
1000
0000
0010
0100
0010
0000
0100
0001
0100
0000
,
0001
1000
0001
0000
1000
0001
1000
0000
0001
0010
0001
0000
1000
0100
1000
0000
,
0001
0100
0001
0000
0100
0010
0100
0000
0010
1000
0001
0100
0001
0010
0100
1000
,
0010
0100
0010
1000
0001
0100
0001
1000
0100
0010
0100
0010
0100
0010
0100
0010
,
0100
0010
0100
0010
0100
1000
0001
0100
0010
0000
M0MM
0000
0100
0000
0M00
0000
,
0001
0000
000M
0000
1000
0000
M000
0000
0001
0100
0001
0100
0001
1000
0001
1000
,
0001
0100
0001
0100
0001
1000
0001
1000
0100
0010
0100
0010
0001
0010
0001
0010
,
0100
0010
0100
0010
0001
0010
0001
0010
0100
1000
0100
1000
0001
1000
0001
1000
,
0100
1000
0100
1000
0001
1000
0001
1000
0010
0100
0010
0100
0010
1000
0010
1000
,
0010
0100
0010
0100
0010
1000
0010
1000
0001
0010
0001
0010
0001
1000
0001
1000
,
0001
0010
0001
0010
0001
1000
0001
1000
0010
0100
0010
0100
0001
0100
0001
0100
,
0010
0100
0010
0100
0001
0100
0001
0100
0010
1000
0001
0100
0001
1000
0100
1000
,
0001
0100
0001
0100
0010
0100
0010
0100
0001
0010
0001
0010
0001
1000
0001
1000
,
0001
0100
0001
0100
0010
0100
0010
0100
0001
0000
1000
0000
0001
1000
0100
0000
,
0010
0000
0001
0000
1000
0001
0100
0000
0010
0000
0100
0000
0001
0100
0010
0000
,
1000
0000
0100
0000
0010
0001
0100
0000
0010
0000
1000
0000
0001
0100
0010
0000
,
0100
0000
0001
0000
1000
0100
0010
0000
0001
0000
1000
0000
0001
0100
0001
0100
,
0010
0100
0010
0100
0010
1000
0010
1000
1001
0000
M00M
0000
0000
0000
0000
0000
,
0000
0000
0000
0000
0110
0MM0
0000
0000
,
0000
0000
0000
0000
0000
0000
0000
0000
0101
0000
0000
1001
0000
0000
2100
0000
,
0000
0000
3100
0000
0010
0000
0001
0000
1001
0000
0000
1010
0000
0000
0120
0000
,
0000
0000
0130
0000
0001
0000
0010
0000
0011
0000
0000
1001
0000
0000
2010
0000
,
0000
0000
3010
0000
0100
0000
0001
0000
1001
0000
0000
0011
0000
0000
0120
0000
,
0000
0000
0130
0000
1000
0000
0100
0000
0110
0000
0000
0011
0000
0000
0201
0000
,
0000
0000
0310
0000
1000
0000
0001
0000
0101
0000
0000
1001
0000
0000
1200
0000
,
0000
0000
0000
0000
0000
0000
1300
0000
0000
0000
0000
0000
0001
0000
0000
0000
0000
0000
0100
0000
0000
0000
0000
0000
0010
0000
0100
0000
0000
0000
0000
0000
0000
0001
0000
0100
0000
0000
0000
0000
0000
0000
0001
0000
2000
0000
0000
0000
,
0000
3001
0010
0100
1100
0101
0000
0101
,
0110
0000
0000
0000
0000
0000
0000
0000
0000
0000
0000
0000
1001
0000
0000
0000
0000
0000
0110
0000
0000
0000
0000
0000
0010
0000
0100
0000
0000
0000
0000
0000
0000
0001
0100
0000
0000
0000
0000
0000
0000
0000
0001
0020
0000
0000
0000
0000
,
0000
0000
0031
0000
1001
0000
1000
0000
0001
0100
0001
0100
0010
1000
0010
1000
,
0002
0000
0023
0000
0230
0000
2300
0000
3001
0010
0001
0010
0100
1000
0100
1000
,
0001
0100
0001
0100
0010
0000
0100
0000
0010
0100
0010
0100
0001
0100
0001
0100
,
0001
0000
0000
1000
0000
0000
0001
0000
0000
1000
0000
0000
0100
0000
0000
0000
0000
0000
0010
0000
0000
0000
0000
0000
0001
0000
1000
0000
0000
0000
0000
0000
0000
0001
0000
0010
0000
0000
0000
0000
0000
0000
0100
0000
2000
0000
0000
0000
,
0000
0000
3001
0000
0100
0000
0010
0000
0100
0001
0100
0001
1000
0010
0100
0001
,
0100
0001
0100
0001
1000
0010
0100
0001
2000
0000
3200
0000
0320
0000
0032
0000
,
0023
0000
0000
0000
0230
0000
0000
0000
2300
0000
0000
0000
3002
0000
0000
0000
4003
0000
0040
0000
0000
3030
0000
0000
0100
0000
0000
0000
0001
0000
0000
0000
,
1000
0010
1000
0000
0001
0000
0010
0000
0100
1000
0100
0000
2000
0000
3100
0000
,
0010
0001
0200
0000
0310
0000
1000
0000
0001
0010
0001
0000
1000
0000
0001
0000
,
1000
0100
1000
0000
0001
0000
0100
0000
0010
1000
0010
0000
2000
0000
3001
0000
,
0010
0100
2000
0000
3001
0000
0100
0000
0010
0100
0110
0000
0010
1000
0010
0000
,
1000
0001
1000
0000
0001
0010
0001
0000
0010
0100
0010
0000
0100
1000
0002
0000
,
1003
0000
0010
0100
0002
0000
1003
0000
0010
1000
0010
0000
0100
0001
0100
0000
,
0001
0010
0001
0000
1000
0100
1000
0000
0001
1000
0001
0000
1000
0001
1000
0001
,
0100
0010
0100
0010
1000
0001
1000
0001
0100
0010
0100
0010
1000
0001
0100
0000
,
0001
1000
0100
0000
1000
0001
0100
0000
0001
1000
0100
0000
1000
0010
0100
0000
,
0001
0010
0100
0000
1000
0010
0100
0000
0001
0010
0100
0000
1000
0100
0010
0000
,
0100
0010
0001
0000
1000
0100
0010
0000
0100
0010
0001
0000
1000
0001
0100
0001
,
0010
0100
1000
0001
0100
0010
0100
0010
1000
0000
0001
0000
0100
0010
0100
0000
,
0001
1000
0001
0000
1000
0100
1000
0000
0001
0010
0001
0000
1000
0100
1000
0000
,
0001
0010
0001
0000
1000
0010
1000
0000
0001
0100
0001
0000
1000
0010
1000
0000
,
0001
0100
0001
0000
0010
0001
0010
0000
0001
1000
0001
0000
0100
0010
1000
0000
,
0001
1000
0100
0000
0010
0001
1000
0001
0100
0010
1000
0001
0010
0000
0010
0000
,
0001
1000
0010
0000
0100
0000
0100
0000
0001
1000
0100
0000
0010
0000
0010
0000
,
0001
1000
0010
0000
0100
0000
0100
0000
0001
1000
0010
0000
0100
0000
0100
0000
,
0010
0100
0001
0000
1000
0000
1000
0000
0001
0010
0100
0000
1000
0000
1000
0000
,
0010
1000
0001
0000
0100
0000
0100
0000
0010
0100
0001
0000
1000
0000
1000
0000
,
0001
0010
0100
0000
0010
0000
0010
0000
0001
1000
0010
0000
0100
0000
0100
0000
,
0010
0100
0001
0000
0010
0000
0010
0000
0100
1000
0010
0000
1000
0000
1000
0000
,
0001
0100
0010
0000
0100
0000
0100
0000
0001
1000
0100
0000
0010
0000
0010
0000
,
0001
1000
0010
0000
0100
0001
0100
0001
1000
0100
1000
0100
0010
0001
1000
0001
,
0100
0010
1000
0100
0010
0001
0010
0001
1000
0010
0100
0010
1000
0001
0100
0001
,
0010
0100
1000
0100
1000
0001
0100
0010
1000
0001
0100
0001
0010
0100
1000
0100
,
1000
0001
0100
0010
0100
0010
0100
0001
1000
0100
1000
0001
0010
0100
1000
0001
,
1000
0010
0100
0010
1000
0001
0010
0100
1000
0010
0100
0010
1000
0001
0100
0010
,
0100
0001
1000
0100
0010
0001
0010
0100
1000
0010
0100
0001
0100
0010
1000
0001
,
0010
0001
1000
0010
0100
0001
1000
0001
1000
0100
1000
0001
0100
0010
0100
0010
,
1000
0010
1000
0010
1000
0001
1000
0001
0010
0001
0010
0001
1000
0000
M0MM
0000
,
0010
0000
00M0
0000
0100
0000
0M00
0000
0001
0000
000M
0000
1000
0010
1000
0010
,
1000
0001
1000
0001
1000
0010
1000
0010
1000
0001
1000
0001
0010
0100
0010
0100
,
1000
0100
1000
0100
0010
0100
0010
0100
1000
0100
1000
0100
0010
0001
0010
0001
,
1000
0001
1000
0001
0010
0001
0010
0001
1000
0001
1000
0001
0100
0010
0100
0010
,
0100
0001
0100
0001
0100
0010
0100
0010
0100
0001
0100
0001
1000
0100
1000
0100
,
1000
0001
1000
0001
1000
0100
1000
0100
1000
0001
1000
0001
0100
0010
0100
0010
,
1000
0010
1000
0010
0100
0010
0100
0010
1000
0010
1000
0010
0100
0001
1000
0010
,
1000
0001
0010
0001
1000
0010
1000
0010
0100
0010
0100
0010
1000
0100
1000
0100
,
1000
0001
1000
0001
1000
0010
1000
0010
0100
0010
0100
0010
1000
0000
0001
0000
,
1000
0001
0100
0000
0001
0000
0010
0000
0100
1000
0001
0000
0100
0000
0010
0000
,
1000
0001
0010
0000
0100
0000
1000
0000
0001
1000
0010
0000
0100
0000
0001
0000
,
0010
0001
0100
0000
0010
0000
1000
0000
0001
0010
0100
0000
1000
0000
0001
0000
,
0100
0001
0010
0000
0100
0000
1000
0000
0010
1000
0001
0000
1011
0000
0000
0000
,
MMMM
0000
0000
0111
,
MMMM
0000
0000
0000
0000
0000
0000
0000
0000
0000
0000
0000
1000
0010
1000
0010
,
0100
0001
0100
0001
1000
0100
1000
0100
0010
0001
0010
0001
1002
0000
0000
0000
,
0103
0100
0100
0100
0100
0100
0020
0130
,
2000
3100
0002
0103
0002
0103
0002
0000
,
0013
0010
0010
0010
0010
0010
0100
0010
,
1000
0010
0002
0203
0320
0000
0231
0000
,
0301
0001
0001
0001
0001
0001
0020
0031
,
2000
3001
0200
0301
0200
0301
0200
0000
,
0310
0000
0010
0000
0010
0000
0010
0000
1001
0000
0010
0000
0100
0001
0100
0001
,
1000
0100
1000
0100
0010
0001
1000
0010
0100
0001
0010
0100
1000
0000
0001
0000
,
0100
0000
0010
0100
0001
0000
0100
0000
0010
0000
1000
0000
0001
0000
0010
0000
,
0100
1000
0001
0010
0100
1000
0001
0100
,
1010
0000
0100
0000
1001
0000
0010
0000
1100
0000
1000
0000
0001
0100
0001
0100
,
0010
0000
0M00
0000
1000
0100
1000
0100
0010
0000
0M00
0000
0001
0000
1000
0000
,
0002
1003
0200
0310
0002
1003
0020
0000
,
0130
0002
0000
2000
0000
3003
0001
0001
,
1000
0000
0100
0000
0100
0000
0010
0000
0001
0000
0001
0000
1000
0010
1000
0010
,
0100
0000
00M0
0000
0001
0010
0001
0010
0100
0000
00M0
0000
1000
0000
1000
0000
,
0001
0000
0100
0000
0100
0000
0010
0000
1000
0000
1000
0000
0001
0100
0001
0100
,
0010
0000
0M00
0000
1000
0100
1000
0100
0010
0000
0M00
0000
0001
0000
0001
0000
,
0010
0000
0100
0000
0100
0000
1000
0000
0001
0000
0001
0000
1000
0001
1000
0001
,
0100
0000
000M
0000
0001
1000
0001
1000
0100
0000
M000
0000
0010
0000
0001
0000
,
0100
1000
0100
0010
0001
0010
1000
0001
,
0010
0100
0001
0100
1000
0001
2000
3002
,
0203
0000
0320
0000
0000
0000
2000
0000
0000
0030
3000
0000
0001
0100
0010
0100
,
0001
0000
0M00
0000
1000
0100
0010
0100
1000
0000
0M00
0000
0001
0010
0100
1000
,
0001
0000
M00M
0000
1000
0010
0100
0001
1000
0000
M00M
0000
0001
0010
0100
1000
,
0001
0010
0100
1000
0001
0100
0010
1000
0001
0000
M00M
0000
1000
0100
0010
0001
,
1000
0000
M00M
0000
0001
1000
0010
0100
0001
0000
M00M
0000
1000
0100
0010
0001
,
1000
0000
0000
0100
0000
0000
0010
0000
0000
0001
0000
0000
1000
0000
0000
0010
0000
0000
0100
0000
0000
0001
0000
0000
2000
0000
0000
0000
0000
0000
0000
0000
0000
0000
0000
0000
3001
0000
0000
0000
0010
0000
0000
0000
0100
0000
0000
0000
,
0200
0000
0000
0000
0000
0000
0000
0000
0000
0000
0000
0000
1300
0000
0000
0000
0010
0000
0000
0000
0100
0000
0000
0000
0200
0000
0000
0000
0000
0000
0000
0000
0000
0000
0000
0000
1300
0000
0000
0010
0000
0000
0100
0000
0000
0001
0000
0000
,
0100
0000
0000
0001
0000
0000
1000
0000
0100
0000
0000
0000
0000
0000
0000
0010
0000
0001
0000
0000
0000
0000
0000
0000
1000
0000
0001
0000
0000
0000
0000
0000
0000
0000
0000
0000
0100
0000
0000
0001
0000
0000
1000
0000
0000
0100
0000
0000
,
0020
0000
0000
0000
0031
1000
0001
0100
0020
0000
0000
0000
1030
0100
1000
0001
,
0100
0001
1000
0010
1000
0001
0010
0001
2000
0000
0000
0000
3001
0010
0100
1000
,
0001
0010
0100
1000
0001
0100
0001
1000
0100
1000
0001
0100
0010
1000
0001
0100
,
0010
0000
0000
1000
0000
0000
0001
0000
0000
0010
0000
0000
0100
0000
0000
1000
0000
0000
0001
0000
0000
1000
0000
0000
0200
0000
0000
0000
0000
0000
0000
0000
0000
0000
0000
0000
0310
0000
0000
0000
0001
0000
0000
0000
1000
0000
0000
0000
,
0010
0000
0000
0000
0100
0000
0000
0000
0001
0000
0000
0000
1000
0000
0000
0010
0000
0000
0100
0000
0000
0001
0000
0000
1000
0000
0000
0001
0000
0000
0010
0000
0000
0100
0000
0000
1000
0000
0000
0100
0000
0000
1000
0000
0000
0001
0000
0000
,
0100
0001
0100
0010
2000
0000
0000
0000
3111
0000
0000
0000
0002
0000
1003
0000
,
0200
1300
0020
0130
0002
0103
0020
0030
,
0010
0000
0000
0100
0000
0000
0400
0000
0000
0000
0000
0000
0301
0000
0000
1000
0000
0000
0001
0000
0010
0000
0100
0000
,
1000
0001
0100
0010
1000
0001
0010
0100
1000
0010
0100
0001
,
1000
0000
0010
0000
1000
0000
0001
0000
0100
0000
0001
0000
0010
0000
0000
0100
0000
0000
2000
0000
0000
0000
0000
0000
,
3002
0000
0203
0000
0310
0100
1000
0100
,
0001
2000
0000
3100
0010
0002
0000
0000
,
0203
0000
0320
0000
0230
0000
0302
0003
,
1000
0200
0000
0310
0001
1000
1001
0001
,
0100
0020
0000
0130
0001
1000
1100
0100
,
0010
0001
0100
0010
2000
0000
3010
0010
,
0010
0000
0100
0000
0010
0000
0010
0000
0001
0000
0010
0000
1000
0010
0100
0000
,
0010
0100
0001
0000
1000
0100
0010
0000
0100
0010
0001
0000
2000
0000
3001
0100
,
0001
1000
0100
1000
0001
0010
0001
1000
0010
1000
0001
0010
0002
0000
1003
0010
,
1000
0001
0010
0001
1000
0100
1000
0001
0100
0001
1000
0010
2000
0000
3001
0100
,
0001
1000
0010
1000
0001
0010
0001
1000
0100
1000
0001
0100
0002
1000
0103
1000
,
0001
0100
0001
1000
0010
1000
0001
0010
0001
1000
0010
1000
0002
0000
1003
0100
,
1000
0001
0100
0001
1000
0010
1000
0001
0100
0001
1000
0100
2000
0000
3001
0010
,
0001
1000
0010
1000
0001
0100
0001
1000
0100
1000
0001
0100
0002
0000
1003
0100
,
1000
0001
0010
0001
1000
0010
1000
0001
0010
0001
1000
0100
2000
0001
3100
0001
,
1000
0100
1000
0001
0010
0001
1000
0010
1000
0001
0100
0001
1000
0100
1000
0100
,
0010
0100
0010
0100
1000
0100
1000
0100
0010
0100
0010
0100
0010
0001
0010
0001
,
1000
0001
1000
0001
0010
0001
0010
0001
1000
0001
1000
0001
0100
0001
0100
0001
,
0100
0010
0100
0010
0100
0001
0100
0001
0100
0010
0100
0010
1000
0001
1000
0001
,
1000
0100
1000
0100
1000
0001
1000
0001
1000
0100
1000
0100
0010
0001
0010
0001
,
1000
0001
1000
0001
0010
0001
0010
0001
1000
0001
1000
0001
0100
0001
0100
0001
,
0100
0010
0100
0010
0100
0001
0100
0001
0100
0010
0100
0010
1000
0100
1000
0100
,
0010
0100
0010
0100
1000
0100
1000
0100
0010
0100
0010
0100
1000
0001
1000
0001
,
0100
0010
0100
0010
1000
0001
0100
0010
1000
0001
0010
0100
1000
0001
1000
0001
,
1000
0100
1000
0100
1000
0010
1000
0010
1000
0100
1000
0100
0010
0001
0010
0001
,
1000
0001
1000
0001
0100
0001
0100
0001
1000
0001
1000
0001
0100
0001
0100
0001
,
0100
0010
0100
0010
0100
0001
0100
0001
0100
0010
0100
0010
1000
0010
1000
0010
,
0100
0010
0100
0010
1000
0010
1000
0010
0100
0010
0100
0010
1000
0001
1000
0001
,
0010
0001
0010
0001
1000
0001
1000
0001
0010
0001
0010
0001
1000
0010
1000
0010
,
0100
0010
0100
0010
1000
0010
1000
0010
0100
0010
0100
0010
0100
0001
0100
0001
,
1000
0001
1000
0001
0010
0001
0010
0001
1000
0001
1000
0001
1000
0100
1000
0100
,
1000
0001
1000
0001
1000
0010
1000
0010
1000
0001
1000
0001
0100
0010
1000
0001
,
0100
0001
1000
0100
0010
0001
1000
0001
0010
0100
1000
0001
0100
0010
1000
0001
,
0100
0001
1000
0100
0010
0001
1000
0001
0100
0010
1000
0001
0100
0001
1000
0100
,
0010
0001
0010
0001
1000
0010
0100
0010
0100
0001
0100
0010
1000
0001
0100
0001
,
0010
0100
1000
0001
0010
0001
1000
0010
1000
0001
0100
0010
1000
0100
1000
0001
,
0100
0001
0010
0100
1000
0001
1000
0010
0100
0001
0100
0010
1000
0001
0100
0001
,
0010
0100
0010
0001
1000
0010
0100
0010
1000
0001
0010
0001
1001
0000
0000
0000
,
0110
1001
0110
1001
,
1001
0000
0000
0000
1001
0000
0001
1000
0200
0000
0310
0000
0001
1000
0001
0000
,
0100
0001
0100
0000
0010
1000
0010
0000
1000
0001
1000
0000
0200
0000
0320
0000
,
0000
0000
0032
0000
1003
0010
0100
0001
2000
0000
0000
0000
3002
0000
1003
0010
,
0200
0000
0302
0000
2003
0000
3100
0010
0002
0000
2003
0000
3404
0000
0000
0303
,
2000
0000
0000
0000
3404
0000
0000
0303
2000
0000
3001
0000
1000
0100
1000
0100
,
0010
0001
0010
0001
1000
0010
0100
0001
1000
0100
0010
0001
2000
0000
3010
0100
,
0001
0100
0010
1000
0001
0010
0100
1000
0002
0000
0000
0000
1003
0010
1000
0010
,
0200
0000
0301
1000
0100
0010
0100
0010
0001
0010
0001
0010
0100
1000
0001
0100
,
0010
1000
0001
1000
0001
0100
0010
0100
0001
0100
0001
0100
0010
1000
0010
1000
,
0010
0100
0010
0100
0001
0100
0001
0100
0001
1000
0001
0010
0200
0300
00MM
0000
,
2000
3000
0MM0
0000
0002
0003
M0M0
0000
0200
0300
M00M
0000
0010
1000
0001
0100
,
0001
1000
0100
0010
0001
0010
0100
1000
0002
0000
0000
0000
4003
0000
0000
0000
,
0000
0000
0000
0000
0000
0000
0000
0000
0000
0000
0000
0000
3001
0100
0001
0100
,
0001
0100
0001
0100
0020
0000
2030
0000
3001
0010
0001
1000
0010
0100
0001
0100
,
0010
1000
0010
0100
0001
0100
0010
1000
0002
0000
0000
0000
0013
0000
0100
0000
,
0100
0000
1000
0000
1000
0000
0001
0000
0001
0000
0000
0000
1000
0010
1000
0010
,
0100
0000
0000
0001
0000
0000
0100
0000
0000
0001
0000
0000
1000
0000
0000
0100
0000
0000
1000
0000
0000
0100
0000
0000
0010
0000
0000
0001
0000
0000
0010
0000
0000
0001
0000
0000
1000
0000
0000
0000
0010
0000
0000
0000
0100
0000
0000
0000
,
1000
0010
0100
1000
0010
0100
0002
0000
0000
1003
0100
0010
,
1000
0000
0000
0000
0100
0000
0000
0000
0010
0000
0000
0000
1000
0000
0000
0001
0000
0000
0100
0000
0000
0001
0000
0000
2000
0000
0000
0000
0000
0000
0000
0000
0000
0000
0000
0000
3010
0000
0000
0100
0000
0000
0010
0000
0000
0100
0000
0000
,
0001
0100
0001
0100
0001
1000
0001
1000
0100
1000
0100
1000
0001
0010
0100
1000
,
0002
0000
2003
0000
3010
0100
0001
1000
0002
0000
2003
0000
3001
0100
0001
0000
,
0100
0020
0000
1030
0100
0100
0010
0010
,
0001
2000
0000
3010
0200
0000
0301
0001
,
0100
0001
0100
0000
0010
0000
0010
0000
1000
0001
1000
0000
0001
0000
0020
0000
,
0000
0000
0130
0000
1000
0001
1000
0001
0100
0001
0100
0001
1000
0000
0100
0000
,
0010
0001
0010
0000
0001
0000
1000
0000
0010
0100
0010
0000
0100
0000
0001
0000
,
1000
0200
0000
0310
0001
0100
0010
1000
,
1000
0010
0100
0100
0001
0010
0100
1000
,
0001
0000
0100
0000
0001
0000
1000
0000
0100
0010
0001
1000
0010
0100
0010
0100
,
0001
1000
0001
1000
0001
0010
0001
0010
0200
0000
2300
0000
3010
0100
0002
0000
,
1003
0000
0000
0100
0000
0000
0020
0000
0000
0000
0000
0000
0031
0000
0000
0000
1000
0000
0000
0000
0001
0000
0000
0000
0100
0000
0000
0010
0000
0000
2000
0000
0000
0000
0000
0000
3001
0000
0000
0010
0000
0000
0100
0000
0000
0000
0000
0000
,
0010
0100
1000
0000
0010
0100
0001
0000
1000
0010
0100
0000
0001
1000
0100
0010
,
0001
0000
0000
1000
0000
0000
0001
0000
0000
0100
0000
0000
0010
0000
0000
0100
0000
0000
0001
0000
0000
1000
0000
0000
0100
0000
0000
1000
0000
0000
0001
0000
0000
0010
0000
0000
0100
0000
0000
0000
1000
0000
0000
0000
0001
0000
0000
0000
,
0100
0010
1000
1010
0010
0100
0001
1000
0100
1100
1000
0001
,
0010
0100
1000
1001
0001
0100
0010
1000
0001
0101
0100
0010
,
1000
0001
1000
1001
0001
0010
0100
1000
0001
0101
0100
0010
,
1000
0000
0000
0000
0001
0000
0000
0000
0010
0000
0000
0000
0011
0000
0000
0000
0001
0000
0000
0000
1000
0000
0000
0000
0001
0000
0000
0000
1000
0000
0000
0000
0001
0000
0000
0000
0100
0000
0000
0001
0000
0000
1000
0000
0000
0100
0000
0000
,
1000
0001
0010
0001
1000
0010
0100
0001
1000
0100
0010
0100
1000
0010
1000
0010
,
0100
0010
0100
0010
0100
0001
0100
0001
1000
0000
0100
0000
0010
0001
1000
0001
,
0010
0100
1000
0001
1000
0010
0100
0001
1000
0000
0100
0000
0010
0000
0001
0000
,
1000
0001
0200
0000
0320
0000
0130
0001
,
1000
0000
0000
0000
0000
0000
0100
0000
0000
0000
0000
0000
0010
0000
0000
0001
0000
0000
1000
0000
0000
0000
0000
0000
0001
0000
0000
0000
1000
0000
0000
0000
0010
0000
0000
0000
0100
0000
0000
0000
0000
0000
0001
0000
0000
0000
0000
0000
,
1000
0000
0000
0000
0100
0000
0000
0000
0010
0000
0000
0000
0002
0000
0000
0000
0000
0000
0000
0000
0000
0000
0000
0000
4000
0000
0000
0000
0000
0000
0003
0000
0000
0000
0000
0000
3010
0000
0000
0100
0000
0000
0001
0000
0000
1000
0000
0000
,
0001
0010
0100
1000
0100
1000
0010
0100
0001
1000
0100
0010
0001
1000
0010
0100
,
0001
1000
0100
1000
0002
0000
2003
0000
3002
0000
0003
0000
100M
0000
0010
0000
,
0100
0001
1000
0001
0010
0100
0010
0001
,
1000
0000
0010
0000
0100
0000
0001
0000
2000
0000
0000
0000
3001
0000
0100
0010
,
0100
0001
1000
0001
1000
1000
0001
0100
,
1000
0100
0002
0000
0000
0000
2003
0000
,
3020
0000
0230
0000
0302
2003
3001
0010
,
0100
0000
0000
2000
0000
0000
0000
0000
0000
0000
0000
0000
3002
0000
0000
0203
0000
0000
0310
0000
1000
0000
0001
0000
,
0100
0000
0000
0000
0010
0000
0000
0000
0100
0000
0000
0000
0001
0000
0000
0000
0010
0000
0000
0000
0100
0000
0000
0000
1000
0000
0000
0000
0100
0000
0000
0000
0010
0000
0000
0000
0100
0000
0000
1000
0000
0000
0100
0000
0000
1000
0000
0000
,
0001
0000
0000
1000
0000
0000
0001
0000
0000
1000
0000
0000
0020
0000
0000
0000
0000
0000
0000
0000
0000
0000
0000
0000
0000
0000
0000
0000
0000
0000
0000
0000
0000
0000
0000
0000
0130
0000
0000
0000
0001
0000
0000
0000
0100
0000
0000
0000
,
0001
0100
0001
1000
0100
1000
0100
1000
0100
0010
0001
1000
,
0100
0000
0000
0000
1000
0000
0000
0000
0010
0000
0000
0000
0100
0000
0000
0000
0001
0000
0000
0000
1000
0000
0000
0000
0200
0000
0000
0000
0000
0000
0000
0000
0000
0310
0000
0000
0001
0000
0000
0000
0000
0000
0001
0000
0000
0000
0000
0000
,
0001
0200
0310
0010
0010
0200
0301
0001
,
0001
0000
2000
0000
3101
0000
0110
0000
1010
0000
1001
0000
1000
0100
1000
0001
,
0100
0010
0100
0001
1000
0100
0010
0001
0010
0001
1000
0010
0100
0010
1000
0001
,
0100
0001
1000
0100
1000
0001
0010
0100
1000
0001
0100
0010
1000
0001
1000
0001
,
0100
0010
1000
0001
1000
0001
0100
0010
1000
0001
1000
0000
0001
0100
0001
0000
,
0100
0000
0000
0010
0000
0000
0100
0000
0000
0010
0000
0000
1000
0000
0000
0001
0000
0000
1000
0000
0000
0001
0000
0000
0100
0000
0000
0010
0000
0000
0100
0000
0000
0010
0000
0000
2000
0000
000M
0000
0000
0000
0000
0000
0M00
0000
0000
0000
,
0000
0000
0000
00M0
0000
0000
0000
0M00
000M
0000
0000
0000
0000
0000
0000
00M0
0000
0000
3002
0000
0M00
0000
0000
0000
,
0000
0000
M000
0000
0000
0000
0000
00M0
0000
0M00
0000
0000
0000
0000
0000
0000
M000
0000
0023
0000
0000
0000
000M
0000
,
0000
0M00
0000
0000
0000
0000
0000
M000
0000
0000
0000
0000
0000
0000
000M
0000
0000
0000
0230
0000
M000
0000
00M0
0000
,
0000
0000
0000
0000
0000
000M
0000
0000
0000
0000
0000
M000
00M0
0000
0000
0000
0000
0000
2300
000M
0000
0000
0000
0000
,
00M0
0000
0000
0000
0000
0000
0M00
0000
0000
0000
0000
0000
0000
0000
0000
0000
0000
000M
3020
0000
0000
0000
0000
0000
,
0000
0000
M000
0000
0000
0000
0000
0000
0000
0000
0000
0000
0M00
0000
0000
0000
0000
0000
0000
0000
0000
0000
M000
0000
0000
0000
000M
0000
0000
0000
0000
0000
0000
0000
0000
0000
0130
0000
0000
0001
0000
0000
0100
0000
0000
0001
0000
0000
,
1000
0100
1000
0100
0010
0001
0010
0001
1000
0010
1000
0010
0100
0001
0100
0001
,
1000
0010
0100
0001
0100
0001
1000
0010
0100
0001
0100
0000
0010
1000
0010
1000
,
0001
1000
0001
1000
0010
1000
0010
1000
0001
1000
0001
1000
0001
0010
0001
0010
,
0100
1000
0100
1000
0001
0010
0001
0010
0100
1000
0100
1000
0001
0100
0001
0100
,
0001
1000
0001
1000
0001
0100
0001
0100
0001
1000
0001
1000
0100
0010
0100
0010
,
0001
0010
0001
0010
0100
0010
0100
0010
0001
0010
0001
0010
0001
1000
0001
1000
,
0010
1000
0010
1000
0001
1000
0001
1000
0010
1000
0010
1000
0001
0010
0001
0010
,
0100
0010
0100
0010
0001
0010
0001
0010
0100
0010
0100
0010
0001
1000
0001
1000
,
0010
0100
0001
1000
0001
1000
0010
0100
0001
1000
0001
1000
0100
1000
0100
1000
,
0001
0100
0001
0100
0010
1000
0010
1000
0001
0010
0001
0010
0100
0000
1000
0000
,
0001
0100
0001
0000
1000
0000
0010
0000
0100
0001
0100
0000
0001
0000
1000
0000
,
0100
1000
0100
0000
0010
0000
0001
0000
1000
0001
1000
0000
0001
0000
0100
0000
,
0010
0100
0010
0000
1000
0000
0001
0000
1000
0100
1000
0000
0001
0000
1000
0000
,
0010
1000
0010
0000
1000
0000
0100
0000
0010
0001
0010
0000
0001
0000
1000
0000
,
0001
0100
0001
0000
1000
0000
0100
0000
0010
0100
0010
0000
0100
0000
1000
0000
,
0001
1000
0001
0000
1000
0000
0010
0000
0100
0001
0100
0000
0001
0000
1000
0000
,
0001
1000
0001
0000
0010
0000
0100
0000
1000
0100
1000
0000
0001
0100
0001
0100
,
0010
1000
0010
1000
0001
0010
0001
0010
0100
1000
0100
1000
1001
0000
0000
0000
,
0000
0000
0000
0110
,
0000
0000
0000
0000
0000
0000
0000
0000
0000
0000
0000
0000
0010
0100
0010
0100
,
0001
0000
0000
1000
0000
0000
0001
0000
0000
1000
0000
0000
0010
0000
0000
0100
0000
0000
0010
0000
0000
0100
0000
0000
0001
0000
0000
1000
0000
0000
0001
0000
0000
1000
0000
0000
1001
0000
0000
0000
0000
0000
0000
0000
1001
0000
0000
0000
,
0000
0110
0000
2002
0000
0000
0000
0000
0000
0000
3003
0000
;
