#TITLE:Hansome Character that Pass;
#SUBTITLE:;
#ARTIST:May;
#TITLETRANSLIT:;
#SUBTITLETRANSLIT:;
#ARTISTTRANSLIT:;
#CREDIT:Timer Rabbit;
#BANNER:HansomeCharacter_bn.PNG;
#BACKGROUND:HansomeCharacter_bg.PNG;
#LYRICSPATH:;
#CDTITLE:TimerRabbit.png;
#MUSIC:HansomeCharacter.mp3;
#OFFSET:0.000;
#SAMPLESTART:48.000;
#SAMPLELENGTH:12.000;
#SELECTABLE:YES;
#BPMS:0.000=125.000;
#STOPS:;
#BGCHANGES:0.000=BGA.AVI=1.000=1=1=0,
99999=-nosongbg-=1.000=0=0=0 // don't automatically add -songbackground-
;
// cache tags:
#FIRSTBEAT:18.000;
#LASTBEAT:199.500;
#SONGFILENAME:Songs/toune 6/HansomeCharacter/hansomecharacter.sm;
#HASMUSIC:1;
#HASBANNER:1;
#MUSICLENGTH:96.797;
// end cache tags

//---------------dance-single - ----------------
#NOTES:
     dance-single:
     :
     Hard:
     7:
     0.372,0.386,0.413,0.124,0.005,200.000,40.000,12.000,0.000,0.000:
0000
0000
0000
0000
,
0000
0000
0000
0000
,
0000
0000
0000
0000
,
0000
0000
0000
0000
,
0000
0000
0000
0000
0001
0100
0001
0000
,
1000
0010
1000
0000
1000
0010
0100
0001
,
0100
1000
0200
0000
0300
0000
0000
0000
0000
0000
0000
0000
0000
0000
0000
0000
,
0000
0000
0011
0101
,
1010
0000
1100
0000
1000
0100
1000
0010
,
1000
1000
0000
0101
,
0011
0000
0101
0000
0001
0010
0001
0100
,
0001
0001
0000
0110
,
0000
0000
1001
0000
0100
0010
0100
0001
,
0100
0100
0000
1010
,
1100
0000
1010
0000
0001
1000
0001
0010
,
1000
1000
0002
2003
,
3002
0000
2003
0000
3100
0000
0001
0010
,
0001
0000
1000
0100
1000
0000
0010
0100
,
0010
0100
0010
0100
1000
0000
0010
1000
,
0010
0000
0100
0001
0100
0000
0001
0010
,
0100
1000
0100
0010
0001
0000
0001
0100
,
0001
0000
1000
0010
1000
0000
1000
0100
,
0010
0001
0010
0100
1000
0000
0100
0010
,
0100
0000
0001
1000
0001
0000
0110
0000
,
1001
0000
0110
0000
2002
0000
3003
2002
,
0000
0000
0000
3003
,
0000
0000
0000
0000
0001
0000
0000
0010
,
0000
0000
0100
0000
0000
0000
1000
0100
,
1000
0010
1000
0100
0100
0000
0000
0010
,
0000
0000
0001
0000
0000
0000
0100
0010
,
0100
0001
0100
0010
1000
0000
0000
0001
,
0000
0000
0010
0000
0000
0000
0001
1000
,
0001
0100
0010
0100
1100
0000
0000
0000
,
0011
0000
0101
0000
,
1010
0000
0000
0000
0001
1000
0001
1000
,
0000
0000
0100
0010
0100
0000
0000
0000
,
0001
0010
0100
0000
0011
0000
0000
0000
,
1100
0000
1010
0000
,
0101
0000
0000
0000
0010
0100
0010
0100
,
0000
0000
0001
1000
0001
0000
0000
0000
,
1000
0100
0010
0000
0011
0000
0000
1100
,
0000
1000
0010
0000
1010
0000
0000
0101
,
0000
0001
1000
0000
1001
0000
0000
0110
,
0000
1000
0010
0001
0000
0011
0000
2000
,
3200
0300
1000
0000
0011
0000
0000
0101
,
0000
0010
1000
0000
1010
0000
0000
0101
,
0000
1000
0100
0000
0110
0000
0000
1001
,
0000
0001
0100
0000
1001
0000
0000
0101
,
0000
1000
0010
0100
0001
0000
1000
0001
,
1000
0000
0100
0010
0200
0000
0000
0300
;

//---------------dance-single - ----------------
#NOTES:
     dance-single:
     :
     Medium:
     5:
     0.260,0.335,0.041,0.227,0.000,150.000,4.000,22.000,0.000,0.000:
0000
0000
0000
0000
,
0000
0000
0000
0000
,
0000
0000
0000
0000
,
0000
0000
0000
0000
,
0000
0000
0002
0003
,
2000
3000
0002
0000
,
0000
0003
0000
0000
,
0000
0000
1000
0001
,
0100
0010
1000
1000
,
1000
1000
0000
0001
,
0100
0001
0001
0001
,
0001
0001
0000
0100
,
0000
0010
0100
0100
,
0100
0100
0000
1000
,
0100
1000
0010
0010
,
0010
0010
0002
2003
,
3002
0000
2003
0000
3100
0000
0001
0010
,
0001
0000
1000
0100
1000
0000
0100
0000
,
0100
0000
0100
0000
0100
0000
1000
0010
,
1000
0000
0001
0100
0001
0000
0010
0000
,
0010
0000
0010
0000
0010
0000
0010
1000
,
0100
0000
0010
0001
0100
0000
0010
0000
,
0100
0000
0010
0000
0100
0000
0001
0100
,
0010
0000
1000
0010
0100
0000
0001
0000
,
0001
0001
0002
0000
,
2003
0000
0000
0000
,
0000
0000
3000
0000
0100
0000
0000
0010
,
0000
0001
1000
1000
,
1000
0000
1000
0000
0100
0000
0000
0010
,
0000
1000
0001
0001
,
0001
0000
0001
0000
0010
0000
0000
0100
,
0000
1000
1000
0100
,
0010
0001
0001
0000
,
1000
0000
0010
0000
,
0100
0000
1001
2002
,
3003
0000
0001
1000
,
0100
0010
0001
0000
,
1000
0000
0010
0000
,
0100
0000
0110
0220
,
0330
0100
0010
0100
,
0001
0000
1000
0000
0002
0000
0003
0001
,
0000
0000
1000
0000
2000
0000
3000
1000
,
0000
0100
0200
0300
,
0010
0000
0002
0000
0003
0001
0000
0000
,
1000
0000
0020
0000
0030
0010
0000
0000
,
0100
0000
0200
0000
0300
0100
0000
0000
,
0001
0000
0002
0000
0003
0001
0000
0000
,
1000
0000
0001
0000
0002
0000
0003
0001
,
0000
0000
0100
0000
0001
0000
1000
0001
,
1000
0000
0100
0010
0200
0000
0000
0300
;

//---------------dance-single - ----------------
#NOTES:
     dance-single:
     :
     Easy:
     3:
     0.198,0.232,0.031,0.165,0.000,115.000,3.000,16.000,0.000,0.000:
0000
0000
0000
0000
,
0000
0000
0000
0000
,
0000
0000
0000
0000
,
0000
0000
0000
0000
,
0000
0000
0002
0003
,
2000
3000
0002
0000
,
0000
0003
0000
0000
,
0000
0000
0001
1000
,
0010
0100
1000
0000
,
0000
1000
0000
0001
,
0001
0001
0100
0000
,
0000
0100
0000
0010
,
0000
0010
0001
0000
,
0000
0001
0000
1000
,
1000
1000
0010
0000
,
0000
0010
0001
1000
,
0001
1000
0001
0000
,
0001
0000
1000
1000
,
0100
1000
0100
0000
,
0100
0000
0010
0001
,
0010
0001
0010
0000
,
0010
0000
1000
0100
,
0010
0100
0001
0000
,
0001
0000
1000
0100
,
0100
0000
0100
0000
0200
0000
0000
0300
,
0200
0000
0000
0000
,
0300
0000
0000
0000
0001
0000
0000
1000
,
0000
0100
0001
0001
,
0001
0000
0001
0000
0010
0000
0000
0100
,
0000
1000
0100
0100
,
0100
0000
0100
0000
0010
0000
0000
0001
,
0000
1000
0001
0010
,
0100
1000
1000
0000
,
0001
0000
1000
0000
,
0001
0000
0100
0100
,
0000
0010
0010
0000
,
0001
0001
0100
0000
,
0010
0000
1000
0000
,
0001
0000
0010
0010
,
0000
0100
0100
0000
,
1000
1000
0002
0003
,
2000
3000
2000
3000
,
0002
0003
0100
0000
,
0100
0010
0100
0000
,
0100
0100
0200
0300
,
0020
0030
0020
0030
,
0200
0300
0010
0000
,
0001
0000
2000
0000
,
3000
0001
1001
0000
,
1001
0000
0000
0000
2002
0000
0000
3003
;
