#TITLE:Fox;
#SUBTITLE:;
#ARTIST:Matatabi Sound System;
#TITLETRANSLIT:;
#SUBTITLETRANSLIT:;
#ARTISTTRANSLIT:;
#CREDIT:;
#BANNER:../Banner.png;
#BACKGROUND:../BG.png;
#LYRICSPATH:;
#CDTITLE:../CDTitle_Wins.png;
#MUSIC:Matatabi Sound System & Kobaryo - Fox.ogg;
#OFFSET:-0.236;
#SAMPLESTART:30.236;
#SAMPLELENGTH:12.000;
#SELECTABLE:YES;
#BPMS:0.000=200.000;
#STOPS:;
#BGCHANGES:;
// cache tags:
#FIRSTBEAT:32.000;
#LASTBEAT:983.500;
#SONGFILENAME:Songs/Index Tesseract/Fox - [losermanwins]/Matatabi Sound System & Kobaryo - Fox.sm;
#HASMUSIC:1;
#HASBANNER:1;
#MUSICLENGTH:304.320;
// end cache tags

//---------------dance-single - losermanwins----------------
#NOTES:
     dance-single:
     losermanwins:
     Challenge:
     18:
     1.000,1.000,0.168,0.000,1.000,2512.000,51.000,0.000,0.000,0.000:
0000
0000
0000
0000
,
0000
0000
0000
0000
,
0000
0000
0000
0000
,
0000
0000
0000
0000
,
0000
0000
0000
0000
,
0000
0000
0000
0000
,
0000
0000
0000
0000
,
0000
0000
0000
0000
,
1001
1001
0000
0000
,
0000
0000
0000
0000
,
0000
0000
0000
0000
,
0000
0000
0000
0000
,
0000
0000
0000
0000
,
0000
0000
0000
0000
,
0000
0000
0000
0000
,
0000
0000
0000
0000
,
1000
0100
0010
0001
0010
0100
1000
0100
,
0010
0001
0010
0100
1000
0001
0100
0001
,
1000
0001
0010
0100
0010
0001
1000
0001
,
0100
0001
1000
0001
0010
0001
0100
0001
,
1000
0100
1000
0001
0010
0100
0010
0001
,
1000
0001
0010
0001
1000
0001
1000
0001
,
1000
0100
1000
0001
1000
0100
0010
0001
,
0100
0010
1000
0100
0010
0001
0100
0010
,
1000
0001
1000
0010
0100
0010
0100
0001
,
0010
0100
1000
0100
0010
0001
0100
0010
,
0100
0010
1000
0010
0100
0001
1000
0100
,
0010
0001
0010
0100
1000
0010
0100
0001
,
1000
0100
0010
0001
0010
0100
1000
0100
,
0010
0100
0001
1000
0010
0100
0001
1000
,
0100
0010
0001
0100
0010
1000
0100
0010
,
0001
0010
0001
1000
0010
1000
0001
0100
,
0440
0000
0000
0000
,
0000
0000
0000
0330
,
4004
0000
0000
0000
,
0000
0000
0000
3003
,
0010
0100
0010
0100
0010
0100
0010
0100
,
0001
1000
0001
1000
0001
1000
0001
1000
,
0010
0100
0001
1000
0100
0010
0001
0100
0010
1000
0100
0010
0001
0010
0100
1000
,
0100
0000
0010
0000
0001
0100
0010
1000
0010
0000
1010
0000
0101
0000
0000
0000
,
0010
0100
0001
0010
0001
0100
0001
0010
0100
1000
0100
0010
0001
1000
0001
0100
,
0001
0010
0100
0010
0001
1000
0100
0010
0100
1000
0001
1000
0100
0010
0100
0010
,
0100
1000
0001
1000
0010
1000
0010
0100
0010
0100
0001
0100
0001
0010
0100
0010
,
0001
0100
0001
1000
0100
1000
0010
1000
0001
0010
0100
0010
0001
1000
0001
1000
,
0010
0100
0001
0010
0001
0010
0100
0010
0100
1000
0010
0100
0010
0100
0001
0010
,
0100
1000
0001
1000
0010
1000
0100
0010
0001
0100
0010
1000
0001
0100
0010
0100
,
0001
0010
0100
1000
0010
1000
0010
1000
0001
0010
0001
1000
0001
1000
0001
0010
,
0100
0000
1000
0000
1000
0000
0100
0010
0100
1000
0001
1000
0001
0000
1000
0000
,
0010
1000
0100
1000
0010
1000
0001
0010
0001
1000
0001
0010
0100
1000
0001
1000
,
0100
1000
0010
0100
0010
0100
0010
1000
0001
0100
0001
0010
0100
1000
0001
1000
,
0100
1000
0100
0010
0001
0100
0001
1000
0100
0010
0100
0010
0100
1000
0001
1000
,
0100
1000
0001
0010
0100
0010
0001
0100
0010
1000
0100
0010
0001
0010
0100
0010
,
0001
0100
0010
1000
0010
0100
0001
0010
0001
1000
0100
0010
0100
1000
0001
0010
,
0100
0010
0100
1000
0010
1000
0010
0100
0001
0010
0100
0010
0001
1000
0100
1000
,
0001
0000
0000
1000
0001
0000
0001
0000
0000
0000
0001
0000
1000
0000
0001
0000
,
1000
0000
0100
0000
0010
0000
0001
1000
0100
0010
0001
0100
0010
1000
0100
0010
,
0001
0100
0010
0100
0001
0100
0001
0010
0001
1000
0010
0100
0010
0100
0001
1000
,
0001
0100
0010
0100
0010
0100
0001
1000
0100
0010
0100
1000
0100
0010
0001
0010
,
0001
0100
0010
1000
0001
0100
0010
0100
0010
1000
0001
1000
0100
0010
0001
0100
,
0001
0100
0010
1000
0001
0100
0010
0100
0010
0100
0001
1000
0100
0010
0001
0100
,
0010
1000
0001
0100
0010
1000
0100
1000
0010
1000
0100
0010
0100
1000
0001
1000
,
0010
0100
0010
0100
0001
1000
0100
0010
0001
1000
0010
0100
0001
1000
0001
1000
,
0010
0100
0001
0010
0001
1000
0100
0010
0001
0100
0001
0010
0001
0010
0100
1000
,
0100
0000
1000
0000
0100
0000
1000
0001
0100
0010
1000
0000
0010
0000
1000
0000
,
0100
1000
0001
0010
0001
0100
0010
1000
0001
0100
0001
0100
0010
1000
0010
1000
,
0100
1000
0001
0100
0010
1000
0010
0100
0010
1000
0001
1000
0100
1000
0100
0010
,
0100
0010
0001
0010
0100
1000
0001
1000
0010
0100
0010
1000
0001
0100
0010
1000
,
0100
1000
0010
0100
0001
1000
0001
1000
0010
1000
0010
0100
0010
0100
0001
0100
,
0010
1000
0100
1000
0001
1000
0001
0100
0001
1000
0010
1000
0001
1000
0100
0010
,
0001
0010
0100
0010
0100
1000
0100
0010
0001
1000
0100
1000
0100
0010
0100
1000
,
0100
0000
0010
0000
0100
0000
0000
0000
1001
0000
0000
1001
0000
0000
0100
0000
,
0010
0000
0001
0000
1000
0100
0010
0001
0010
0100
1000
0100
0010
0001
0000
0000
,
1000
1000
1000
1000
,
1000
1000
1000
1000
,
0001
0001
0001
0001
,
0001
0001
0001
0001
,
0100
0100
0100
0100
,
0100
0100
0100
0100
,
0010
0010
0010
0010
,
0010
0010
0010
0010
,
1001
1001
1001
1001
,
1001
1001
1001
1001
,
0110
0110
0110
0110
,
0110
0110
0110
0110
,
0010
0001
1000
0010
0100
0010
1000
0100
,
1000
0010
1000
0001
0100
0010
1000
0001
,
0010
0001
0100
0010
1000
0010
1000
0001
0010
0001
1000
0010
1000
0001
1000
0010
,
1000
0000
0001
0000
1000
0100
0010
0001
0100
0000
1010
0000
0101
0000
0000
0000
,
0100
0010
0100
0010
0100
0001
0010
0100
0010
0001
0010
0100
1000
0001
0010
0100
,
1000
0010
0100
0010
0100
0010
1000
0001
0100
0001
1000
0001
0010
0100
1000
0010
,
1000
0001
0100
0001
1000
0001
0010
0100
0010
0100
1000
0100
1000
0001
0010
0001
,
1000
0010
1000
0100
1000
0001
0010
0100
1000
0100
1000
0010
0100
0010
1000
0010
,
0100
0001
0100
0010
0100
0010
1000
0010
0100
0001
0100
0010
1000
0100
0010
0001
,
0100
0010
1000
0010
1000
0010
0100
0001
0010
0100
0010
0100
1000
0010
1000
0100
,
1000
0010
0100
0001
0100
0001
0010
0001
1000
0100
0010
0001
0100
0010
1000
0010
,
0100
0000
0001
0000
0010
0000
0100
1000
0100
0010
0001
0000
1000
0000
0100
0000
,
1000
0001
1000
0010
0100
0001
0100
0001
0010
0001
0010
0100
0010
0100
1000
0010
,
1000
0010
1000
0001
0010
0100
1000
0010
0100
0001
0100
0001
0100
0010
1000
0010
,
1000
0100
1000
0100
0010
0100
0010
0001
0100
0010
0100
0010
1000
0010
1000
0001
,
0100
0010
0100
0010
1000
0010
1000
0001
1000
0010
0100
0001
0010
0001
0100
0001
,
0100
0010
1000
0100
1000
0100
1000
0001
0100
0010
1000
0100
1000
0100
0010
0100
,
1000
0001
0100
0010
0100
0001
0010
0100
1000
0100
1000
0010
0100
0001
0100
0001
,
0100
0000
0001
0000
0100
0000
0010
1000
0100
0010
0001
0000
1000
0000
1000
0000
,
1000
0000
0001
0000
1000
0100
0010
0001
0010
0000
1001
0000
0101
0000
0000
0000
,
0001
1000
0100
1000
0100
0010
0100
1000
,
0001
0100
0010
0100
0010
1000
0001
0010
,
0100
1000
0100
1000
0010
1000
0100
0010
,
0001
1000
0010
0100
0001
0010
0100
1000
,
0001
0100
0001
0100
0010
1000
0010
0100
,
0001
0010
0100
0010
0001
0010
0100
1000
,
0001
0100
0010
0100
0001
0010
0100
1000
,
0001
0100
0010
1000
0100
1000
0001
0010
,
0001
1000
0100
0010
0100
1000
0001
1000
,
0010
1000
0010
0100
0010
0100
0001
0100
,
0001
0010
0001
0100
0010
1000
0010
0100
,
0001
1000
0010
1000
0100
0010
0001
0100
,
0001
1000
0010
0100
0001
1000
0001
1000
,
0100
0010
0001
0100
0010
1000
0010
0100
,
0010
0100
0001
0010
0100
0010
0100
0010
,
0001
0100
0001
0100
0010
0100
0001
1000
,
0010
1000
0001
0010
0001
0100
0010
1000
0010
1000
0100
1000
0001
0010
0100
0010
,
0001
1000
0100
0010
0100
1000
0010
0100
0010
1000
0001
0010
0100
1000
0010
0100
,
0001
0010
0100
1000
0010
0100
0001
1000
0100
1000
0001
0010
0001
0100
0001
1000
,
0010
0100
0001
0100
0010
1000
0010
0100
0010
0100
0001
1000
0100
0010
0001
1000
,
0001
0010
0100
1000
0100
1000
0100
0010
0001
0100
0010
1000
0001
1000
0010
1000
,
0010
0100
0001
1000
0100
0010
0001
1000
0100
1000
0100
0010
0100
0010
0001
1000
,
0010
0100
0001
0010
0100
0010
0001
0010
0100
1000
0001
0100
0010
1000
0100
0010
,
0001
0000
1000
0000
0100
0000
1000
0100
0010
0001
0100
0000
0010
0000
1000
0000
,
0100
1000
0001
1000
0010
0100
0001
0100
0010
1000
0100
0010
0100
1000
0001
0100
,
0010
1000
0001
0010
0100
1000
0100
0010
0001
1000
0010
0100
0001
1000
0010
1000
,
0001
0100
0001
0010
0001
1000
0100
1000
0010
0100
0001
1000
0010
1000
0010
0100
,
0010
1000
0100
1000
0010
0100
0001
1000
0010
0100
0001
1000
0100
0010
0001
0010
,
0001
0100
0010
1000
0010
0100
0001
0010
0100
0010
0001
0100
0001
1000
0100
0010
,
0001
0010
0100
0010
0100
1000
0001
0010
0001
1000
0001
0100
0010
0100
0001
1000
,
0000
0000
0000
0000
,
0000
0000
0000
0000
,
0000
0000
0000
0000
,
0000
0000
0000
0000
,
0000
0000
0000
0000
,
0000
0000
0000
0000
,
0000
0000
0000
0000
,
0000
0000
0000
0000
,
0000
0000
0000
0000
,
0000
0000
0000
0000
,
0000
0000
0000
0000
,
0000
0000
0000
0000
,
0000
0000
0000
0000
,
0000
0000
0000
0000
,
0010
1000
0100
0010
0100
0010
0100
1000
,
0010
1000
0010
1000
0001
0010
0100
0010
,
0100
0010
0001
1000
0001
1000
0100
1000
,
0100
0010
0100
1000
0001
0100
0001
0010
,
0100
1000
0010
0100
1010
1000
0010
1000
,
0001
0010
0001
1000
0011
0100
0010
1000
,
0100
1000
0100
1000
1010
0100
0001
0010
,
0100
1000
0100
1000
0011
1000
0001
0100
,
0010
1000
0010
0100
1010
0100
0001
0010
,
0001
1000
0100
0010
1001
1000
0001
0100
,
0010
0100
0001
0100
0011
1000
0100
0010
,
0001
0100
0010
0100
0110
1000
0001
0010
,
0001
1000
0001
0100
1010
0100
0001
0010
,
0001
1000
0010
0100
1001
0100
0010
1000
,
0100
1000
0100
0010
1100
0010
0001
0010
,
0001
0100
0001
1000
0101
0010
0100
0010
,
0001
0010
0100
1000
1001
1000
0100
0010
,
0100
0010
0100
1000
0110
1000
0001
1000
,
0001
0010
0001
1000
0101
0010
0100
0010
,
0100
1000
0001
0010
0101
1000
0001
1000
,
0010
0000
0100
0000
0001
0000
0100
0010
1000
0000
0100
0000
0010
0000
0001
0000
,
1000
0001
0010
0001
0010
0100
1000
0001
,
1000
0000
0001
0000
1000
0000
0100
1000
0001
0000
1000
0000
0010
0000
0100
0000
,
0001
1000
0001
0100
0001
0010
0100
1000
,
0010
0000
1000
0000
0100
0000
0010
0001
1000
0000
0010
0000
1000
0000
0100
0000
,
0010
0001
0010
0100
1000
0100
1000
0001
,
0010
0000
0001
0000
1000
0000
0100
0010
0001
0000
0100
0000
0010
0000
1000
0000
,
1001
0000
1001
1001
0000
0110
0000
1001
,
0100
0000
1000
0000
0100
0000
0010
0100
0010
0000
0001
0000
0010
0000
0100
0000
,
1000
0000
0100
0000
0010
0000
0100
0010
0100
0000
1000
0000
0010
0000
0100
0000
,
0001
0000
0100
0000
0010
0000
1000
0001
0100
0000
0010
0000
1000
0000
0001
0000
,
0100
0000
0010
0000
0100
0000
0001
1000
0010
0000
1000
0000
0010
0000
1000
0000
,
0010
0100
0001
0010
0100
0010
0100
1000
,
0010
0100
0001
1000
0100
0010
0001
0100
,
0001
0100
0010
1000
0100
0010
0001
0100
0010
1000
0100
0010
0001
0100
0010
0100
,
0001
0000
1000
0000
0100
0010
0001
0010
0100
0000
1010
0000
0101
0000
0000
0000
,
0100
1000
0010
0100
0001
0100
0001
1000
0010
1000
0100
0010
0100
1000
0001
0100
,
0001
0100
0010
1000
0010
1000
0010
0100
0001
0100
0010
0100
0001
0010
0100
0010
,
0100
1000
0001
1000
0001
0010
0001
0010
0100
0010
0100
1000
0010
0100
0001
0010
,
0001
0100
0001
1000
0100
1000
0100
1000
0010
0100
0001
0010
0100
1000
0100
0010
,
0001
0100
0001
0010
0001
0100
0010
1000
0010
1000
0010
0100
0001
0010
0001
0010
,
0100
1000
0100
1000
0100
0010
0001
0010
0100
0010
0100
1000
0100
1000
0001
1000
,
0100
0010
0001
0010
0001
0100
0010
0100
0010
0100
0001
0010
0100
0010
0100
1000
,
0100
0000
1000
0000
0100
0000
0100
1000
0100
0010
0001
0010
0100
1000
0100
0000
,
0010
0100
1000
0001
1000
0001
1000
0100
0010
0001
0100
0010
1000
0001
1000
0100
,
1000
0010
0100
0001
0100
0001
0010
0100
1000
0001
0100
0010
1000
0010
1000
0001
,
1000
0100
0010
0001
0010
0100
0010
0001
1000
0100
1000
0001
0010
0100
1000
0100
,
0010
0100
1000
0010
1000
0001
0100
0010
0100
0001
0010
0001
0010
0001
0100
0010
,
1000
0100
0010
0001
0100
0001
0010
0001
1000
0100
1000
0001
0100
0010
1000
0001
,
0100
0010
0100
0001
1000
0010
1000
0001
1000
0010
0100
0010
0100
0010
1000
0001
,
1000
0000
0000
0001
0010
0000
0100
0000
0000
0000
0100
0000
1000
0000
0001
0000
,
1000
0000
0100
0000
0010
0000
0001
0100
0010
1000
0100
0010
0001
0010
0100
1000
,
0100
0010
0100
0010
0100
0010
0001
1000
0001
0010
0001
0100
0001
1000
0100
0010
,
0001
0100
0010
0100
0001
0100
0010
1000
0001
0100
0010
1000
0001
1000
0001
0100
,
0010
1000
0010
1000
0001
0100
0001
0100
0001
1000
0100
1000
0010
0100
0010
0100
,
0010
1000
0001
0010
0100
0010
0001
0010
0001
0100
0010
0100
0010
1000
0100
0010
,
0100
1000
0001
1000
0100
0010
0100
1000
0001
1000
0010
0100
0010
1000
0010
0100
,
0001
0100
0010
0100
0001
0010
0100
0010
0001
1000
0001
0010
0100
0010
0100
1000
,
0100
0010
0001
0010
0100
1000
0010
1000
0100
1000
0010
0100
0001
1000
0010
0100
,
0010
0000
1000
0000
0100
0000
0100
1000
0100
0010
0001
0000
1000
0000
0100
0000
,
0010
0001
0010
0100
0010
0001
0100
0010
1000
0100
1000
0010
0100
0010
0100
0001
,
0100
0001
1000
0010
1000
0010
0100
0010
0100
0001
0010
0100
1000
0001
0100
0001
,
1000
0001
0100
0010
1000
0010
1000
0100
1000
0001
0010
0001
0010
0001
0100
0010
,
0100
0001
1000
0001
0100
0010
1000
0010
0100
0010
1000
0001
0100
0001
0010
0100
,
1000
0001
0100
0001
1000
0100
1000
0100
1000
0001
0100
0001
0010
0001
0100
0010
,
1000
0010
1000
0001
0010
0001
1000
0100
1000
0010
0100
0010
1000
0100
1000
0001
,
0010
0100
1000
0001
0100
0010
1000
0001
1000
0100
0010
0001
0100
0001
0100
0001
,
0100
0000
0001
0000
0100
0000
0010
1000
0100
0010
0001
0000
1000
0000
0001
0000
,
0010
0001
0010
0100
1000
0001
1000
0010
1000
0100
0010
0100
1000
0001
0010
0100
,
1000
0010
1000
0001
0100
0001
0010
0001
0100
0010
0100
0010
1000
0001
1000
0100
,
0010
0001
1000
0010
0100
0010
1000
0001
0100
0010
0100
0001
0100
0001
1000
0010
,
0100
0010
1000
0100
0010
0001
0010
0100
0010
0100
1000
0001
0010
0100
0010
0001
,
0010
0100
1000
0100
1000
0100
0010
0001
1000
0001
0010
0100
0010
0001
1000
0100
,
0010
0100
1000
0010
0100
0001
0100
0001
1000
0100
0010
0001
0100
0001
1000
0001
,
0010
0100
0010
0001
0100
0001
1000
0001
1000
0010
0100
0010
0100
0001
0100
0010
,
1000
0000
0001
0000
0100
0000
0010
1000
0010
0100
0001
0000
1000
0000
0100
0000
,
1000
0001
0010
0001
0100
0001
1000
0100
0010
0100
0010
0001
0100
0010
0100
0010
,
1000
0100
0010
0001
1000
0010
0100
0010
0100
0001
0100
0010
1000
0100
1000
0100
,
1000
0010
0100
0001
0100
0010
0100
0001
1000
0001
0100
0010
0100
0010
0100
0001
,
1000
0010
0100
0001
0010
0100
0010
0001
1000
0001
1000
0100
1000
0001
0010
0100
,
1000
0010
0100
0001
0100
0001
1000
0001
0010
0100
1000
0001
0100
0010
1000
0001
,
0010
0001
0010
0001
0100
0010
0100
0010
1000
0100
0010
0001
0100
0001
1000
0010
,
0100
0000
0000
0100
0001
0000
0010
0000
0000
0000
0100
0000
1000
0000
0100
0000
,
0010
0000
0001
0000
1000
0000
0100
0010
0001
0100
0010
1000
0001
0010
0100
1000
,
0100
1000
0001
0010
0001
0100
0010
1000
0010
0100
0001
0010
0100
1000
0010
0100
,
0010
0100
0001
1000
0010
1000
0010
1000
0001
0010
0001
0010
0100
1000
0010
1000
,
0100
1000
0001
0010
0100
0010
0001
1000
0001
0100
0001
1000
0100
0010
0100
0010
,
0001
0100
0010
1000
0001
0010
0100
0010
0100
1000
0001
0100
0001
0010
0001
1000
,
0010
1000
0001
0010
0001
1000
0001
1000
0010
1000
0001
0010
0001
0100
0010
0100
,
0010
1000
0001
1000
0010
0100
0010
1000
0001
0100
0001
0100
0001
1000
0010
0100
,
0010
0100
0001
0100
0001
1000
0001
1000
0010
1000
0010
0100
0001
0100
0001
0100
,
0001
0000
0001
0000
0010
0000
0100
1000
0100
0010
0001
0000
0100
0000
0010
0000
,
1000
0010
1000
0100
0010
0001
0010
0001
,
1000
0001
0010
0100
1000
0100
0010
0001
,
0010
0100
1000
0010
0100
0001
0100
0001
,
0100
0010
1000
0100
0010
0001
0010
0001
,
1000
0010
0100
0010
0100
0010
1000
0100
,
1000
0100
1000
0010
0100
0001
0010
0001
;
