#TITLE:D Rose;
#SUBTITLE:;
#ARTIST:Lil Pump;
#TITLETRANSLIT:;
#SUBTITLETRANSLIT:;
#ARTISTTRANSLIT:;
#CREDIT:Owem;
#BANNER:../banner.png;
#BACKGROUND:../bg.png;
#LYRICSPATH:;
#CDTITLE:../cdtitleowem.png;
#MUSIC:Lil Pump - D Rose.ogg;
#OFFSET:-0.167;
#SAMPLESTART:32.626;
#SAMPLELENGTH:29.999;
#SELECTABLE:YES;
#BPMS:0.000=122.000;
#STOPS:;
#BGCHANGES:;
// cache tags:
#FIRSTBEAT:2.000;
#LASTBEAT:262.000;
#SONGFILENAME:Songs/Owem's Simfiles 08 1.1/D Rose - [Owem] v1.0.1/D Rose.sm;
#HASMUSIC:1;
#HASBANNER:1;
#MUSICLENGTH:136.306;
// end cache tags

//---------------dance-single - 17+ (Owem)----------------
#NOTES:
     dance-single:
     17+ (Owem):
     Medium:
     8:
     0.461,0.622,0.029,0.411,0.348,379.000,4.000,56.000,0.000,0.000:
0000
0000
0000
0000
,
0000
0000
0000
0000
,
0000
0000
0000
0000
,
0000
0000
0000
0000
,
0000
0000
1000
0000
,
0010
0000
0100
0000
,
0001
0000
0000
0000
0000
0000
1000
0000
0000
0010
0100
0000
,
0001
0000
0000
0000
1000
0000
0000
0000
0000
0000
0000
0000
0200
0000
0000
0000
0000
0000
0320
0000
0000
0030
0000
0000
0001
0000
0000
0000
0000
0000
0000
0000
0000
0000
0000
0000
0000
0000
0000
0000
0000
0000
0000
0000
0000
0000
0000
0000
,
1000
0000
0000
0000
0010
0100
0001
0000
,
1000
0000
0100
0000
0010
0001
1000
0000
,
1001
0001
0100
0010
,
1000
0000
0000
0000
0001
0100
0000
0000
0010
0000
0000
0000
1000
0000
0000
0000
,
0001
0000
2000
3000
0100
0000
0010
0000
,
0001
0000
0000
0100
0000
0000
0010
0000
0000
0100
0001
0100
,
0001
1000
0100
0010
,
0001
2000
3020
0230
,
0000
0000
0001
0000
0301
1000
0001
0000
,
0100
0010
0100
0010
0100
0001
0100
0000
,
0010
1000
0010
0100
0001
1000
0001
0000
,
0010
0000
0000
0100
0000
0000
1000
0000
0000
0001
0000
0000
0100
0000
0010
0000
0100
0000
0010
0000
0000
0000
0000
0000
,
1000
0000
0000
0001
0000
0000
1000
0000
0000
0000
0000
0000
0100
0000
0010
0000
0000
0000
0001
0000
0100
0000
0000
0000
,
0010
0100
0000
0001
1000
0000
0100
0010
0000
0001
1000
0001
,
1000
0000
0000
0000
0000
0000
0000
0000
0100
0000
0000
0000
0000
0000
0000
0000
0000
0000
0000
0000
0000
0000
0000
0000
0020
0000
0000
0000
0000
0000
0000
0000
0032
0000
0000
0000
0000
0000
0000
0000
0000
0000
0000
0003
0000
0000
0000
0000
1000
0000
0000
0000
0000
0000
0000
0000
0010
0000
0000
0000
0000
0000
0000
0000
0000
0000
0000
0000
0000
0000
0000
0000
0100
0000
0000
0000
0000
0000
0000
0000
0010
0000
0000
0000
0000
0000
0000
0000
0000
0000
0000
0000
0000
0000
0000
0000
,
0100
0000
0000
0000
0001
0000
0000
0000
0000
0000
0000
0000
1000
0000
0000
0000
0100
0000
0000
0000
0000
0000
0000
0000
0010
0000
0000
0000
0001
0000
0000
0000
1000
0000
0000
0000
0001
0000
0000
0100
0000
0000
0000
0000
0000
0000
0000
0000
,
0010
0000
0000
0000
1000
0000
0000
0000
0010
0000
0000
0000
1000
0000
0000
0000
0002
0000
0000
0000
0000
0000
0003
0000
1000
0000
0000
0000
0000
0000
0100
0000
0000
0000
0000
0000
0010
0000
0000
0000
0000
0000
0002
0000
0000
0003
0000
0000
,
1000
0000
0001
0000
0100
0000
0020
0000
0130
0000
0001
0000
1000
0000
0400
0300
,
1000
0010
0100
0001
0001
1000
0001
0010
,
0100
0000
0000
0000
0000
0000
1000
0000
0000
0000
0000
0000
0001
0000
0000
0000
0000
0000
0200
0000
0000
0300
0000
0000
0010
0000
0000
0000
1000
0000
0000
0000
0010
0000
0000
0000
1000
0000
0000
0000
0000
0000
0001
0000
0000
0000
0000
0000
,
0010
0000
0000
0200
0000
0000
0000
0000
0000
2300
0000
0000
3001
0000
0100
0000
0000
0000
0010
0000
0100
0000
0000
0000
,
0001
1000
0000
0100
1000
0000
0010
1000
0000
0001
0100
0000
,
0010
0000
0000
0000
0000
0000
0000
0000
0200
0000
0000
0000
0000
0000
0000
0000
0000
0000
0000
0000
0000
0000
0000
0000
0302
0000
0000
0000
0000
0000
0000
0000
2003
0000
0000
0000
0000
0000
0000
0000
0000
0000
0000
0000
0000
0000
0000
0000
3100
0000
0000
0000
0000
0000
0000
0000
0010
0000
0000
0000
0000
0000
0000
0000
0000
0000
0000
0000
0000
0000
0000
0000
0002
0000
0000
0000
0000
0000
0000
0000
0203
0000
0000
0000
0000
0000
0000
0000
0000
0000
0000
0300
0000
0000
0000
0000
,
0010
0000
0000
0000
0000
0000
0000
0000
1000
0000
0000
0000
0000
0000
0000
0000
0000
0000
0000
0000
0000
0000
0000
0000
0020
0000
0000
0000
0000
0000
0000
0000
0230
0000
0000
0000
0000
0000
0000
0000
0000
0000
0000
0300
0000
0000
0000
0000
0001
0000
0000
0000
0000
0000
0000
0000
1000
0000
0000
0000
0000
0000
0000
0000
0000
0000
0000
0000
0000
0000
0000
0000
0200
0000
0000
0000
0000
0000
0000
0000
0320
0000
0000
0000
0000
0000
0000
0000
0030
0000
0000
0000
0000
0000
0000
0000
,
0001
0000
0100
0000
0000
0000
0020
0000
2030
0000
0000
3000
0001
0000
0000
0100
0000
0000
0010
0000
0000
0100
0000
0000
,
0001
0000
0000
1000
0000
0000
0100
0000
0020
0000
0000
0000
0031
0000
0000
2000
0000
0000
3001
0000
0000
0100
0000
0000
,
0040
0000
0000
0000
0000
0000
1030
0000
0002
0000
0000
0000
0103
0000
0010
0000
0000
0000
1000
0000
0000
0001
0000
0000
,
0001
0000
0000
0010
0000
0000
0200
0000
0000
0000
0000
0000
1300
0000
0010
0000
1000
0000
0010
0000
0000
0000
0000
0000
,
0000
0000
0000
0000
0000
0000
0001
2000
3000
0100
0000
0000
,
0010
0001
1000
0000
0010
0100
0010
1000
,
0001
0100
0002
0003
1000
0100
1000
0010
,
0100
0001
2000
3010
0000
0000
0000
0000
,
0000
0000
0000
0000
0100
0001
1000
0001
,
0010
0000
0000
0100
0000
0000
1000
0000
0000
0000
0000
0000
0010
0000
0000
0100
0000
0000
0001
0000
1000
0000
0001
0000
,
1000
0010
0100
0001
0002
0000
0000
1003
,
0100
0000
0000
1000
0000
0000
0020
0000
0000
0000
0000
0000
0130
0000
0001
0000
0100
0000
0001
0000
0000
0000
0000
0000
,
0000
0000
2010
0001
,
3100
0000
0000
0010
0000
0000
0002
0000
0000
0003
0000
0000
2001
0000
0000
3000
0000
0000
0010
0000
0100
0000
0010
0000
,
0100
0001
1000
0100
2000
0000
0010
0000
,
3010
0000
0000
0100
0000
0000
0002
0000
0000
0000
0000
0000
1003
0000
0100
0000
1000
0000
0100
0000
0000
0000
0000
0000
,
0000
0000
0000
0000
0000
0000
0000
0000
0000
0010
0000
0000
0001
0000
1000
0000
0000
0000
0010
0000
1000
0000
0000
0000
,
0001
1000
0000
0100
0020
0030
0001
0100
0000
0010
1000
0010
,
1000
0002
0003
0020
0230
0000
1300
0001
0000
0100
0001
0000
,
1000
0100
0000
0010
0001
0000
2000
3002
1003
0001
0100
0000
,
0010
0100
0000
0002
0203
0300
0010
1000
0000
0010
0100
0000
,
0001
0100
0000
0020
2030
3000
0001
1000
0000
0100
0010
0000
,
0001
0200
0000
0310
2000
3000
0001
0100
0000
0010
0100
0000
,
0001
1000
0000
0100
0010
0000
0001
0100
0001
0100
0000
0000
,
0000
0000
0000
0000
0010
1000
0001
0000
,
1000
0100
0010
0000
0001
1000
0001
0000
,
0100
0010
0100
0000
0001
1000
0001
0000
,
0010
0000
0000
0100
0000
0000
1000
0000
0000
0000
0000
0000
0010
0000
0100
0000
0010
0000
0100
0000
0000
0000
0000
0000
,
0001
1000
0001
1000
0000
0000
0100
0000
0000
0010
0000
0000
,
0001
1000
0010
1000
,
0020
0230
0301
0001
,
1000
0000
1000
0000
0100
0000
0100
0010
,
0001
1000
0002
0203
0320
0000
0100
0000
,
0100
0030
0000
0000
;

//---------------dance-single - 1/1/1/1/1/2/1/1/2-1/----------------
#NOTES:
     dance-single:
     1/1/1/1/1/2/1/1/2-1/:
     Challenge:
     17:
     1.000,1.000,0.015,0.558,1.000,1092.000,2.000,76.000,58.000,0.000:
0000
0000
0000
0000
0000
0000
0000
0000
M000
0000
00M0
0M00
00M0
0M00
00M0
0M00
,
00M0
0M00
00M0
0M00
00M0
0M00
00M0
0M00
00M0
0M00
00M0
0M00
0000
0000
0000
0000
,
0000
0000
0000
0000
0000
0000
0000
0000
0M0M
M0M0
0M0M
M0M0
0000
0000
0000
0000
,
0000
0000
0000
0000
,
0000
0000
0000
0000
0000
0000
0000
0000
1000
0000
0000
0000
00M0
000M
00M0
000M
,
01M0
000M
00M0
000M
00M0
000M
00M0
000M
1000
0000
0000
0000
0000
0M00
00M0
0M00
,
00M1
0000
0000
0000
0000
0000
0000
0000
0000
0000
0000
0000
0M00
0000
0000
0000
0000
0000
0000
0000
0000
0000
0000
0000
00M0
0000
0000
0000
0000
0000
0000
0000
0000
0000
0000
0000
0000
0000
0000
0000
0000
0000
0000
0000
0000
0000
0000
0000
0000
0000
0000
0000
0000
0000
0000
0000
0000
0000
0000
0000
0000
0000
0000
0000
0000
0000
0000
0000
0000
0000
0000
0000
0000
0000
0000
0000
0000
0000
0000
0000
0000
0000
0000
0000
0000
0000
0000
0000
0000
0000
0000
0000
0000
0000
0000
0000
1000
0000
0000
0000
0000
0000
0000
0000
0000
0000
000M
0000
0000
0000
0000
0000
0000
0000
0000
00M0
0000
0000
0000
0000
0000
0000
0000
0000
0000
000M
0000
0000
0000
0000
0000
0000
0000
0000
0000
0000
0000
0000
0000
0000
0000
0000
0000
0000
0100
0000
0000
0000
0000
0000
0000
0000
0000
0000
0000
0000
0010
0000
0000
0000
0000
0000
0000
0000
0000
0000
0000
0000
0000
0000
0000
0000
0000
0000
0000
0000
0000
0000
0000
0000
0000
0000
0000
0000
0000
0000
0000
0000
0000
0000
0000
0000
,
0001
0000
0000
0100
0000
0000
0000
0000
0000
0000
0000
0000
0020
0000
0000
0000
0000
2030
0000
0000
3000
0000
0000
0000
0002
0000
0000
0000
0000
2003
0000
0000
0000
0000
3000
0000
0200
0000
0000
0000
0000
0000
0300
0000
0000
0000
0000
0000
,
0010
0000
0000
0000
0000
0000
0000
0000
0001
0100
0010
1000
0010
0000
0000
0000
,
0100
0000
0000
0001
0000
1000
0000
0000
0100
0010
0001
1000
0001
0000
0000
0200
,
0000
0000
0000
0300
0000
0000
0000
0000
0000
0000
0000
0000
0020
0000
0000
0000
2030
0000
0000
0000
3000
0000
0000
0000
0001
0000
0000
0000
0000
0000
0000
0000
0000
0000
0M00
0000
0010
0000
0000
0000
0000
0000
0000
0000
0000
0000
0000
0000
,
0100
0000
0000
0000
0000
0000
0000
0000
2000
0000
3020
0000
0030
0000
0000
0000
0100
0000
0000
0000
0000
0000
0000
0000
0004
0003
0000
0000
0000
0000
0000
0000
,
1000
0000
0200
0300
0010
0000
0001
0000
,
1000
0000
0000
0010
0000
0000
0100
0000
0000
0001
1000
0001
,
1000
0100
0020
0001
,
0001
0000
0000
0001
0000
0000
0001
0001
0001
0001
0000
0000
,
M000
0000
0000
0000
0000
0000
0000
0000
M000
0000
0000
0000
0000
0000
0000
0000
M000
0000
0000
0000
0000
0001
0000
0000
M000
0000
0000
0000
0000
0000
0000
0000
0000
0000
0000
0000
0000
0000
0000
0000
0000
0000
0000
0000
0000
0000
0000
0000
0031
0000
0000
1000
0000
0000
0001
0000
0000
0100
0000
0000
0010
0000
0000
1000
0000
0000
0001
0000
0000
0100
0000
0000
0001
0000
0000
1000
0000
0000
0100
0000
0000
0010
0000
0000
0001
0000
0000
1000
0000
0000
0010
0000
0000
0100
0000
0000
,
0001
0000
1000
0000
0001
0000
0100
0000
0010
0000
0000
0000
1000
0000
0000
0000
0001
0000
0010
0000
0001
0000
1000
0000
0010
0100
0001
1000
0010
1000
0100
0010
,
0001
0000
0000
1000
0000
0000
0010
0000
0000
0100
0000
0000
0001
0000
0000
1000
0000
0000
0001
0000
0000
0100
0000
0000
0010
0000
0000
0000
0000
0000
0000
0000
0000
0000
0000
0100
0001
0000
0000
0000
0000
0000
0000
0000
0000
0000
0000
0000
1000
0000
0000
0010
0000
0000
1000
0000
0000
0001
0000
0000
0100
0000
0000
0010
0000
0000
1000
0000
0000
0001
0000
0000
0100
0000
0000
0001
0000
0000
1000
0000
0000
0100
0000
0000
0010
0000
0000
0001
0000
0000
1000
0000
0000
0010
0000
0000
,
0100
0000
0001
0000
1000
0000
0001
0000
0010
0100
1000
0001
1000
0010
0100
0001
1000
0000
0010
0000
0100
0000
0001
0000
0100
0000
0000
0000
000M
0000
0000
0000
,
0010
0000
1000
0000
0010
0000
0100
0000
0001
0000
00M0
0000
0000
0000
0000
0000
1000
0100
0010
0001
1000
0010
0100
0001
1000
0100
1000
0001
0100
0010
0100
0001
,
1000
0000
0200
0000
0300
0000
0000
0000
0010
0000
0002
0000
0003
0000
0000
0000
1000
0000
0020
0000
0030
0000
0000
0000
0100
0001
1000
0010
1000
0001
0100
0010
,
0100
0001
1000
0100
0010
0001
1000
0010
0100
0000
0002
0000
0000
0000
0003
0000
1000
0010
0100
0001
1000
0010
1000
0100
0010
0001
1000
0100
1000
0001
0100
0010
,
1000
0000
0200
0000
0300
0000
0000
0000
0010
0001
1000
0001
0100
0010
1000
0001
0100
0010
0100
0001
1000
0100
0010
0001
1000
0000
0020
0000
0030
0000
0000
0000
,
0100
0000
0000
0000
0000
0000
0000
0000
0001
0000
0000
0000
0000
0000
0000
0000
1000
0000
0000
0000
0000
0000
0000
0000
0001
0000
0000
0000
0000
0000
0020
0000
0000
0000
0000
0000
0000
0000
0000
0000
0000
0000
0030
0000
0000
0000
0000
0000
0100
0000
0000
1000
0000
0000
0001
0000
0000
0100
0000
0000
0010
0000
0000
0100
0000
0000
0001
0000
0000
1000
0000
0000
0100
0000
0000
1000
0000
0000
0001
0000
0000
0100
0000
0000
0010
0000
0000
1000
0000
0000
0001
0000
0000
0100
0000
0000
,
0010
0000
1000
0000
0001
0000
1000
0000
0100
0000
0000
0000
0020
0000
0030
0000
0001
0000
1000
0000
0001
0000
0100
0000
0010
1000
0001
0100
0010
0100
0001
1000
,
0100
1000
0001
0010
0100
1000
0010
1000
0001
0000
0000
0000
0010
0100
1000
0000
0001
0100
0010
1000
0001
0100
0010
0100
0001
1000
0100
1000
0010
0100
0001
1000
,
0010
0000
0100
0000
0010
0000
1000
0000
0001
0100
0010
1000
0001
0100
0010
1000
0100
0000
0010
0000
0001
0000
1000
0000
0001
0000
0000
0000
0100
0000
0000
0000
,
0010
0000
1000
0000
0010
0100
0001
1000
0100
1000
0001
0100
0010
1000
0001
0010
0100
0000
0000
0000
0000
0000
0000
1000
0000
0020
0000
0000
0000
0030
0000
0000
,
0100
0000
0002
0000
0000
0003
0000
1000
0000
0200
0000
0000
0300
0000
0000
0000
0010
0000
0002
0000
0003
0000
0000
0000
1000
0000
0020
0000
0030
0000
0000
0000
,
0100
0002
0000
0000
1003
0200
0000
0300
0010
0002
0003
0000
1000
0020
0000
0000
,
0130
0002
0003
0000
1000
0200
0000
0000
0310
0002
0003
0000
1000
0020
0030
0000
,
0100
0000
0002
0000
0000
0000
0000
0003
1000
0000
0020
0000
0000
0030
0000
0000
0100
0001
1000
0010
1000
0100
0010
0001
1000
0100
1000
0001
0100
0010
1000
0001
,
0100
0001
1000
0100
1000
0010
0100
0001
1000
0000
0200
0000
0000
0000
0300
0000
0010
0000
0000
0000
0001
0000
0000
0000
1000
0100
1000
0001
0100
0010
1000
0001
,
0100
0010
0100
0001
1000
0100
0010
0001
1000
0000
0001
0000
0100
0010
0100
0000
0001
1000
0001
0100
0010
1000
0001
0100
0001
1000
0100
0010
0001
1000
0100
1000
,
0010
0000
0100
0000
0001
0000
0000
0000
1000
0100
1000
0010
0100
0001
1000
0001
0100
0010
1000
0001
0100
0001
0010
0100
1000
0001
1000
0010
0100
0000
0001
0000
,
1000
0000
0000
0000
0000
0000
0000
0000
0100
0000
0000
0000
0010
0000
0000
0000
0000
0000
0000
0000
0000
0000
0000
0000
0001
0000
0000
0000
0000
0000
2000
0000
0000
0000
0000
0000
0000
0000
0000
0000
0000
0000
3000
0000
0000
0000
0000
0000
0010
0000
0000
0100
0000
0000
0001
0000
0000
1000
0000
0000
0010
0000
0000
1000
0000
0000
0001
0000
0000
0100
0000
0000
0010
0000
0000
1000
0000
0000
0100
0000
0000
1000
0000
0000
0001
0000
0000
0010
0000
0000
0001
0000
0000
1000
0000
0000
,
0010
0000
0100
0000
0010
0000
1000
0000
0002
0000
0000
0003
0000
0000
0000
0000
0100
0000
0000
0000
0010
0000
0000
0000
1000
0001
0100
0010
0100
0001
1000
0010
,
1000
0001
0100
0010
1000
0001
0100
0001
2000
0000
0000
3000
0010
0100
0001
0000
1000
0100
1000
0010
0100
0001
1000
0100
1000
0010
0100
0001
1000
0001
0010
0100
,
1000
0000
0010
0000
1000
0000
0001
0000
0100
0010
0100
0001
1000
0010
1000
0001
0100
0000
0010
0000
0100
0000
0001
0000
2000
0000
3000
0000
0100
0010
0000
0000
,
0002
0000
0000
0000
0003
0000
0000
0000
2000
0000
0000
0000
3000
0000
0000
0000
0020
0000
0000
0000
0030
0000
0000
0100
0001
0000
0000
0000
0000
0000
0000
0000
1000
0000
0010
0000
0100
0000
0001
0000
1000
0000
0001
0000
0010
0000
0100
0000
1000
0000
0001
0000
0100
0000
0010
0000
0100
0000
0001
0000
1000
0000
0010
0000
,
0100
0000
0001
0000
1000
0000
0100
0000
1000
0000
0010
0100
0000
0000
0000
0000
0001
0000
1000
0000
0002
0000
0000
0003
0100
0010
1000
0001
0100
0001
1000
0100
,
0010
0001
0100
0010
1000
0001
0100
0010
1000
0000
0001
0000
0100
0010
0100
0000
0001
1000
0010
0100
0001
1000
0010
1000
0001
0100
0010
1000
0001
0000
0000
0000
,
0020
0000
0000
0030
0100
0000
1000
0000
0001
0100
0010
1000
0001
1000
0100
0010
0100
1000
0001
0010
0001
1000
0010
0100
0001
0000
0000
0000
2000
0000
3000
0000
,
0200
0000
0000
0300
0010
0000
0001
0000
1000
0000
0001
0000
0000
0000
0000
0000
0010
0100
1000
0001
1000
0010
0100
0001
0100
0010
1000
0001
1000
0100
0010
0001
,
1000
0000
0010
0000
1000
0000
0001
0000
0200
0000
0000
0000
0300
0000
0000
0000
2002
0000
3000
0000
0003
0000
0000
0000
1000
0100
1000
0001
0100
0010
1000
0001
,
0100
0010
0100
0001
1000
0100
0010
0001
1000
0000
0000
0000
0010
0100
0010
0000
1000
0001
0100
0010
1000
0001
0100
0001
0010
0100
1000
0001
1000
0010
0100
0001
,
1000
0000
0010
0000
1000
0000
0001
0000
0100
0010
1000
0001
0100
0001
1000
0100
0010
0100
1000
0001
0010
0001
1000
0001
0100
0010
0100
0001
1000
0100
0010
0001
,
0100
0000
0010
0000
0100
0000
0001
0000
2000
0000
0000
3000
0200
0300
0000
0000
0010
0001
1000
0001
0100
0010
1000
0001
0100
0010
0100
0001
1000
0100
0010
0001
,
1000
0000
0020
0000
0030
0000
0000
0000
0100
0000
0002
0000
0003
0000
0000
0000
1000
0000
0200
0000
0300
0000
0000
0000
0010
0001
1000
0100
1000
0010
0100
0001
,
1000
0100
0010
0001
1000
0001
0100
0010
0100
0000
0002
0000
1003
0010
1000
0000
0100
0010
0001
1000
0100
1000
0010
0100
0001
1000
0001
0010
0100
1000
0001
0100
,
0010
0000
2000
0000
3000
0000
0000
0000
0001
0010
0100
1000
0001
1000
0010
0100
0001
1000
0100
1000
0010
0100
0001
1000
0001
0000
0020
0030
0000
0000
0000
0000
,
0100
0000
2000
0000
3001
0100
0001
1000
0020
0000
0230
0000
0000
0000
0300
0000
0001
1000
0001
0100
0010
1000
0001
0100
0010
0100
0001
1000
0100
1000
0010
0100
,
0001
0000
2000
0000
3000
0000
0000
0000
0100
0000
0020
0000
0030
0000
0000
0000
0001
0000
2000
0000
3000
0000
0000
0000
0100
0010
0001
1000
0001
0100
0010
1000
,
0100
1000
0001
0010
0001
1000
0100
0010
0001
0000
0200
0000
0310
1000
0010
0000
0100
0001
1000
0010
1000
0001
0100
0010
0100
0001
1000
0100
0010
0001
1000
0010
,
0100
0000
0002
0000
0003
0000
0000
0000
1000
0100
0010
0001
1000
0001
0100
0010
0100
0001
1000
0100
0010
0100
1000
0001
0200
0000
0320
0000
0000
0030
0000
0000
,
1000
0000
0002
0000
0000
0000
0000
0003
1000
0000
0200
0000
0000
0000
0000
0300
0010
0001
1000
0001
0100
0010
1000
0001
0100
0010
0100
0001
1000
0100
0010
0001
,
0100
0000
0000
0000
0010
0000
0000
0000
0100
0000
0000
0000
0001
0000
0000
0000
1000
0000
0000
0000
0000
0000
0000
0000
1001
0000
0000
0000
0000
0000
0000
0000
0001
0000
0000
0000
0100
0000
0000
0000
0001
0000
0000
0000
1000
0000
0000
0000
0100
0000
0000
0000
0000
0000
0000
0010
0001
0000
0000
0000
0000
0000
0000
0000
,
1000
0010
1000
0001
0100
0010
1000
0001
0100
0001
0010
0100
1000
0000
0000
0000
0010
0100
0001
1000
0001
0010
0100
1000
0001
0010
0001
1000
0100
0010
0100
1000
,
0001
0000
0100
0000
0001
0000
1000
0000
0100
0010
0001
1000
0001
0100
0010
1000
0001
0100
0010
0100
0001
1000
0100
0010
0001
1000
0001
0100
0010
0100
0001
1000
,
0100
0000
0010
0000
0001
1000
0010
0100
0001
1000
0100
1000
0001
0100
0010
1000
0100
0010
0001
1000
0001
0100
0010
1000
0001
0100
0010
0100
0001
1000
0100
0010
,
0001
0000
2000
0000
3000
0000
0000
0010
0000
0200
0000
0300
0000
0000
0000
0001
0000
0020
0000
0030
0000
0000
0000
0000
0100
1000
0001
1000
0010
0100
0001
1000
,
0100
1000
0001
0010
0001
0100
0010
1000
0001
0000
0020
0000
0130
1000
0100
0000
0010
0001
1000
0001
0100
0010
1000
0001
0100
0010
0100
0001
1000
0100
0010
0001
,
0100
0000
0020
0000
0030
0000
0000
0000
1000
0001
0100
0010
1000
0001
0100
0010
0100
0001
1000
0100
0010
0100
1000
0001
0010
0000
0200
0000
1300
0000
0001
0000
,
1000
0000
0000
0000
0100
0010
0001
1000
0001
0100
0010
1000
0001
0100
0010
0100
0001
1000
0100
0010
0001
1000
0100
1000
0010
0100
0001
1000
0100
1000
0001
0100
,
0010
0000
1000
0000
0001
0000
0100
0000
0010
0000
0100
0000
0001
0000
1000
0000
0010
0000
0M00
0000
0000
0000
0000
0000
0000
0M00
0000
0000
0000
0000
0000
0000
0M00
0000
0000
0000
0000
0000
0000
0000
0000
0000
0000
0000
0000
0000
0000
0000
0000
0000
0000
0000
0000
0000
0000
0000
0000
0000
0000
0000
0000
0000
0000
0000
;
