#TITLE:Yellow Supernova (Imil Remix);
#SUBTITLE:;
#ARTIST:Sunhiausa;
#TITLETRANSLIT:;
#SUBTITLETRANSLIT:;
#ARTISTTRANSLIT:;
#CREDIT:Rynker;
#BANNER:../Tachyon Delta-bn.png;
#BACKGROUND:../Tachyon Delta-bg.png;
#LYRICSPATH:;
#CDTITLE:;
#MUSIC:Sunhiausa - Yellow Supernova (Imil Remix).ogg;
#OFFSET:0.004;
#SAMPLESTART:31.274;
#SAMPLELENGTH:12.000;
#SELECTABLE:YES;
#BPMS:0.000=245.000;
#STOPS:;
#BGCHANGES:;
// cache tags:
#FIRSTBEAT:32.000;
#LASTBEAT:532.500;
#SONGFILENAME:Songs/Tachyon Delta/Yellow Supernova (Imil Remix) - [Rynker]/yellow supernova.sm;
#HASMUSIC:1;
#HASBANNER:1;
#MUSICLENGTH:132.979;
// end cache tags

//---------------dance-single - Rynker----------------
#NOTES:
     dance-single:
     Rynker:
     Challenge:
     17:
     1.000,1.000,0.128,0.211,0.861,929.000,17.000,28.000,1.000,0.000:

0000
0000
0000
0000
,
0000
0000
0000
0000
,
0000
0000
0000
0000
,
0000
0000
0000
0000
,
0000
0000
0000
0000
,
0000
0000
0000
0000
,
0000
0000
0000
0000
,
0000
0000
0000
0000
,
1001
0000
0001
0000
,
0100
0010
1000
0001
,
0100
0000
0000
0001
0010
0000
0100
0000
,
1000
0001
0100
0010
,
1000
0000
0000
0001
0100
0000
0010
0000
,
1000
0001
0100
0001
,
0010
0000
0000
0100
1000
0000
0100
0000
,
0010
0001
1000
0001
,
0100
0000
0000
0010
1000
0000
0010
0000
,
0100
0001
0010
0100
,
1000
0000
0000
0001
0100
0000
0001
0000
,
0100
0010
1000
0001
,
0100
0000
0000
0010
1000
0000
0010
0000
,
0100
0001
0010
0100
,
1000
0000
0000
0100
0010
0000
0001
0000
,
1000
0000
0100
0000
0010
0100
0010
0100
,
1000
0001
0010
0100
1000
0001
0100
0010
,
1000
0000
0010
0000
0100
0000
0001
0000
0010
0000
0100
0000
1000
0000
0010
0100
,
0010
0100
0001
0010
0100
1000
0001
1000
,
0010
0000
0100
0000
0001
0000
1000
0000
0001
0100
0001
0100
0001
0100
0001
0100
,
0001
1000
0100
0010
0001
0100
0010
0100
,
0001
0000
0010
0000
0100
0000
1000
0000
0001
0000
1000
0100
1000
0000
0100
1000
,
0100
0010
0001
0100
0010
0100
0001
1000
,
0001
1001
1000
1000
,
0001
1000
0001
0100
0010
0100
0001
1000
0001
0000
0100
0000
0010
0000
0100
0000
,
0001
0000
1000
0000
0100
0000
0010
0000
0001
0000
1000
0000
0001
0000
0100
0001
,
0100
0001
1000
0100
0010
0001
1000
0001
,
0100
0000
0010
0000
1000
0000
0001
0000
0010
0100
1000
0100
0010
0001
1000
0001
,
1000
0010
0100
0001
1000
0100
0010
0001
,
1000
0000
0001
0000
0100
0000
0010
0000
1000
0000
0010
1000
0010
0000
1000
0001
,
1000
0100
0010
0001
1000
0001
0100
0010
,
0100
0000
0010
0000
1000
0000
0001
0000
0020
0000
0000
0000
0031
1000
0001
1000
,
0010
0100
0010
1000
0001
0100
0010
0100
0001
1000
0100
0010
0001
1000
0001
0010
,
0100
0010
0001
1000
0001
0100
0010
0100
0010
1000
0001
0100
0010
0100
0001
1000
,
0010
1000
0010
0100
0010
1000
0001
1000
0100
0010
0100
1000
0001
0010
0100
0010
,
0001
1000
0001
0100
0010
0100
0001
1000
0001
0000
0000
0000
0001
0000
0000
0000
,
1000
0001
0010
0100
0010
0100
1000
0001
1000
0001
0100
0010
0100
0010
1000
0001
,
0100
0010
1000
0010
0100
0001
1000
0100
0010
0001
1000
0001
0100
0010
1000
0001
,
0100
0001
1000
0001
0010
0100
0010
0001
1000
0001
0010
0100
0010
0100
1000
0001
,
0100
0001
0100
0010
1000
0010
0100
0001
2000
0000
0000
0000
0000
3000
0000
0000
,
0001
0100
0010
1000
0001
0010
0100
1000
0100
0010
0001
1000
0001
0100
0010
1000
,
0010
0100
0001
1000
0100
0010
0100
1000
0001
0010
0100
0010
0001
1000
0001
0100
,
0010
1000
0010
0100
0010
0100
0001
1000
0001
0100
0010
0100
0001
1000
0100
0010
,
0100
1000
0001
0100
0001
1000
0100
0010
0001
0000
0000
0000
0000
0000
0000
0000
,
1000
0100
0010
0001
0010
0100
1000
0001
,
0100
0010
1000
0010
0100
0001
1000
0001
,
0100
0010
1000
0001
,
0010
0100
1000
0000
,
0001
0000
0000
0100
0001
0000
0010
0000
,
0100
0000
1000
0000
0010
0000
0100
0001
,
0010
0000
0000
0100
1000
0000
0010
0000
,
0100
0000
0001
0000
0010
0000
0100
1000
,
0001
0000
0000
1000
0010
0000
0100
0000
,
0001
0000
0100
0000
0010
0000
1000
0100
,
0010
0000
0000
0001
0100
0000
0010
0000
,
1000
0000
0001
0000
0100
0000
0010
1000
,
0001
0000
0101
0001
,
0010
0000
0100
0000
1100
0000
1000
0010
,
0100
0000
0000
0001
0010
0000
0100
0000
,
1000
0000
0001
0000
0100
0000
0010
1000
,
0001
0000
0000
1000
0001
0000
0010
0000
,
0100
0000
1000
0000
1001
0000
0001
0100
,
0010
0000
0000
1000
0100
0000
0010
0000
,
0001
0000
1000
0000
0010
0000
1000
0001
,
0200
0000
0000
0000
,
0000
0000
0000
0000
,
0000
0000
0000
0000
,
0000
0000
0000
0000
0000
0000
0000
0000
0300
0M00
0000
0000
0000
0000
0000
0000
,
0010
1000
0100
0010
0100
1000
0001
1000
,
0010
0100
0010
1000
0001
0010
0100
1000
,
0001
1000
0010
0100
0001
0100
0010
1000
,
0100
0000
0010
0000
0100
0000
1000
0000
0001
0000
1000
0000
0010
0000
1000
0010
,
1000
0001
0100
0010
1000
0100
0010
0100
,
1000
0000
0010
0000
0100
0000
0001
0000
1000
0010
0100
0010
1000
0001
1000
0001
,
1000
0001
0010
0100
1000
0100
0010
0001
,
0100
0001
1000
0010
0100
0001
1000
0000
0001
0010
0100
0010
0001
1000
0001
1000
,
0001
0100
0010
1000
0100
0010
0100
1000
,
0001
0000
0100
0000
0010
0000
0100
0000
0001
0000
1000
0000
0100
0000
0010
0001
,
0010
0100
1000
0001
0100
0010
1000
0100
,
0010
0000
0100
0000
1000
0000
0010
0000
0100
0000
0001
0000
0010
0001
0010
0001
,
1000
0010
0100
0001
0010
0100
0010
0001
,
1000
0010
0100
0001
1000
0100
0010
0001
,
1000
0001
0100
0010
1000
0001
1000
0010
0100
0001
1000
0100
0010
0001
1000
0001
,
0010
0000
0100
0000
1001
0000
1000
0001
,
0202
0303
0202
0303
,
0202
0000
0000
0000
0303
0000
0000
0000
1000
0010
0100
0001
1000
0001
0010
0001
,
2000
3000
2200
3300
,
2200
0000
3300
0000
0022
0033
0022
0033
,
2002
3003
0202
0303
,
2020
3030
0022
0033
,
0001
0100
0010
1000
0001
1000
0001
1000
,
0002
0003
0000
0000
0000
0000
0000
0000
,
1000
0100
0010
0001
1000
0001
1000
0001
0010
0100
1000
0100
0010
0001
1000
0001
,
0010
0100
1000
0001
0100
0010
0100
0010
1000
0001
0100
0010
0100
0001
1000
0010
,
0100
0010
1000
0001
0010
0100
0010
0001
1000
0100
0010
0001
1000
0100
1000
0001
,
1000
0001
1000
0010
0100
0010
1000
0001
0100
0010
0100
0010
1000
0001
0100
0010
,
1000
0001
0100
0010
0100
0001
1000
0100
0010
0001
1000
0100
1000
0001
0010
0001
,
1000
0010
0100
0010
1000
0001
1000
0001
1000
0000
0000
0000
0000
0000
0000
0000
,
0001
0100
0010
1000
0001
0000
0000
0000
1000
0100
0010
0001
1000
0000
0000
0000
,
0001
0100
0010
1000
0001
0100
0010
0100
0001
1000
0010
0100
0001
1000
0010
0100
,
0001
0100
0010
1000
0001
0010
0100
0010
0001
1000
0001
0010
0100
0010
0001
1000
,
0001
0100
0010
1000
0010
0100
0001
1000
0001
1000
0001
0100
0001
0100
0010
1000
,
0040
0000
0000
0000
0030
0000
0100
0010
4000
0000
0000
0000
3000
0000
0000
0000
,
0001
0010
0100
0010
0001
1000
0100
0010
0001
0000
0000
0000
1000
0000
0000
0000
,
0001
0100
0010
1000
0010
0100
0001
1000
0010
0100
0010
1000
0001
0100
0001
1000
,
0100
0010
0001
1000
0100
1000
0001
0010
0100
0010
0100
1000
0001
1000
0001
1000
,
0001
1000
0001
1000
,
0010
0000
0000
0000
0100
0000
0000
0000
0001
0100
0010
1000
0001
1000
0001
1000
,
0001
0000
0000
1000
0100
0000
0010
0000
,
0001
0000
0100
0000
0010
0000
1000
0001
,
0100
0000
0000
0001
0010
0000
0100
0000
,
1000
0000
0001
0000
0100
0000
0010
1000
,
0001
0000
0000
0100
0001
0000
0010
0000
,
0100
0000
1000
0000
0001
0000
0100
0010
,
1000
0000
0000
0010
0100
0000
0001
0000
,
0010
0000
0100
0000
1000
0000
0001
0010
,
0100
0000
0000
1000
0010
0000
0100
0000
,
0001
0000
0010
0000
0001
0000
0100
0001
,
0100
0000
0000
0010
0100
0000
0001
0000
,
0010
0000
0001
0000
0100
0000
0010
1000
,
0001
0000
0000
0100
0001
0000
0010
0000
,
0100
0000
1000
0000
0010
0000
0100
0001
,
0010
0000
0000
0001
1000
0000
0100
0000
,
0010
0000
0001
0000
1000
0000
0100
1000
,
0002
0000
0000
0000
,
0000
0003
0000
0000
0000
0000
0000
0000
;
