#TITLE:Metropolis Zone;
#SUBTITLE:;
#ARTIST:Masato Nakamura;
#TITLETRANSLIT:;
#SUBTITLETRANSLIT:;
#ARTISTTRANSLIT:;
#CREDIT:;
#BANNER:banner.jpg;
#BACKGROUND:Metropolis Zone-bg.jpg;
#LYRICSPATH:;
#CDTITLE:../CDTitleOV1.png;
#MUSIC:Sonic The Hedgehog 2 - Metropolis Zone.ogg;
#OFFSET:-0.018;
#SAMPLESTART:44.412;
#SAMPLELENGTH:29.999;
#SELECTABLE:YES;
#BPMS:0.000=137.084;
#STOPS:;
#BGCHANGES:0.000=Metropolis Zone.jpg=1.000=0=0=1,
99999=-nosongbg-=1.000=0=0=0 // don't automatically add -songbackground-
;
// cache tags:
#FIRSTBEAT:0.000;
#LASTBEAT:207.000;
#SONGFILENAME:Songs/owenviau1 Simfiles 07_final/Metropolis Zone - [owenviau1] v1.0.0/Metropolis Zone.sm;
#HASMUSIC:1;
#HASBANNER:1;
#MUSICLENGTH:90.859;
// end cache tags

//---------------dance-single - ----------------
#NOTES:
     dance-single:
     :
     Medium:
     8:
     0.571,0.513,0.066,0.264,0.160,333.000,6.000,24.000,0.000,0.000:
0000
0000
0000
0000
,
0000
0000
0000
0000
,
1000
0100
1000
0100
0001
0100
0001
0100
,
1000
0010
1000
0010
0001
0010
0001
0010
,
1000
0000
0000
0000
1001
0000
0000
0000
1000
0000
1000
0000
0000
0000
0001
0100
,
0001
0200
0000
0020
0000
0000
0330
0000
,
1000
0000
0000
0000
0001
0000
0000
0000
0100
0000
0010
0000
0000
0000
1000
0001
,
1000
0001
0000
0100
0000
0010
1000
0010
,
2000
0000
0000
0000
0010
0000
0000
0000
0100
0000
3100
0000
0000
0000
0010
0001
,
0010
0010
0000
0100
1000
0001
0100
0010
,
1000
0000
0000
0000
1001
0000
0000
0000
0001
0000
0100
0000
0000
0000
0010
1000
,
0010
0100
0000
0001
0000
1000
0100
1000
,
0200
0000
0000
0000
0310
0000
0000
0000
0001
0000
0100
0000
0000
0000
0010
1000
,
0010
0200
0000
0301
1000
0010
0100
0001
,
0200
0000
0000
0000
0310
0000
1000
0000
0100
0000
0010
0000
0001
0000
1000
0010
,
1000
0020
0000
0130
0001
0100
0010
0100
,
0020
0000
0000
0000
1030
0000
0000
0000
0001
0000
0100
0000
0010
0000
1000
0010
,
1000
0002
0000
0103
0010
1000
0010
0100
,
0002
0000
0000
0000
1003
0000
0010
0000
0100
0000
0001
0000
1000
0000
0001
0100
,
0010
2000
0000
3001
0000
0100
0100
0100
,
0001
0100
1000
0100
0001
0010
0100
1000
,
0001
0010
1000
0010
0001
0100
0010
1000
,
0100
0000
0100
0000
0010
0000
0000
0001
0000
0000
0100
0000
0010
0000
1000
0000
,
1000
0000
1000
0000
0010
0000
0000
0100
0000
0000
0001
0000
0010
0000
0000
0000
,
0100
1000
0100
0001
0100
1000
0001
0010
,
0100
1000
0100
0001
1000
0010
0001
1000
,
0010
0000
0010
0000
0100
0001
0100
0001
0000
0000
0000
0000
1000
0000
0000
0000
,
0020
0000
0000
0030
,
0010
0000
0000
0000
1001
0000
0000
0000
1000
0000
0001
0000
0100
0000
0010
1000
,
0010
0100
0000
0100
0001
0100
0010
1000
,
0100
0000
0000
0000
0110
0000
0000
0000
0010
0000
0001
0000
0100
0000
0010
1000
,
0010
0100
0000
0001
0100
0010
1000
0100
,
0200
0000
0000
0000
0320
0000
0000
0000
0130
0000
0100
0000
0000
0000
1000
0001
,
1000
0010
0000
0100
0001
0100
0010
1000
,
0001
0000
0000
0000
0011
0000
0000
0000
0100
0000
0100
0000
0000
0000
1000
0001
,
1000
0020
0000
0130
0000
0001
0100
0001
,
0200
0000
0000
0000
0310
0000
0000
0000
1000
0000
1000
0000
0000
0000
0010
0100
,
0010
1000
0000
0020
0000
1030
0100
1000
,
0200
0000
0000
0000
0310
0000
0001
0000
0010
0000
0001
0000
0100
0000
0010
1000
,
0010
0200
0000
0301
0000
0010
1000
0010
,
2000
0000
0000
0000
3001
0000
0000
0000
0100
0000
0100
0000
0000
0000
0010
1000
,
0010
0200
0000
0301
0000
0100
0010
1000
,
0020
0000
0000
0000
0130
0000
0001
0000
0010
0000
0001
0000
0100
0000
0010
1000
,
0010
0100
0000
0001
0000
0100
0010
1000
,
0001
0100
1000
0100
0001
1000
0010
0100
,
0001
1000
0100
0001
0100
1000
0001
0100
,
0010
0000
0100
0000
0010
1000
0010
1000
0000
0000
0000
0000
1000
0001
0000
0000
,
0100
0000
0010
0000
1000
0010
1000
0010
0000
0000
0000
0000
1000
0001
0000
0000
,
1000
0010
0100
0001
1000
0100
0010
0001
,
0100
0010
1000
0100
0001
0100
1000
0001
,
0100
0000
0100
0000
0010
1000
0010
1000
0000
0000
0000
0000
0001
1000
0000
0000
,
2002
0000
0000
3003
;

//---------------dance-single - ----------------
#NOTES:
     dance-single:
     :
     Hard:
     11:
     0.858,0.940,0.099,0.770,0.600,467.000,9.000,70.000,0.000,0.000:
0000
0000
0000
0000
,
0000
0000
0000
0000
,
2000
0000
3200
0000
2300
0000
3200
0000
2300
0000
3200
0000
2300
0000
3001
0100
,
0020
2030
3020
2030
3020
1030
0010
0100
,
0101
0000
0000
0000
1001
0000
0000
0000
0010
0000
0001
0000
0010
0000
0001
1000
,
0010
0100
0000
0110
0000
1000
0001
0100
,
0010
0000
0000
0000
1010
0000
0000
0000
1000
0000
0001
0000
0100
0000
0010
1000
,
0100
0010
0000
0011
0000
0001
0100
0010
,
2000
0000
0000
0000
3020
0000
0000
0000
0130
0000
0001
0000
0100
0000
0010
1000
,
0001
0010
0000
0110
0000
1000
0001
0100
,
0010
0000
0000
0000
1100
0000
0000
0000
0001
0000
0100
0000
0010
0000
1000
0001
,
0100
0010
1000
0100
0010
0002
0203
0320
,
2030
0000
3010
0000
0200
0000
0301
0000
0010
0000
0010
0000
0100
0000
1000
0010
,
1000
1000
0100
0010
0001
0200
0320
0230
,
0320
0000
0000
0000
2030
0000
3200
0000
0320
0000
0032
0000
1003
0000
0001
0010
,
0100
0000
0010
0000
0100
0000
1000
0000
1000
0001
2000
0000
3020
0000
2030
0000
,
3020
0000
0000
0000
0230
0000
0000
0000
0301
0000
0010
0000
0001
0000
0100
0010
,
1000
1000
0010
0100
0001
0200
0320
2030
,
3020
0000
0000
0000
0230
0000
0302
0000
0203
0000
0320
0000
1030
0000
0100
0001
,
0100
0010
1000
0010
1000
0010
0010
0010
,
1000
0100
0010
0001
0010
0100
1000
0001
0100
0010
1000
0100
0010
0001
0100
0010
,
1000
0010
0100
0001
0010
0001
0100
0010
1000
0100
0010
0001
0010
0100
1000
0001
,
1000
0000
1000
0000
0001
0100
0010
2000
0000
0000
3010
0000
0100
0001
0100
0001
,
0100
0000
0010
0000
1000
0001
0100
0002
0000
0000
1003
0000
0001
1000
0000
0000
,
0001
0010
0100
1000
0100
0010
0001
0100
0010
1000
0100
0010
0001
0010
0100
1000
,
0001
0100
0010
1000
0100
0010
0001
0010
0100
1000
0001
0100
0010
1000
0001
1000
,
0001
0000
1001
0000
1000
0010
0100
0002
0000
0000
0103
0000
0010
1000
0001
0000
,
2002
0000
0000
3003
,
1000
0000
0100
0000
1000
0000
0010
0000
0100
0000
0100
0000
0001
0000
0100
0010
,
0100
0100
0010
0100
0001
0010
0100
1000
,
0100
0000
0010
0000
0001
0000
0100
0000
0010
0000
0010
0000
0100
0000
0001
0100
,
0010
0000
0010
0000
1000
0000
0010
0000
0100
0001
0100
0000
0010
0000
1000
0000
,
0020
0000
0000
0000
0230
0000
0000
0000
0301
0000
0010
0000
0001
0000
1000
0010
,
0100
0100
0001
0100
0010
1000
0010
0100
,
0001
0000
0010
0000
0100
0000
1000
0000
0100
0000
0100
0000
0010
0000
0001
1000
,
0010
0010
0100
0001
1000
0002
0203
0320
,
2030
0000
0000
0000
3002
0000
0000
0000
1003
0000
1000
0000
0001
0000
0100
0010
,
0100
0010
1000
0001
1000
0001
0100
0001
,
0200
0000
0000
0000
0310
0000
1000
0000
0020
0000
0000
0000
0130
0000
1000
0100
,
0010
0000
0010
0000
0001
0000
0010
0000
0100
1000
0200
0000
0320
0000
0032
0000
,
0023
0000
0000
0000
0230
0000
0000
0000
1000
0000
1300
0000
0100
0000
0010
0001
,
0010
0010
0100
0010
0001
0200
0320
2030
,
3020
0000
0000
0000
0230
0000
0302
0000
0023
0000
0032
0000
0103
0000
0100
0010
,
1000
1000
0001
0100
0100
0010
0100
0001
,
0010
0100
1000
0001
0100
0010
1000
0100
0010
0001
1000
0100
0010
0100
1000
0001
,
0100
0010
1000
0100
0010
0100
1000
0001
0100
0010
1000
0100
0010
0001
0100
0010
,
1000
0000
0001
0000
0001
0100
0010
2000
0000
0000
3001
0000
0100
0010
1000
0000
,
0010
0000
0100
0000
0100
0001
0100
0020
0000
0000
1030
0000
1000
0001
0100
0000
,
0010
1000
0100
0010
0001
0010
0100
1000
0001
0100
0010
1000
0100
0010
0001
0100
,
0010
1000
0100
0010
0100
1000
0001
0100
0010
1000
0100
0010
0001
0100
0010
1000
,
0001
0000
0001
0000
0001
0100
0010
2000
0000
0000
3001
0000
0100
0010
1000
0000
,
1000
0010
0100
0001
1000
0010
0100
0001
0100
0010
1000
0100
0010
0000
0000
0000
;

//---------------dance-single - ----------------
#NOTES:
     dance-single:
     :
     Challenge:
     15:
     1.000,1.000,0.869,0.077,1.000,818.000,79.000,7.000,0.000,0.000:
1000
0000
0100
0000
0011
0000
0001
0000
0100
0000
0100
0000
1010
0000
1000
1000
,
0010
0000
0100
0000
0101
0000
0010
0000
1000
0000
0100
0000
0110
0000
0010
0010
,
0001
0000
0100
0000
0010
0000
1000
0000
0100
0000
0010
0000
0001
0000
0010
0000
0100
0000
1000
0000
0001
0000
0100
0000
0010
0000
1000
0000
0100
0000
0010
0000
0001
0000
0010
0000
0100
0000
1000
0000
0001
0000
1000
0000
0000
1000
0000
0000
,
0001
0100
0010
1000
0100
0010
0001
0010
0100
1000
0000
0001
0100
0010
1000
1010
0000
0000
0110
0000
0000
0101
0000
0000
,
0011
0000
0010
0000
0110
0000
0100
0000
1100
0000
1010
0000
0010
0000
0100
0100
,
0001
0101
0001
0101
0010
1010
1010
1010
,
1010
0000
1000
0000
1001
0000
0001
0000
0101
0000
0101
0000
0010
0000
0001
0001
,
0010
0000
0011
0000
0100
0000
1000
0001
0010
0000
0011
0000
0011
0000
0001
0000
,
0100
0010
1000
0001
0010
0100
1000
0100
0010
0001
1000
0010
0100
0001
1000
0100
0010
0001
1000
0100
0010
0001
0010
0100
1000
0001
0100
0010
1000
0100
0010
0001
,
0100
0010
1000
0100
0010
0001
0010
0100
1000
0001
0010
0100
1000
0100
0010
0001
1000
0010
0100
0001
0010
0001
1000
0100
0010
0001
0010
0100
1000
0001
0100
0010
,
1000
0000
0010
0000
1010
0000
1000
0000
1010
0000
0101
0000
0100
0000
0001
0001
,
0100
0000
0000
0000
0110
0000
0000
0000
0010
0000
0000
0000
1010
0000
0000
0000
1000
0000
0000
0000
0010
0100
0001
0100
0010
1000
0010
0100
0001
0010
0100
1000
,
0100
0010
0001
0010
0100
1000
0001
0100
0010
1000
0010
0100
0010
0000
0000
0000
0110
0000
0000
0000
0110
0000
0000
0000
0010
0000
0000
0000
1000
0000
1000
0000
,
0010
0000
0000
0000
0110
0000
0000
0000
0100
0000
0000
0000
0110
0000
0000
0000
0010
0000
0000
0000
1000
0100
0010
0001
0010
0100
1000
0100
0010
0001
0100
0010
,
1000
0010
0100
0001
0100
0010
1000
0001
0010
0100
1000
0100
0010
0001
0010
0100
1000
0010
0100
0001
0100
0000
0000
0000
1010
0000
0000
0000
0001
0000
0001
0000
,
0100
0000
0000
0000
0010
0000
0000
0000
1000
0000
0000
0000
1010
0000
0000
0000
1000
0000
0001
0000
0100
0010
1000
0100
0010
0001
0010
0100
1000
0001
0100
0010
,
1000
0100
0010
0001
0010
0100
1000
0001
0100
0010
1000
0100
0010
0000
0000
0000
0011
0000
0000
0000
0011
0000
0000
0000
0001
0000
0000
0000
0100
0000
0100
0000
,
0010
0000
0000
0000
0110
0000
0000
0000
0010
0000
0000
0000
1010
0000
0000
0000
1000
0000
0000
0000
0001
0010
0100
1000
0100
0010
0001
0100
0010
1000
0100
0010
,
0001
0010
0100
1000
0001
0100
0010
1000
0100
0010
0001
0100
0010
0001
0010
0100
0001
1000
0010
0100
0001
0100
0010
1000
0010
0000
0000
0000
0100
0000
0100
0000
,
0001
0101
0010
1010
1000
0010
0010
0010
,
1000
0100
0010
0001
0010
0100
1000
0001
0100
0010
1000
0100
0010
0001
0100
0100
,
0010
1000
0100
0010
0001
0010
0100
1000
0001
0100
0010
1000
0100
0010
0001
0100
,
1001
0000
1001
0000
0001
0100
0010
2000
0000
0000
3010
0000
0100
0000
0001
0001
,
0100
0000
0010
0000
1000
0001
0100
0020
0000
0000
0000
0000
1000
1030
0000
0000
,
0001
0010
0100
1000
0100
0010
0001
0100
0010
1000
0100
0010
0001
0010
0100
0100
,
1000
0001
0100
0010
1000
0100
0010
0001
0010
0100
1000
0001
0100
0010
1000
0001
,
1001
0000
1001
0000
1000
0010
0100
0002
0000
0000
0103
0000
0010
1000
0001
0000
,
1000
0100
0010
0001
1000
0100
0010
0001
1000
0100
0010
0001
1000
0100
0010
0001
,
1001
0000
0001
0000
0101
0000
0010
0000
1010
0000
1010
0000
0100
0000
0001
0001
,
0100
0110
0010
1010
1000
0010
0100
0001
,
1000
0000
0001
0000
1001
0000
1000
0000
1001
0000
1001
0000
0001
0000
0001
0001
,
0010
0110
0100
1100
1000
0001
0100
0010
,
1000
0100
0010
0001
1000
0100
0010
0100
1000
0001
0100
0010
1000
0100
0010
0001
0010
0100
1000
0001
0100
0010
1000
0100
0010
0001
0010
0100
1000
0001
0100
0010
,
1000
0100
0010
0001
0010
0100
1000
0001
0100
0010
1000
0100
0010
0001
0100
0010
1000
0001
0100
0010
1000
0100
0010
0001
0010
0100
1000
0001
0100
0010
1000
0100
,
0010
0000
0001
0000
0011
0000
0010
0000
0110
0000
1100
0000
1000
0000
0001
0001
,
0010
0000
0000
0000
0011
0000
0000
0000
0001
0000
0000
0000
0011
0000
0000
0000
0000
0000
0000
0000
0001
0100
0010
1000
0100
0010
0001
0010
0100
1000
0001
0100
,
0010
1000
0100
0010
0001
0100
0010
1000
0100
0010
0100
1000
0001
0000
0000
0000
1001
0000
0000
0000
1001
0000
0000
0000
0001
0000
0000
0000
0100
0000
0100
0000
,
0010
0000
0000
0000
1010
0000
0000
0000
1000
0000
0000
0000
1001
0000
0000
0000
0001
0000
0000
0000
0200
0310
1000
0100
0010
0001
0010
0100
1000
0001
0100
0010
,
1000
0100
0010
0001
0100
0010
1000
0001
0010
0001
1000
0100
1000
0001
0100
0010
1000
0001
0100
0010
1000
0001
0100
0010
0100
0000
0000
0000
1000
0000
1000
0000
,
0100
0000
0000
0000
1100
0000
0000
0000
0010
0000
0000
0000
0011
0000
0000
0000
1000
0000
0001
0000
0100
0010
1000
0100
0010
0001
0010
0100
1000
0001
0100
0010
,
1000
0100
0010
0001
0100
0010
1000
0001
0100
0010
1000
0100
1000
0000
0000
0000
1100
0000
0000
0000
1100
0000
0000
0000
1000
0000
0000
0000
1000
0000
1000
0000
,
0100
0000
0000
0000
1100
0000
0000
0000
0100
0000
0000
0000
0110
0000
0000
0000
0010
0000
0000
0000
0001
0100
0010
1000
0100
0010
0001
1000
0100
0010
0100
1000
,
0001
0100
0010
1000
0100
0010
0001
0010
0100
1000
0001
0100
0010
1000
0100
0010
0001
0100
0010
1000
0001
0100
0010
1000
0010
0000
0000
0000
0100
0000
0100
0000
,
0010
1010
1000
1001
0101
0001
0001
0100
,
0010
1000
0001
0100
0010
1000
0100
0010
0001
0100
0010
1000
0001
0100
0010
1000
,
0001
0100
0010
1000
0100
0010
0001
0010
0100
1000
0001
0100
0010
1000
0100
0010
,
0011
0000
0011
0000
0001
0100
0010
2000
0000
0000
3001
0000
0100
0010
1000
0000
,
1010
0000
0110
0000
0100
0001
0100
0020
0000
0000
1030
0000
1000
0001
0100
0000
,
0010
1000
0100
0010
0001
0010
0100
1000
0001
0100
0010
1000
0100
0010
0001
0100
,
0010
1000
0100
0010
0100
1000
0001
0100
0010
1000
0100
0010
0001
0100
0010
1000
,
1001
0000
1001
0000
0001
0100
0010
2000
0000
0000
3001
0000
0100
0010
1000
0000
,
1000
0010
0100
0001
1000
0010
0100
0001
0100
0010
1000
0100
0010
0000
0000
0000
;
