#TITLE:gentle stress;
#SUBTITLE:;
#ARTIST:DJ Swan;
#TITLETRANSLIT:;
#SUBTITLETRANSLIT:;
#ARTISTTRANSLIT:;
#CREDIT:;
#BANNER:Gentle Stress.png;
#BACKGROUND:Gentle Stress-bg.png;
#LYRICSPATH:;
#CDTITLE:!toph-cdtitle.png;
#MUSIC:DJ Swan - Gentle Stress.mp3;
#OFFSET:-0.294;
#SAMPLESTART:52.350;
#SAMPLELENGTH:11.000;
#SELECTABLE:YES;
#BPMS:0.000=175.000;
#STOPS:;
#BGCHANGES:;
// cache tags:
#FIRSTBEAT:8.000;
#LASTBEAT:283.000;
#SONGFILENAME:Songs/Keyboard Collaboration II/Toph - Gentle Stress/Gentle Stress.sm;
#HASMUSIC:1;
#HASBANNER:1;
#MUSICLENGTH:104.078;
// end cache tags

//---------------dance-single - ----------------
#NOTES:
     dance-single:
     :
     Hard:
     11:
     1.000,1.000,1.000,0.010,0.187,520.000,226.000,1.000,0.000,0.000:  // measure 1
0000
0000
0000
0000
,  // measure 2
0000
0000
0000
0000
,  // measure 3
1100
0000
0011
0000
0100
0100
0011
0000
,  // measure 4
1000
1000
0110
0000
1000
1000
0101
0000
,  // measure 5
1010
1000
0101
0000
1000
1000
0101
0000
,  // measure 6
0010
0010
0101
0000
0010
0101
0010
0101
,  // measure 7
1010
0010
1100
0000
0001
0001
1100
0000
,  // measure 8
0100
0100
1010
0000
0001
0001
1100
0000
,  // measure 9
0011
0001
1100
0000
0010
0010
1100
0000
,  // measure 10
0101
0010
1100
0000
0010
1100
0010
1100
,  // measure 11
0101
0000
1010
0000
0001
1000
0110
0000
,  // measure 12
1000
0100
0011
0000
0001
0100
1010
0000
,  // measure 13
1001
0010
0101
0000
0010
1000
0101
0000
,  // measure 14
0010
0100
1001
0000
1000
0011
0100
0011
,  // measure 15
1100
0001
0110
0000
1000
0001
1100
0000
,  // measure 16
0001
1000
0101
0000
0010
1000
0110
0000
,  // measure 17
0101
1000
0110
0000
0001
0010
1100
0000
,  // measure 18
0001
1000
0110
0000
0010
0101
0010
1100
,  // measure 19
0011
0000
0100
0000
1100
0000
0001
0100
0010
0000
1000
0000
1100
0000
0010
0000
,  // measure 20
0001
0000
0100
0000
0110
0000
0010
1000
0001
0000
1000
0000
1100
0000
0101
0000
,  // measure 21
0010
0000
1000
0000
0101
0000
0010
1000
0001
0000
0010
0000
1100
0000
0010
0000
,  // measure 22
0001
0000
0100
0000
1001
0000
0010
0100
0010
0000
1001
0000
0100
0000
1001
0000
,  // measure 23
0010
0000
0100
0000
0011
0000
0100
1000
0010
0000
0100
0000
1001
0000
0010
0000
,  // measure 24
0100
0000
0001
0000
1100
0000
0010
0001
0100
0000
0010
0000
1001
0000
0010
0000
,  // measure 25
1000
0000
0001
0000
1100
0000
0001
1000
0100
0000
0010
0000
0101
0000
0010
0000
,  // measure 26
1000
0000
0100
0000
1001
0000
0010
1000
0100
0000
1001
0000
0010
0000
0101
0000
,  // measure 27
1001
0000
0100
0000
0101
0000
0010
1000
0001
0000
0010
0000
0110
0000
1000
0000
,  // measure 28
0001
0000
0100
0000
0110
0000
1000
0001
0100
0000
0010
0000
1001
0000
0010
0000
,  // measure 29
0100
0000
0001
0000
1100
0000
0010
0001
0100
0000
0010
0000
1001
0000
0100
0000
,  // measure 30
0010
0000
1000
0000
0011
0000
0100
1000
0100
0000
0011
0000
1001
0000
1010
0000
,  // measure 31
1001
0000
0010
0000
0101
0000
0010
1000
0100
0000
0010
0000
1001
0000
0100
0000
,  // measure 32
0010
0000
1000
0000
1100
0000
0010
0001
1000
0000
0010
0000
0101
0000
0010
0000
,  // measure 33
1000
0000
0100
0000
0101
0000
0010
0100
1000
0000
0010
0000
0101
0000
0010
0000
,  // measure 34
1000
0000
0100
0000
0011
0000
0001
1000
0001
0000
0110
0000
1001
0000
0110
0000
,  // measure 35
0011
0001
1000
0000
0001
0001
1000
0000
,  // measure 36
0001
0001
1000
0000
0001
0001
1000
0000
,  // measure 37
1001
1001
0110
0110
0101
0101
1010
1010
,  // measure 38
1100
0011
0101
1100
1001
0000
0011
0000
,  // measure 39
0100
0100
0100
0000
1010
0000
0001
0001
1000
0000
0110
0000
0001
0000
1000
0000
,  // measure 40
0101
0000
0010
0000
1000
0000
0101
0000
1000
0100
0010
0000
0011
0000
0000
0000
,  // measure 41
0001
0001
0001
0000
1100
0000
0010
0010
0001
0000
0101
0000
0010
0000
1000
0000
,  // measure 42
0101
1000
1100
0101
0000
0010
1000
0100
,  // measure 43
0010
0010
0010
0000
1001
0000
0100
0100
0010
0000
1010
0000
1000
0000
0100
0000
,  // measure 44
0011
0000
0001
0000
1000
0000
0110
0000
1000
0001
0010
0000
1100
0000
0000
0000
,  // measure 45
0001
0001
0001
0000
1010
0000
0100
0100
0001
0000
1010
0000
1000
0000
0011
0000
,  // measure 46
1100
0000
1000
0000
0011
0000
0100
0010
1000
0100
0010
0000
0011
0000
0000
0000
,  // measure 47
0100
0100
0100
0000
0011
0000
0100
0000
1000
0000
0011
0000
0100
0000
0010
0000
,  // measure 48
1001
0000
0010
0000
0100
0000
0011
0000
0100
1000
0001
0000
0110
0000
0000
0000
,  // measure 49
1000
1000
1000
0000
0011
0000
0100
0000
0010
0000
1001
0000
0100
0000
0010
0000
,  // measure 50
1100
0000
0100
0000
0011
0000
1000
0000
0100
0000
0011
0000
0100
1000
0100
0000
,  // measure 51
0011
0001
0001
0000
1100
0000
1000
0000
1000
0000
0101
0000
0001
0000
0001
0000
,  // measure 52
1010
0000
1000
0000
0001
0000
1100
0000
0001
0100
0010
0000
1010
0000
0000
0000
,  // measure 53
1000
1000
1000
0000
0011
0000
0100
0000
1000
0000
0101
0000
0010
0000
1001
0000
,  // measure 54
0110
0000
0001
0000
1100
0000
0010
0001
0100
0010
1000
0000
1100
0000
0000
0000
,  // measure 55
1001
0101
1010
0011
1100
1001
0110
1010
,  // measure 56
0101
1100
1001
0011
0000
0001
0001
0000
,  // measure 57
1001
0101
0110
1001
1010
0101
0011
1100
,  // measure 58
1001
0110
1010
0101
0000
0100
0100
0000
,  // measure 59
0010
0000
0101
0000
1000
0010
1000
0000
,  // measure 60
0101
1000
0001
1100
0000
0010
1010
0000
,  // measure 61
0011
0101
1100
1010
1001
0101
1010
1100
,  // measure 62
0011
0000
0001
0000
1010
0000
0100
0001
1000
0100
0010
0000
1100
0000
0000
0000
,  // measure 63
0011
1010
0101
1001
0110
1010
0101
1001
,  // measure 64
0011
1010
1100
0110
0000
0010
0010
0000
,  // measure 65
0011
0101
1010
1100
1001
0110
1010
0101
,  // measure 66
0011
0110
0101
1010
0000
1000
1000
0000
,  // measure 67
0100
0000
0011
0000
1000
0010
1000
0000
,  // measure 68
0101
1000
0001
1100
0000
0010
0011
0000
,  // measure 69
1001
1001
0110
0110
1100
1100
0011
0011
,  // measure 70
0101
1010
1100
0101
1001
0000
0011
0000
,  // measure 71
0200
0000
0000
0300
;
