#TITLE:T-T-Techno;
#SUBTITLE:;
#ARTIST:S3rl;
#TITLETRANSLIT:;
#SUBTITLETRANSLIT:;
#ARTISTTRANSLIT:;
#CREDIT:;
#BANNER:../Banner.png;
#BACKGROUND:../BG.png;
#LYRICSPATH:;
#CDTITLE:../CDTitleBRAEDEN.png;
#MUSIC:T-T Techno S3RL.ogg;
#OFFSET:0.155;
#SAMPLESTART:68.918;
#SAMPLELENGTH:12.000;
#SELECTABLE:YES;
#BPMS:0.000=175.000;
#STOPS:;
#BGCHANGES:;
// cache tags:
#FIRSTBEAT:12.000;
#LASTBEAT:564.000;
#SONGFILENAME:Songs/Index Fusion - Part 2/TTTechno - [Braeden]/Techno.sm;
#HASMUSIC:1;
#HASBANNER:1;
#MUSICLENGTH:240.163;
// end cache tags

//---------------dance-single - ----------------
#NOTES:
     dance-single:
     :
     Challenge:
     17:
     0.968,1.000,0.192,0.125,1.000,1507.000,46.000,30.000,23.000,0.000:

0000
0000
0000
0000
,
0000
0000
0000
0000
,
0000
0000
0000
0000
,
1000
0100
1000
0100
0010
0001
0100
0010
,
1000
1000
0001
0100
0001
0100
0001
0010
,
0001
0100
0001
1000
0001
0010
0001
1000
,
0001
0010
0100
1000
0100
0010
0001
1000
,
0001
0100
0001
1000
0001
0010
0001
1000
,
0001
1002
0203
0320
,
1030
0100
0020
0000
0032
0000
0203
0000
,
0310
1000
0010
0100
0002
0000
0203
0000
,
0320
0000
2030
0000
3001
0100
0010
0000
,
1000
0001
0200
0000
0320
0000
2030
0000
,
3100
0010
0001
0010
0100
1000
0001
0000
,
0100
0010
2000
0000
3002
0000
0203
0000
,
0320
0000
2030
0000
3001
0010
0100
1000
,
0100
0000
0010
0000
0011
0000
0000
0000
0001
0000
0000
0100
0010
0000
1000
0000
,
1001
0000
0000
0000
1000
0000
0000
0000
1010
0000
0000
0010
0100
0000
0001
0000
,
0101
0000
0010
1000
0100
1000
0001
0100
,
0010
0000
1000
0001
1001
0000
0001
0100
,
0101
0000
0010
0000
1010
0000
1000
0001
,
1001
0000
0001
0010
0100
1000
0100
0010
,
0001
0100
0102
0000
0203
0000
0320
0000
,
2030
0000
3100
0000
00M0
000M
M000
0000
,
000M
1000
0010
0010
,
0100
0000
0000
0000
1000
0001
0100
0010
1000
0001
0010
0100
1000
0100
0010
0001
,
1000
0100
1000
0100
0010
0001
0100
0010
1000
0001
0010
0100
1000
0100
0010
0001
,
0100
0010
1000
0001
0100
0010
0100
0010
1000
0100
0010
0001
0010
0100
1000
0001
,
0010
0001
1000
0100
0010
0001
0010
0100
1000
0001
0100
0010
1000
0001
0010
0001
,
1000
0100
0010
0001
1000
0010
1000
0010
0100
0001
1000
0100
0010
0001
0010
0100
,
1000
0001
0100
0010
1000
0001
0010
0100
1000
0010
0100
0001
1000
0100
0010
0001
,
1000
0100
0010
0100
1000
0001
1000
0001
0100
0010
1000
0100
0010
0001
0010
0100
,
1000
0001
0100
0010
1000
0100
1000
0100
0010
0001
0100
0010
1000
0001
0010
0100
,
1000
0100
0010
0001
0100
0010
0100
0001
0010
0100
1000
0001
0010
0001
1000
0100
,
0010
0001
1000
0001
0100
0010
1000
0001
0100
0001
0100
0010
1000
0100
0010
0001
,
0010
0100
1000
0001
0100
0010
0100
0001
1000
0100
1000
0001
0100
0010
0100
0001
,
1000
0100
1000
0010
1000
0100
1000
0001
0100
0010
1000
0100
0010
0001
0010
0100
,
1000
0010
1000
0001
1000
0100
0010
0001
0010
0100
1000
0001
0100
0010
1000
0100
,
0010
0100
1000
0001
0010
0100
1000
0001
0100
0010
1000
0100
0010
0100
1000
0001
,
0010
0100
1000
0100
0010
0001
0100
0010
0100
0001
0010
0100
1000
0100
0010
0001
,
0010
0100
1000
0001
0100
0010
1000
0100
0010
0001
0010
0100
1000
0001
0100
0010
,
1000
0010
0100
0001
1000
0000
0000
0000
0010
0000
0000
0000
0010
0000
0100
0000
,
0001
0100
0010
0000
0010
0000
0010
1000
,
0100
1000
1010
0000
1010
0000
0101
0000
,
0101
0000
0000
0000
0001
0000
0001
0000
0100
0010
1000
0001
0010
0100
1000
0100
,
0010
0001
0100
0010
1000
0001
1000
0100
0010
0001
0010
0100
1000
0001
0100
0010
,
1000
0100
1000
0001
0010
0100
1000
0001
0100
0010
1000
0100
0010
0001
0010
0100
,
1000
0001
0100
0010
1000
0001
0010
0100
1000
0100
0010
0001
0100
0010
1000
0001
,
0010
0100
1000
0100
0010
0001
0100
0010
1000
0001
0010
0100
1000
0100
0010
0001
,
0100
0010
1000
0001
0100
0010
1000
0001
0010
0100
1000
0100
0010
0001
0100
0010
,
1000
0100
0010
0001
0010
0100
1000
0001
0100
0010
1000
0100
0010
0001
0010
0100
,
1000
0001
0100
0010
0100
0001
0010
0100
1000
0001
0010
0100
1000
0100
0010
0001
,
0100
0010
1000
0001
0010
0100
1000
0100
0010
0001
0100
0010
1000
0100
1000
0001
,
0100
0010
0100
0001
1000
0100
1000
0001
0100
0010
0100
0001
1000
0100
0010
0001
,
0010
0100
1000
0001
0010
0100
1000
0100
0010
0001
0100
0010
1000
0100
1000
0001
,
0100
0010
1000
0100
0010
0001
0010
0100
1000
0001
0100
0010
1000
0100
0010
0001
,
0010
0100
1000
0001
0100
0010
0100
0001
0010
0100
1000
0100
0010
0001
0100
0010
,
0100
0001
0010
0100
1000
0000
0000
0000
1000
0000
0000
0000
0001
0000
1000
0000
,
0000
0001
0010
0000
0100
0000
1000
0100
,
0000
1000
0100
0000
1000
0000
0001
1000
,
0000
0001
0100
0000
00M0
0M00
000M
0000
,
M000
0M00
00M0
000M
,
00M0
0M00
M000
000M
,
0000
0000
0000
0000
0000
0000
0001
1000
0100
0010
0001
0010
0100
1000
0001
0100
0010
1000
0100
0010
0001
0010
0100
1000
,
0001
0010
0100
1000
0001
0100
0010
1000
0100
0010
0001
0010
0100
1000
0001
0100
0010
1000
0100
0010
0001
1000
0100
0010
,
0100
1000
0001
0010
0100
1000
0001
0100
0010
1000
0100
0010
0001
0010
0100
1000
0001
0100
0010
1000
0100
0010
0001
0010
,
0100
1000
0001
0100
0010
1000
0100
0010
0001
0010
0100
1000
0001
0100
0010
1000
0100
0010
0001
0010
0100
1000
0001
0100
,
0010
1000
0100
0010
0001
0100
0040
0000
0000
0030
0000
0000
0040
0000
0000
0030
0000
0000
0040
0000
0000
1030
0000
0000
,
0100
0040
0030
0040
0034
0403
0340
0030
,
4000
3000
1004
0003
0004
0003
0004
0403
,
0340
4030
3010
0400
0304
0403
0340
0030
,
0040
0000
0000
0030
0000
0000
4000
0000
0000
3000
0040
0000
0000
0000
0430
0000
0000
0000
0301
0000
0000
0100
0000
0000
,
0010
4000
3010
0400
0304
0403
0340
0030
,
0040
0030
4000
3000
4001
3000
0004
0403
,
0340
4030
3001
0400
0340
4030
3400
0300
,
0400
0000
0000
0300
0000
0000
0040
0000
0000
0000
0034
0000
0000
0000
4003
0000
0000
0000
3040
0000
0000
0030
0000
0000
,
0400
0304
0003
4000
3040
0430
0304
0000
,
0203
0000
0300
0000
0001
0010
0100
1000
0100
0010
0001
0100
0010
1000
0010
0100
,
0001
1000
0010
0100
0001
0010
0100
1000
0100
0010
0001
0100
0010
1000
0100
0010
,
0001
0010
0100
1000
0100
0010
0001
0100
0001
1000
0100
0010
0001
0010
0100
1000
,
0001
0100
0010
1000
0001
0010
0100
1000
0100
0010
0001
1000
0100
0010
0100
1000
,
0001
0010
0100
1000
0001
0100
0010
1000
0100
0010
0001
0010
0100
1000
0001
0100
,
0010
1000
0100
0010
0100
1000
0001
0010
0100
1000
0001
0100
0010
1000
0100
0010
,
0100
1000
0001
0010
0100
1000
0001
0100
0010
1000
0001
0100
0010
1000
0100
0010
,
0100
1000
0001
0100
0001
0000
0100
0000
0010
0000
1000
0000
0010
0000
0100
0000
,
0001
0000
1000
0100
0010
0001
0010
0100
,
1000
0001
0100
0010
1000
0100
0010
0100
,
1000
0001
0010
0100
1000
0100
0010
0001
,
0100
0010
1000
0001
0100
0010
1000
0001
,
0010
0001
1000
0000
1001
0000
0000
0001
,
0101
0100
0010
0000
1010
0000
1000
0000
,
1001
0000
0101
0000
0100
0000
0010
0110
,
0010
1010
1000
0000
0000
0000
0002
0000
,
0203
0000
0000
0000
0310
1000
0010
0000
0100
0001
0100
0000
0010
1000
0010
0000
,
1000
0100
1000
0000
0001
0010
0001
0000
1000
0001
1000
0000
0010
1000
0010
0000
,
0100
0001
0100
0000
0010
1000
0100
0000
0010
0001
0010
0000
0100
1000
0001
0000
,
0100
0010
1000
0000
0100
0010
0001
0000
0010
0100
1000
0000
0001
0100
0010
0000
,
1000
0100
0010
0000
0100
1000
0001
0000
0100
0010
1000
0000
0001
0010
0100
0000
,
1000
0100
0010
0000
0001
0100
0010
0000
1000
0100
0010
0000
0100
1000
0001
0000
,
1000
0010
0100
0000
0001
0000
0100
0010
1000
0000
0001
0010
0100
0000
1000
0100
,
0010
0000
0001
0100
0010
0000
1000
0001
0100
0000
0010
1000
0001
0000
0100
0010
,
1000
0000
0001
1000
0010
0000
0100
0000
0101
0000
0100
0010
1000
0000
0100
0000
,
0110
0000
0010
0000
0011
0000
0001
0000
0100
0000
0010
1000
0001
0000
0100
0000
,
0110
0000
0010
0000
1010
0000
1000
0000
0001
0000
0100
0010
1000
0000
0100
0000
,
0110
0000
0010
0000
0011
0000
0001
0000
0100
0000
0010
1000
0100
0000
0010
0000
,
0011
0000
0001
0000
1001
0000
1000
0000
0010
0000
0100
0001
1000
0000
0100
0000
,
0110
0000
0010
0000
1001
0000
1000
0000
0100
0000
0010
0001
0100
0000
0010
0000
,
1010
0000
1000
0000
1001
0000
0010
0000
0100
0000
1000
0001
1000
0000
0100
0000
,
0010
0001
1000
0000
M000
000M
0M00
0000
,
00M0
0000
0000
0000
0001
0010
0100
1000
0001
0100
0010
1000
0100
0010
0100
1000
,
0001
0010
0100
1000
0100
0010
0001
0010
0100
1000
0001
0100
0010
1000
0100
0010
,
0100
1000
0001
0100
0010
0100
0001
0010
0100
1000
0001
0010
0001
1000
0100
0010
,
0001
0010
0100
1000
0001
0100
0010
0100
0001
0010
0100
1000
0001
0010
0001
0100
,
0010
0100
0001
0010
0001
1000
0100
0010
0001
1000
0100
1000
0010
0100
0010
1000
,
0100
1000
0001
0010
0100
1000
0100
0010
0001
0100
0001
1000
0001
0010
0001
1000
,
0001
0010
0100
1000
0100
0010
0001
0100
0010
1000
0100
0010
0100
1000
0001
0010
,
0100
1000
0001
0010
0001
0100
0010
0100
0001
0010
0100
1000
0100
0010
0001
1000
,
0100
0010
0100
1000
0001
0100
0010
1000
0100
0010
0100
1000
0001
0100
0010
1000
,
0001
0010
0100
1000
0001
0100
0010
1000
0100
0010
0001
0010
0100
1000
0001
0100
,
0010
1000
0100
0010
0001
0010
0100
1000
0001
0010
0001
1000
0100
0010
0001
1000
,
0010
0100
0001
1000
0100
0010
0100
1000
0001
0010
0100
1000
0100
0010
0001
0010
,
0100
1000
0001
0010
0100
1000
0001
0100
0010
1000
0100
0010
0001
0010
0100
1000
,
0001
0100
0010
1000
0100
0010
0100
1000
0001
0010
0100
1000
0001
0100
0010
1000
,
0100
0010
0001
0010
0100
1000
0001
0100
0010
1000
0100
0010
0001
0010
0100
1000
,
0001
0100
0010
1000
0100
0000
0000
0000
0010
0000
0000
0000
0001
0000
0010
0000
,
0001
0100
0101
0000
0010
1000
0100
0000
,
1000
0100
0010
0001
0010
0100
1000
0001
0100
0010
1000
0100
0010
0100
1000
0001
,
0010
0100
1000
0100
0010
0001
0100
0010
1000
0001
0010
0100
1000
0100
0010
0001
,
0010
0100
1000
0001
0100
0010
1000
0100
0010
0100
1000
0001
0100
0010
0100
0001
,
1000
0100
1000
0001
0100
0010
0100
0001
0010
0100
1000
0001
0010
0001
0100
0010
,
1000
0001
0010
0100
1000
0010
0100
0001
0010
0100
1000
0100
0010
0001
0100
0010
,
1000
0100
0010
0001
0100
0010
1000
0100
0010
0100
1000
0001
0100
0010
1000
0100
,
0010
0001
0100
0010
1000
0001
0010
0100
1000
0001
0010
0100
1000
0100
0010
0001
,
0100
0010
1000
0001
0010
0100
1000
0100
0010
0001
0100
0010
1000
0001
0010
0100
,
1000
0001
0010
0001
0100
0010
1000
0001
0010
0001
0100
0010
1000
0001
0010
0001
,
0100
0010
1000
0100
0010
0001
0100
0010
1000
0100
0010
0001
0100
0010
1000
0100
,
0010
0100
1000
0001
0100
0010
1000
0001
0010
0100
1000
0100
0010
0001
0100
0010
,
1000
0001
0010
0100
1000
0000
0000
0000
1001
0000
0000
0000
0001
0000
0011
0000
,
0001
1001
1000
0000
0110
0000
0100
0000
,
0101
0002
2003
3020
,
0230
0000
0302
0000
M003
00M0
0M00
0000
,
000M
0000
0000
0000
;

//---------------dance-single - ----------------
#NOTES:
     dance-single:
     :
     Edit:
     18:
     1.000,1.000,0.283,0.104,1.000,1567.000,68.000,25.000,70.000,17.000:

0000
0000
0000
0000
,
0000
0000
0000
0000
,
0000
0000
0000
0000
,
100M
0100
10M0
0100
001M
0100
001M
1000
,
01M0
1000
00M1
0100
M001
0100
M001
0010
,
M001
0100
00M1
1000
0M01
0010
0M01
1000
,
M001
0010
010M
1000
010M
0010
0M01
1000
,
00M1
0100
00M1
1000
0M01
0010
0M01
1000
,
00M1
1002
0203
0320
,
1030
0100
0020
0000
0032
0000
0203
0000
,
0310
1000
0010
0100
0001
0100
0101
0000
,
0110
0000
1010
0000
0001
0100
0010
0000
,
1000
0001
0101
0000
0110
0000
1010
0000
,
0100
0010
0001
0010
0100
1000
0001
0000
,
0100
0010
1010
0000
0101
0000
0110
0000
,
1010
0000
1001
0000
0001
0010
0100
1000
,
0100
0000
0010
0000
0111
0000
0000
0000
0001
0000
0000
0100
0010
0000
1000
0000
,
1011
0000
1000
0000
1010
0000
0000
0000
1010
0000
0000
0010
0100
0000
0001
0000
,
0111
0010
1000
0100
1100
0010
0001
0100
,
0110
0000
1000
0001
1101
0000
0001
0100
,
0111
0000
0010
0000
1110
0000
1000
0001
,
1101
0000
0001
0010
0100
1000
0100
0010
,
0001
0100
0102
0000
0203
0000
0320
0000
,
2030
0000
3100
0000
00M0
000M
M000
0000
,
000M
1000
0010
0010
,
0100
0000
0000
0000
1000
0001
0100
0010
1000
0001
0010
0100
1000
0100
0010
0001
,
1000
0100
1000
0100
0010
0001
0100
0010
1000
0001
0010
0100
1000
0100
0010
0001
,
0100
0010
1000
0001
0100
0010
0100
0010
1000
0100
0010
0001
0010
0100
1000
0001
,
0010
0001
1000
0100
0010
0001
0010
0100
1000
0001
0100
0010
1000
0001
0010
0001
,
1000
0100
0010
0001
1000
0010
1000
0010
0100
0001
1000
0100
0010
0001
0010
0100
,
1000
0001
0100
0010
1000
0001
0010
0100
1000
0010
0100
0001
1000
0100
0010
0001
,
1000
0100
0010
0100
1000
0001
1000
0001
0100
0010
1000
0100
0010
0001
0010
0100
,
1000
0001
0100
0010
1000
0100
1000
0100
0010
0001
0100
0010
1000
0001
0010
0100
,
1000
0100
0010
0001
0100
0010
0100
0001
0010
0100
1000
0001
0010
0001
1000
0100
,
0010
0001
1000
0001
0100
0010
1000
0001
0100
0001
0100
0010
1000
0100
0010
0001
,
0010
0100
1000
0001
0100
0010
0100
0001
1000
0100
1000
0001
0100
0010
0100
0001
,
1000
0100
1000
0010
1000
0100
1000
0001
0100
0010
1000
0100
0010
0001
0010
0100
,
1000
0010
1000
0001
1000
0100
0010
0001
0010
0100
1000
0001
0100
0010
1000
0100
,
0010
0100
1000
0001
0010
0100
1000
0001
0100
0010
1000
0100
0010
0100
1000
0001
,
0010
0100
1000
0100
0010
0001
0100
0010
0100
0001
0010
0100
1000
0100
0010
0001
,
0010
0100
1000
0001
0100
0010
1000
0100
0010
0001
0010
0100
1000
0001
0100
0010
,
1000
0010
0100
0001
1000
0000
0000
0000
0010
0000
0000
0000
0010
0000
0100
0000
,
0001
0100
0010
0000
0010
0000
0010
1000
,
0100
0000
0000
1000
0000
0000
1110
0000
0000
0000
0000
0000
1110
0000
0000
0000
0000
0000
0101
0000
0000
0000
0100
0001
,
0100
0000
0000
0000
0000
0000
0000
0000
0010
0000
1000
0000
0010
0000
0000
0000
0000
0000
0010
0000
0000
0000
0000
0000
1000
0000
0000
0010
0000
0000
1000
0000
0000
0001
0000
0000
0010
0000
0000
0100
0000
0000
1000
0000
0000
0100
0000
0000
,
0010
0001
0100
0010
1000
0001
1000
0100
0010
0001
0010
0100
1000
0001
0100
0010
,
1000
0100
1000
0001
0010
0100
1000
0001
0100
0010
1000
0100
0010
0001
0010
0100
,
1000
0001
0100
0010
1000
0001
0010
0100
1000
0100
0010
0001
0100
0010
1000
0001
,
0010
0100
1000
0100
0010
0001
0100
0010
1000
0001
0010
0100
1000
0100
0010
0001
,
0100
0010
1000
0001
0100
0010
1000
0001
0010
0100
1000
0100
0010
0001
0100
0010
,
1000
0100
0010
0001
0010
0100
1000
0001
0100
0010
1000
0100
0010
0001
0010
0100
,
1000
0001
0100
0010
0100
0001
0010
0100
1000
0001
0010
0100
1000
0100
0010
0001
,
0100
0010
1000
0001
0010
0100
1000
0100
0010
0001
0100
0010
1000
0100
1000
0001
,
0100
0010
0100
0001
1000
0100
1000
0001
0100
0010
0100
0001
1000
0100
0010
0001
,
0010
0100
1000
0001
0010
0100
1000
0100
0010
0001
0100
0010
1000
0100
1000
0001
,
0100
0010
1000
0100
0010
0001
0010
0100
1000
0001
0100
0010
1000
0100
0010
0001
,
0010
0100
1000
0001
0100
0010
0100
0001
0010
0100
1000
0100
0010
0001
0100
0010
,
0100
0001
0010
0100
1000
0000
0000
0000
1000
0000
0000
0000
0001
0000
1000
0000
,
0000
0001
0010
0000
0100
0000
1000
0100
,
0000
1000
0100
0000
1000
0000
0001
1000
,
0000
0001
0100
0000
00M0
0M00
000M
0000
,
M000
0000
0000
0000
0000
0000
0001
0100
0010
1000
0100
0010
0001
0010
0100
1000
0001
0100
0010
1000
0001
0010
0100
1000
,
0001
0100
0010
1000
0100
0010
0100
1000
0001
0010
0100
1000
0001
0100
0010
0100
0001
0010
0100
1000
0001
0100
0010
1000
,
0100
0010
0001
0100
0010
1000
0001
1000
0100
0010
0001
0010
0100
1000
0001
0100
0010
1000
0100
0010
0001
0010
0100
1000
,
0001
0010
0100
1000
0001
0100
0010
1000
0100
0010
0001
0010
0100
1000
0001
0100
0010
1000
0100
0010
0001
1000
0100
0010
,
0100
1000
0001
0010
0100
1000
0001
0100
0010
1000
0100
0010
0001
0010
0100
1000
0001
0100
0010
1000
0100
0010
0001
0010
,
0100
1000
0001
0100
0010
1000
0100
0010
0001
0010
0100
1000
0001
0100
0010
0100
0001
0010
0100
1000
0001
0100
0010
1000
,
0100
0010
0001
0010
0100
1000
0040
0000
0030
0000
0000
0000
0040
0000
0000
0030
0000
0000
0040
0000
0000
1030
0000
0000
,
0100
0040
0030
0040
0034
0403
0340
0030
,
4000
3000
1101
0000
0111
0000
2402
0000
,
0000
3303
0000
2400
0004
0000
3303
0000
,
1011
0000
0000
0000
0000
0000
4000
0000
0000
0000
3040
0000
0000
0000
0430
0000
0000
0000
0301
0000
0000
0100
0000
0000
,
0010
4000
3010
2400
0004
0000
3303
0000
,
0010
0000
1110
0000
2002
3003
4002
0040
,
0000
0000
3030
0040
4000
0000
0000
3033
,
0400
0000
0000
0300
0000
0000
0040
0000
0000
0000
0034
0000
0000
0000
4003
0000
0000
0000
3040
0000
0000
0030
0000
0000
,
0400
0304
0003
4000
3040
0430
0304
0000
,
0203
0000
0300
0000
0001
0010
0100
1000
0100
0010
0001
0100
0010
1000
0010
0100
,
0001
0100
0010
0100
0001
0010
0100
1000
0100
0010
0001
0100
0010
1000
0100
0010
,
0001
0010
0100
1000
0100
0010
0001
0100
0001
1000
0100
0010
0001
0010
0100
1000
,
0001
0100
0010
1000
0001
0010
0100
1000
0100
0010
0001
1000
0100
0010
0100
1000
,
0001
0010
0100
1000
0001
0100
0010
1000
0100
0010
0001
0010
0100
1000
0001
0100
,
0010
1000
0100
0010
0100
1000
0001
0010
0100
1000
0001
0100
0010
1000
0100
0010
,
0100
1000
0001
0010
0100
1000
0001
0100
0010
1000
0001
0100
0010
1000
0100
0010
,
0100
1000
0001
0100
0001
0000
0100
0000
0010
0000
1000
0000
0010
0000
0100
0000
,
0004
0000
1003
0100
M010
0M01
M010
010M
,
10M0
0M01
M100
0M10
10M0
010M
M010
010M
,
10M0
0M01
M010
01M0
100M
01M0
0M10
M001
,
01M0
001M
1M00
00M1
M100
001M
1M00
00M1
,
0M10
M001
10M0
0M00
1M11
0000
0000
0001
,
0111
0010
0010
0000
1110
0000
1000
0000
,
1111
0000
0101
0000
0100
0000
0010
0110
,
0010
1010
1000
0000
0000
0000
0002
0000
,
0203
0000
0000
0000
0310
1000
0010
0000
0100
0001
0100
0000
0010
1000
0010
0000
,
1000
0100
1000
0000
0001
0010
0001
0000
1000
0001
1000
0000
0010
1000
0010
0000
,
0100
0001
0100
0000
0010
1000
0100
0000
0010
0001
0010
0000
0100
1000
0001
0000
,
0100
0010
1000
0000
0100
0010
0001
0000
0010
0100
1000
0000
0001
0100
0010
0000
,
1000
0100
0010
0000
0100
1000
0001
0000
0100
0010
1000
0000
0001
0010
0100
0000
,
1000
0100
0010
0000
0001
0100
0010
0000
1000
0100
0010
0000
0100
1000
0001
0000
,
1000
0010
0100
0000
0001
0000
0100
0010
1000
0000
0001
0010
0100
0000
1000
0100
,
0010
0000
0001
0100
0010
0000
1000
0001
0100
0000
0010
1000
0001
0000
0100
0010
,
1000
0000
0001
1000
0010
0000
0100
0000
0101
0000
0100
0010
1000
0000
0100
0000
,
0110
0000
0010
0000
0011
0000
0001
0000
0100
0000
0010
1000
0001
0000
0100
0000
,
0110
0000
0010
0000
1010
0000
1000
0000
0001
0000
0100
0010
1000
0000
0100
0000
,
0110
0000
0010
0000
0011
0000
0001
0000
0100
0000
0010
1000
0100
0000
0010
0000
,
0011
0000
0001
0000
1001
0000
1000
0000
0010
0000
0100
0001
1000
0000
0100
0000
,
0110
0000
0010
0000
1001
0000
1000
0000
0100
0000
0010
0001
0100
0000
0010
0000
,
1010
0000
1000
0000
1001
0000
0010
0000
0100
0000
1000
0001
1000
0000
0100
0000
,
0010
0001
1000
0000
M000
000M
0M00
0000
,
00M0
0000
0000
0000
0001
0010
0100
1000
0001
0100
0010
1000
0100
0010
0100
1000
,
0001
0010
0100
1000
0100
0010
0001
0010
0100
1000
0001
0100
0010
1000
0100
0010
,
0100
1000
0001
0100
0010
0100
0001
0010
0100
1000
0001
0010
0001
1000
0100
0010
,
0001
0010
0100
1000
0001
0100
0010
0100
0001
0010
0100
1000
0001
0010
0001
0100
,
0010
0100
0001
0010
0001
1000
0100
0010
0001
1000
0100
1000
0010
0100
0010
1000
,
0100
1000
0001
0010
0100
1000
0100
0010
0001
0100
0001
1000
0001
0010
0001
1000
,
0001
0010
0100
1000
0100
0010
0001
0100
0010
1000
0100
0010
0100
1000
0001
0010
,
0100
1000
0001
0010
0001
0100
0010
0100
0001
0010
0100
1000
0100
0010
0001
1000
,
0100
0010
0100
1000
0001
0100
0010
1000
0100
0010
0100
1000
0001
0100
0010
1000
,
0001
0010
0100
1000
0001
0100
0010
1000
0100
0010
0001
0010
0100
1000
0001
0100
,
0010
1000
0100
0010
0001
0010
0100
1000
0001
0010
0001
1000
0100
0010
0001
1000
,
0010
0100
0001
1000
0100
0010
0100
1000
0001
0010
0100
1000
0100
0010
0001
0010
,
0100
1000
0001
0010
0100
1000
0001
0100
0010
1000
0100
0010
0001
0010
0100
1000
,
0001
0100
0010
1000
0100
0010
0100
1000
0001
0010
0100
1000
0001
0100
0010
1000
,
0100
0010
0001
0010
0100
1000
0001
0100
0010
1000
0100
0010
0001
0010
0100
1000
,
0001
0100
0010
1000
0100
0000
0000
0000
0010
0000
0000
0000
0001
0000
0010
0000
,
0001
0100
0101
0000
0010
1000
0100
0000
,
1000
0100
0010
0001
0010
0100
1000
0001
0100
0010
1000
0100
0010
0100
1000
0001
,
0010
0100
1000
0100
0010
0001
0100
0010
1000
0001
0010
0100
1000
0100
0010
0001
,
0010
0100
1000
0001
0100
0010
1000
0100
0010
0100
1000
0001
0100
0010
0100
0001
,
1000
0100
1000
0001
0100
0010
0100
0001
0010
0100
1000
0001
0010
0001
0100
0010
,
1000
0001
0010
0100
1000
0010
0100
0001
0010
0100
1000
0100
0010
0001
0100
0010
,
1000
0100
0010
0001
0100
0010
1000
0100
0010
0100
1000
0001
0100
0010
1000
0100
,
0010
0001
0100
0010
1000
0001
0010
0100
1000
0001
0010
0100
1000
0100
0010
0001
,
0100
0010
1000
0001
0010
0100
1000
0100
0010
0001
0100
0010
1000
0001
0010
0100
,
1000
0001
0010
0001
0100
0010
1000
0001
0010
0001
0100
0010
1000
0001
0010
0001
,
0100
0010
1000
0100
0010
0001
0100
0010
1000
0100
0010
0001
0100
0010
1000
0100
,
0010
0100
1000
0001
0100
0010
1000
0001
0010
0100
1000
0100
0010
0001
0100
0010
,
1000
0001
0010
0100
1000
0000
0000
0000
1001
0000
0000
0000
0001
0000
0011
0000
,
0001
1001
1000
0000
0110
0000
0100
0000
,
0101
0002
2003
3020
,
0230
0000
0302
0000
M003
00M0
0M00
0000
,
000M
0000
0000
0000
;
