#TITLE:Introduction;
#SUBTITLE:Zero Wing (1989);
#ARTIST:Tatsuya Uemura;
#TITLETRANSLIT:;
#SUBTITLETRANSLIT:;
#ARTISTTRANSLIT:;
#CREDIT:;
#BANNER:introduction-bn.jpg;
#BACKGROUND:introduction-bg.jpg;
#LYRICSPATH:;
#CDTITLE:!tsuka.png;
#MUSIC:Introduction.mp3;
#OFFSET:-0.040;
#SAMPLESTART:47.102;
#SAMPLELENGTH:12.000;
#SELECTABLE:YES;
#BPMS:0.000=156.770;
#STOPS:;
#BGCHANGES:;
// cache tags:
#FIRSTBEAT:0.000;
#LASTBEAT:188.000;
#SONGFILENAME:Songs/VGMP 3/Introduction (Tsuka)/Introduction.sm;
#HASMUSIC:1;
#HASBANNER:1;
#MUSICLENGTH:92.786;
// end cache tags

//---------------dance-single - ----------------
#NOTES:
     dance-single:
     :
     Hard:
     10:
     1.000,0.912,1.000,0.086,0.754,499.000,144.000,8.000,0.000,0.000:

0110
0001
1000
0010
0100
1000
0010
0001
,
1100
0000
0010
0000
0100
0000
1000
0000
0110
0001
0010
1000
0100
0010
1000
0100
,
0011
0100
1000
0010
0101
1000
0010
0001
,
1000
0000
0000
0010
0000
0000
0100
0000
0000
1000
0000
0000
0110
0000
1001
0000
0110
0000
1001
0000
0100
0000
0100
0000
,
0010
0000
0101
0000
1010
0000
0101
0000
0000
0010
0000
0000
1100
0000
0011
0000
1001
0000
0100
0000
0100
0000
0000
0000
,
1000
0000
0000
0010
0000
0000
0100
0000
0000
1000
0000
0000
0010
0000
0000
0001
1000
0100
0011
0000
0000
0100
0000
0000
,
0010
0000
0000
0001
0000
0000
0100
0000
0000
0000
0010
0000
0100
0000
0000
0000
0000
0000
0010
0000
0100
0000
0000
0000
0000
0000
0010
0000
0100
0000
0000
0000
0000
0000
0010
0000
1001
0000
0000
0000
0000
0000
0010
0000
0100
0000
0000
0000
,
0001
0000
1000
0010
0000
0000
0100
0000
0000
1000
0000
0000
0010
0000
0000
0001
0000
0000
1010
0000
0000
0100
0000
0000
,
0010
0001
1000
0100
0010
1000
0110
0001
,
1010
0100
0010
0100
1000
0100
1000
0010
0100
0010
0100
0001
,
1001
0010
0001
0010
1001
0010
0001
0010
,
0101
1010
1100
0010
1001
0010
0001
0010
,
0101
1010
1100
0010
1001
0110
0001
0010
,
1001
0110
1001
0110
1001
0110
1001
0110
,
1002
0100
0100
0100
0100
0103
0011
0100
,
2010
0000
0000
0100
0000
0000
0100
0000
0000
0100
0000
0000
0100
0000
0000
3100
0000
0000
1001
0000
0010
0000
0100
0000
,
0012
1000
0100
0100
0100
0103
0011
0100
,
2010
0100
0100
0100
0100
3100
0011
1100
,
0012
0100
0100
0100
0100
0103
0011
0100
,
2010
0000
0000
0100
0000
0000
0100
0000
0000
0100
0000
0000
0100
0000
0000
3100
0000
0000
1001
0000
0010
0000
0100
0000
,
0012
1000
0100
0100
0100
0103
0011
0100
,
2010
0100
0100
0100
0100
3100
0011
0011
,
0110
0000
0001
0000
1100
0000
0010
0000
0101
0000
1000
0000
0110
1000
0001
0000
,
1100
0000
0010
0000
0101
0000
1000
0000
0110
0000
0001
0000
1100
0001
0010
0000
,
0101
0000
1000
0000
0011
0000
0100
0000
1001
0000
0010
0000
0101
1000
0010
0000
,
1100
0000
0010
0000
0100
0000
1000
0000
0010
0000
0001
0000
1010
0100
0011
0000
,
1000
0000
1000
0100
0011
1000
0100
1000
0010
0010
0010
0010
1001
0100
0010
0000
,
0100
0000
1000
0100
0011
1000
0100
1000
0010
0010
0010
0010
1001
0100
0010
0000
,
0100
0000
1000
0100
0011
1000
0100
1000
0010
0010
0010
0010
1001
0100
0010
0000
,
0100
0000
1000
0100
0011
0000
1000
0100
0011
0100
0010
0100
0010
0001
1000
0100
,
0011
0000
0000
0000
0000
0000
1000
0000
0000
0000
0000
0000
0101
0000
0000
0010
0000
0000
0000
0000
0000
1000
0000
0000
0100
0000
0010
0000
0001
0000
1100
0000
0000
0000
0000
0000
0110
0000
0000
0000
0000
0000
1010
0000
0000
0100
0000
0000
,
0011
0000
0100
1000
0101
0000
0010
0100
0010
0000
0100
1000
0101
0000
0010
0100
,
0011
0000
0100
0010
1100
0000
0010
0100
0010
0000
0100
0010
1100
0000
0010
0100
,
1001
0000
0011
0100
1010
0000
0001
0010
0001
0000
0010
0100
1010
0000
0001
0010
,
0001
0000
0000
0000
0000
0000
0010
0000
0000
0100
0000
0000
1010
0000
0000
0000
0000
0000
0001
0000
0000
0010
0000
0000
1001
0000
0000
0000
0010
0000
0000
0000
0100
0000
0000
0000
1010
0000
0000
0000
0100
0000
0000
0000
0010
0000
0000
0000
,
0101
0000
1000
0100
1001
0000
0010
0100
0010
0000
1000
0100
1001
0000
0010
0100
,
0010
0000
0100
0010
0101
0000
0010
0100
1010
0000
1100
0010
0101
0000
0010
0100
,
1001
0000
0010
0100
1010
0000
0101
0010
0001
0000
0010
0100
1010
0000
0001
0010
,
0001
0000
0010
0100
1010
0000
0001
0010
1001
0100
1010
0100
1001
0100
0011
0100
,
1001
0000
0100
1000
0101
0000
0010
0100
0010
0000
0100
1000
0101
0000
0010
0100
,
0011
0000
0100
0010
1100
0000
0010
0100
0010
0000
0100
0010
1100
0000
0010
0100
,
1001
0000
0011
0100
1010
0000
0001
0010
0001
0000
0010
0100
1010
0000
0001
0010
,
0001
0000
0000
0000
0000
0000
0010
0000
0000
0100
0000
0000
1010
0000
0000
0000
0000
0000
0001
0000
0000
0010
0000
0000
1001
0000
0000
0000
0010
0000
0000
0000
0100
0000
0000
0000
1010
0000
0000
0000
0100
0000
0000
0000
0010
0000
0000
0000
,
0101
0000
1000
0100
1001
0000
0010
0100
0010
0000
1000
0100
1001
0000
0010
0100
,
0010
0000
0100
0010
0101
0000
0010
0100
1010
0000
1100
0010
0101
0000
0010
0100
,
1001
0000
0010
0100
1010
0000
0101
0010
0001
0000
0010
0100
1010
0000
0001
0010
,
0001
0000
0010
0100
1010
0000
0001
0010
1001
0100
1010
0100
1001
0100
0011
0100
,
1001
0000
0000
0000
;

//---------------dance-solo - ----------------
#NOTES:
     dance-solo:
     :
     Hard:
     1:
     0.169,0.141,0.280,0.000,0.210,80.000,26.000,0.000,0.000,4.000:















010000
000000
000000
000000
000100
000000
000000
000000
000000
000000
000000
001000
000010
000000
000000
000000
010000
000000
000000
000000
000000
000000
000000
000000
000001
000000
000000
000000
000000
000000
000000
000000
,
010001
000000
001000
000010
000000
000000
000000
000000
010001
100000
001010
000000
100010
000000
101000
000000
,
001001
010000
000000
000000
001001
000100
000000
000010
001001
010000
000000
001000
100001
000000
000100
000000
,
111000
000001
000001
000000
000000
000001
000000
000001
001000
100000
001100
000010
000000
000010
011000
100000
,
000000
010000
000000
000010
000010
000000
100000
011000
000000
100000
000000
001100
000000
000010
000001
000000
,
100101
000000
001000
000010
000000
000000
000000
010000
001001
100000
001010
000000
100010
000000
010100
000000
,
001001
010000
000000
000000
001001
000100
000000
000010
001001
010000
000000
001000
100001
000000
000100
000000
,
101010
000001
000001
000000
000000
000001
000000
000001
011010
100000
000000
001000
000000
001000
010010
000001
,
000000
000000
001000
000100
000000
100000
000000
000000
000000
100000
000000
000000
001000
000000
000000
000000
;
