#TITLE:You've Got The Music In You;
#SUBTITLE:;
#ARTIST:Imil;
#TITLETRANSLIT:;
#SUBTITLETRANSLIT:;
#ARTISTTRANSLIT:;
#CREDIT:;
#BANNER:you've got the music in you bn.png;
#BACKGROUND:you've got the music in you bg.png;
#LYRICSPATH:;
#CDTITLE:;
#MUSIC:the music.ogg;
#OFFSET:-0.021;
#SAMPLESTART:42.185;
#SAMPLELENGTH:16.842;
#SELECTABLE:YES;
#DISPLAYBPM:228.000;
#BPMS:0.000=114.000,64.000=228.000;
#STOPS:;
#BGCHANGES:;
// cache tags:
#FIRSTBEAT:32.000;
#LASTBEAT:512.000;
#SONGFILENAME:Songs/Speedcore Rejects/You've Got The Music In You - [Tyler]/youvegotthemusic.sm;
#HASMUSIC:1;
#HASBANNER:1;
#MUSICLENGTH:152.685;
// end cache tags

//---------------dance-single - T. Moore----------------
#NOTES:
     dance-single:
     T. Moore:
     Challenge:
     17:
     0.990,1.000,0.419,0.111,1.000,973.000,64.000,17.000,103.000,3.000:
0000
0000
0000
0000
,
0000
0000
0000
0000
,
0000
0000
0000
0000
,
0000
0000
0000
0000
,
0000
0000
0000
0000
,
0000
0000
0000
0000
,
0000
0000
0000
0000
,
0000
0000
0000
0000
,
1001
0100
1010
0001
,
1010
0100
1001
0100
,
0002
0003
0000
0000
1000
0000
0000
0000
0220
0330
0000
0000
1000
0000
0000
0000
,
0002
0003
0000
0000
0022
0033
0000
0000
0222
0333
0000
0000
2222
0000
3000
0000
,
1333
0000
0010
0000
0100
0010
0000
0010
,
0000
1000
0010
1000
0100
0010
0001
0010
,
0100
0000
1100
0000
1000
0100
0000
0100
,
0000
1000
0100
1000
0010
0100
0001
1000
,
1001
0001
1000
0001
1000
0001
1000
0001
,
1000
0100
0010
0001
1000
0001
0010
0100
,
1000
0001
0100
0010
1000
0010
0100
0001
,
0010
0001
0100
0001
1000
0001
0100
0001
,
1000
0100
1000
0100
0010
0100
1000
0001
,
0100
0010
1000
0010
0100
0010
1000
0010
,
0100
0001
0010
0001
1000
0001
0010
0001
,
M100
M010
M100
M001
M010
M100
M010
M001
,
1000
0010
0100
0001
1000
0001
0100
0001
0100
0010
1000
0001
0100
0001
1000
0001
,
0100
0010
1000
0001
1000
0010
0100
0001
1000
0100
0010
0001
1000
0001
0010
0100
,
1000
0001
1000
0100
0010
0001
1000
0100
1000
0001
0010
0001
1000
0100
0010
0001
,
1000
0001
0010
0100
1000
0001
0010
0001
1000
0001
0100
0010
1000
0010
0100
0001
,
1000
0010
0100
0001
1000
0001
0100
0001
0100
0010
1000
0001
0100
0001
1000
0001
,
0100
0010
1000
0001
1000
0010
0100
0001
1000
0100
0010
0001
1000
0001
0010
0100
,
1000
0001
1000
0100
0010
0001
1000
0100
1000
0001
0010
0001
1000
0100
0010
0001
,
1000
0001
0010
0100
1000
0001
0010
0001
1000
0001
0100
0010
1000
0001
1000
0001
,
1000
0010
0100
0001
1000
0001
0100
0010
0100
0001
1000
0001
0100
0001
1000
0001
,
0100
0010
1000
0001
1000
0010
0100
0001
1000
0100
0010
0001
1000
0001
0100
0010
,
1000
0001
1000
0100
0010
0001
1000
0100
1000
0001
0010
0001
1000
0100
0010
0001
,
1000
0001
0010
0100
1000
0001
0010
0001
1000
0010
0100
0001
1000
0001
1000
0001
,
1000
0010
0100
0001
1000
0001
0100
0010
1000
0010
1000
0001
0100
0001
1000
0001
,
0100
0010
1000
0001
1000
0010
0100
0001
1000
0100
0010
0001
1000
0001
1000
0001
,
1000
0010
0100
0001
1000
0001
1000
0010
1000
0001
0100
0001
1000
0010
0100
0001
,
1000
0001
0100
0010
1000
0001
0100
0001
4000
0000
0000
0000
0000
0000
0000
3000
,
0101
0000
M000
0000
0000
00M0
0000
00M0
,
0000
0M00
000M
0M00
M000
00M0
0M00
000M
,
1001
0000
00M0
0000
0000
M000
0000
M000
,
0000
00M0
M000
00M0
000M
0M00
00M0
M000
,
0011
0000
0M00
0000
0000
000M
0000
000M
,
0000
M000
00M0
M000
011M
M000
00M0
000M
,
1100
0000
000M
0000
0000
00M0
0000
00M0
,
0101
M000
00M0
1M10
000M
0M00
11M0
0000
,
1001
0001
0001
0001
,
0001
0001
0001
0101
,
1010
1000
1000
1000
,
1000
0000
1000
0000
1001
0001
0000
0011
,
1100
1000
1000
1000
,
1000
1000
1000
1000
,
0101
0100
1010
0010
,
1001
0000
0000
0000
1100
0000
0000
0000
0011
0000
0001
0000
1000
0001
1000
0001
,
0100
0000
0010
0000
1000
0010
0100
0000
,
0001
0000
1000
0000
0001
0100
0110
0000
,
1010
0000
0000
0000
1000
0000
0000
0000
0001
0000
1000
0010
0100
0000
0000
0000
,
0001
0000
1000
0000
1010
0010
0000
0110
,
0101
1000
0001
1000
,
0010
1000
0001
0010
,
1100
1000
1001
0001
,
0101
0000
0000
0000
1010
0000
0000
0000
00M1
1000
0001
1000
0001
1000
0001
1000
,
0001
0100
0010
1000
0001
1000
0010
1000
0010
0100
0001
1000
0010
1000
0001
1000
,
0010
0100
0001
1000
0001
0100
0010
1000
0001
0010
0100
1000
0001
1000
0100
0010
,
0001
1000
0001
0010
0100
1000
0001
0010
0001
1000
0100
1000
0001
0010
0100
1000
,
0001
1000
0100
0010
0001
1000
0100
1000
0001
1000
0010
0100
0001
0100
0010
1000
,
0001
0100
0010
1000
0001
1000
0010
1000
0010
0100
0001
1000
0010
1000
0001
1000
,
0010
0100
0001
1000
0001
0100
0010
1000
0001
0010
0100
1000
0001
1000
0100
0010
,
0001
1000
0001
0010
0100
1000
0001
0010
0001
1000
0100
1000
0001
0010
0100
1000
,
0001
1000
0100
0010
0001
1000
0100
1000
0001
1000
0010
0100
0001
0100
0010
1000
,
0100
0010
0001
1000
0010
1000
0001
0010
0100
1000
0010
1000
0100
0010
0100
1000
,
0010
0100
0001
0010
0100
1000
0010
0100
0001
0100
0010
1000
0002
0000
0003
0000
,
1000
0001
1000
0100
0010
0001
1000
0100
1000
0001
0010
0001
1000
0100
0010
0001
,
1000
0001
0010
0100
1000
0001
0010
0001
1000
0001
0100
0010
1000
0010
0100
0001
,
0010
0100
1000
0010
0100
0010
1000
0100
0010
0001
0100
0001
0010
0100
0010
0001
,
0100
0010
1000
0100
0010
0001
0100
0010
1000
0010
0100
0001
2000
0000
3000
0000
,
0001
1000
0100
0010
0001
1000
0001
0010
0100
1000
0001
1000
0100
1000
0001
1000
,
0100
0010
0001
1000
0100
0010
0100
1000
0001
1000
0001
1000
0001
1000
0001
1000
,
0001
0100
0010
1000
0001
1000
0010
1000
0010
0100
0001
1000
0010
1000
0001
1000
,
0010
0100
0001
1000
0001
0100
0010
1000
0001
0010
0100
1000
0001
1000
0100
0010
,
0001
1000
0001
0010
0100
1000
0001
0010
0001
1000
0100
1000
0001
0010
0100
1000
,
0001
1000
0100
0010
0001
1000
0100
1000
0001
1000
0010
0100
0001
0100
0010
1000
,
0001
0100
0010
1000
0001
1000
0010
1000
0010
0100
0001
1000
0010
1000
0001
1000
,
0010
0100
0001
1000
0001
0100
0010
1000
0001
0010
0100
1000
0001
1000
0001
1000
,
0001
0100
0010
1000
0001
1000
0001
0010
0100
1000
0001
1000
0100
0010
0001
1000
,
0001
0010
0100
1000
0001
1000
0100
0010
0001
1000
0010
0100
0001
1000
0001
1000
,
0001
0100
0010
1000
0001
1000
0010
0100
0010
1000
0001
1000
0010
1000
0001
1000
,
0010
0100
0001
1000
0001
0100
0010
1000
0001
0010
0100
1000
0001
1000
0100
0010
,
0001
1000
0001
0100
0010
1000
0001
0100
0001
1000
0010
1000
0001
0100
0010
1000
,
0001
0010
0001
0010
0100
1000
0100
1000
0001
0100
0001
0100
0010
1000
0010
1000
,
0002
0003
00M0
0000
0000
M000
0000
M000
,
0000
0M00
M000
0M00
000M
00M0
M000
0M00
,
0000
0000
000M
0000
0000
00M0
0000
00M0
,
0000
0M00
00M0
0M00
000M
M000
00M0
0M00
,
1001
0000
00M0
0000
0000
000M
0000
000M
,
0000
0M00
000M
0M00
M000
00M0
000M
0M00
,
0000
0000
00M0
0000
0000
0M00
0000
0M00
,
0000
000M
0M00
000M
00M0
0M00
M000
000M
,
2000
0000
0000
0000
,
0000
0000
0000
0000
,
3001
0000
0000
0100
,
0000
0010
0010
0010
,
1010
1000
0001
1000
,
0100
0000
1000
0000
0010
0000
0100
0100
,
0001
1000
0100
1000
,
0001
0000
0000
0000
1000
0000
0000
0000
0010
0000
0000
0000
0100
0000
0100
0001
,
1000
0001
1000
0100
,
1000
0000
0000
0000
0010
0000
0000
0000
0100
0000
0000
0000
0001
1000
0001
1000
,
0001
0010
0001
1000
,
M010
0000
M000
0000
M100
0000
M000
0000
M001
0000
M000
0000
M100
0000
M001
0100
,
0010
1010
1100
0011
,
0101
0000
0000
0000
1010
0000
0000
0000
0011
0000
0000
0000
0010
0100
0010
0100
,
1000
1001
0101
1010
,
1100
0000
0000
0000
0110
0000
0000
0000
1001
0000
0000
0000
0101
0000
0100
0010
,
1000
0101
1100
0011
,
0110
0000
0000
0000
1001
0000
0000
0000
0101
0000
0000
0000
0100
0010
0100
0010
,
1000
1001
1100
0011
,
1001
0000
0000
0000
0000
0000
0000
0000
1001
0000
0000
0000
1000
0001
1000
0001
,
1000
0000
0M00
0000
,
0000
00M0
0000
00M0
,
0000
0000
0000
0000
,
0000
0000
0000
0000
,
0000
0000
000M
0000
,
0000
M000
0000
M000
,
0000
0000
0000
0000
,
0000
0000
0000
0000
,
00M0
0000
0000
0000
;
