#TITLE:Speedcore Sunday;
#SUBTITLE:;
#ARTIST:Interrupt Vector;
#TITLETRANSLIT:;
#SUBTITLETRANSLIT:;
#ARTISTTRANSLIT:;
#CREDIT:;
#BANNER:Speedcore Sunday-bn.png;
#BACKGROUND:Speedcore Sunday-bg.png;
#LYRICSPATH:;
#CDTITLE:ballistics.png;
#MUSIC:interruptvector-speedcore_sunday.mp3;
#OFFSET:-1.263;
#SAMPLESTART:103.120;
#SAMPLELENGTH:16.220;
#SELECTABLE:YES;
#BPMS:0.000=200.000,235.000=205.000,236.000=210.000,240.500=220.000,244.500=230.000,248.000=260.000,249.000=280.001,253.000=285.001,258.500=290.001,259.500=320.002,264.500=330.002,265.500=360.003,271.000=400.004,272.000=410.004,275.000=420.004,280.000=400.004,386.500=205.004,387.000=200.004,615.000=205.004,616.000=200.004,663.000=100.002,709.000=200.000;
#STOPS:;
#BGCHANGES:;
// cache tags:
#FIRSTBEAT:4.000;
#LASTBEAT:666.000;
#SONGFILENAME:Songs/hard shit/Speedcore Sunday3/interruptvector - speedcore_sunday.sm;
#HASMUSIC:1;
#HASBANNER:1;
#MUSICLENGTH:190.889;
// end cache tags

//---------------dance-single - Blank----------------
#NOTES:
     dance-single:
     Blank:
     Hard:
     11:
     1.000,1.000,0.922,0.178,1.000,1631.000,176.000,34.000,0.000,0.000:

0000
0000
0000
0000
,
0100
0001
1000
0001
0100
0010
1000
0001
0100
0000
0100
0000
0100
0001
0010
0000
,
1000
0000
0000
0000
0000
0000
0100
0000
0000
0000
0000
0000
0010
0000
0000
0000
0000
0000
0000
0000
0000
0000
0000
0000
0001
0000
0000
0000
0000
0000
0000
0000
0000
0000
0000
0000
1000
0000
0000
0000
0000
0000
0000
0000
0000
0000
0000
0000
0000
0000
0000
0000
0000
0000
0000
0000
0000
0000
0000
0000
0001
0000
0000
0000
1000
0000
0000
0000
0000
0000
0000
0000
0000
0000
0000
0000
0000
0000
0100
0000
0000
0000
0000
0000
0000
0000
0000
0000
0000
0000
0000
0000
0000
0000
0000
0000
0010
0000
0000
0000
0000
0000
0000
0000
0000
0000
0000
0000
0000
0000
0000
0000
0000
0000
0000
0000
0000
0000
0000
0000
0100
0000
0000
0000
0000
0000
0000
0000
1000
0000
0000
0000
0010
0000
0000
0000
0000
0000
0000
0000
0000
0000
0000
0000
0001
0000
0000
0000
0000
0000
0000
0000
0000
0000
0000
0000
0000
0000
0000
0000
0000
0000
0000
0000
0000
0000
0000
0000
0001
0000
0000
0000
0000
0000
0000
0000
0000
0000
0000
0000
0000
0000
0000
0000
0000
0000
0000
0000
0000
0000
0000
0000
,
0100
0001
0100
1000
0001
0100
0010
1000
0001
0000
0001
0000
0001
1000
0001
0000
,
0010
0000
0000
0000
0000
0000
0100
0000
0000
0000
0000
0000
1000
0000
0000
0000
0000
0000
0000
0000
0000
0000
0000
0000
0001
0000
0000
0000
0000
0000
0000
0000
0000
0000
0000
0000
0010
0000
0000
0000
0000
0000
0000
0000
0000
0000
0000
0000
0000
0000
0000
0000
0000
0000
0000
0000
0000
0000
0000
0000
0100
0000
0000
0000
0001
0000
0000
0000
0000
0000
0000
0000
0000
0000
0000
0000
0000
0000
1000
0000
0000
0000
0000
0000
0000
0000
0000
0000
0000
0000
0000
0000
0000
0000
0000
0000
0010
0000
0000
0000
0000
0000
0000
0000
0000
0000
0000
0000
0000
0000
0000
0000
0000
0000
0000
0000
0000
0000
0000
0000
0001
0000
0000
0000
0000
0000
0000
0000
0100
0000
0000
0000
1000
0000
0000
0000
0000
0000
0000
0000
0000
0000
0000
0000
0010
0000
0000
0000
0000
0000
0000
0000
0000
0000
0000
0000
0000
0000
0000
0000
0000
0000
0000
0000
0000
0000
0000
0000
0100
0000
0000
0000
0000
0000
0000
0000
0000
0000
0000
0000
0000
0000
0000
0000
0000
0000
0000
0000
0000
0000
0000
0000
,
0000
0000
0000
0000
,
0000
0000
0000
0000
0000
0000
0000
0000
0000
0000
0000
0000
0000
0000
0000
0000
0000
0000
0000
0000
0000
0000
0000
0000
0000
0000
0000
0000
0000
0000
1000
0000
0000
0000
0000
0000
1000
0000
0000
0100
0000
0000
0010
0000
0001
0000
0010
0000
,
0001
0010
0001
0000
1001
0000
1001
0000
1001
0000
1001
0000
1001
0000
1001
0000
,
0001
0000
0000
0000
0000
0000
0000
0000
0010
0000
0000
0000
0000
0000
0000
0000
0000
0000
0000
0000
0000
0000
0000
0000
0100
0000
0000
0000
0000
0000
1000
0000
0000
0000
0000
0000
0000
0000
0000
0000
0000
0000
0001
0000
0000
0000
0000
0000
0100
0000
0000
0000
0000
0000
0000
0000
0000
0000
0000
0000
0000
0000
0000
0000
0000
0000
0010
0000
0000
0000
0000
0000
0000
0000
0000
0000
0000
0000
1000
0000
0000
0000
0000
0000
0100
0000
0000
0000
0000
0000
0000
0000
0000
0000
0000
0000
0010
0000
0000
0000
0000
0000
0001
0000
0000
0000
0000
0000
0000
0000
0000
0000
0000
0000
0000
0000
0000
0000
0000
0000
0100
0000
0000
0000
0000
0000
0000
0000
0000
0000
0000
0000
1000
0000
0000
0000
0000
0000
0000
0000
0000
0000
0000
0000
0001
0000
0000
0000
0000
0000
0000
0000
0000
0000
0000
0000
0000
0000
0000
0000
0000
0000
0000
0000
0000
0000
0000
0000
0100
0000
0000
0000
0000
0000
0000
0000
0000
0000
0000
0000
0000
0000
0000
0000
0000
0000
0000
0000
0000
0000
0000
0000
,
0110
0110
0110
0110
0110
0110
0110
0110
,
0100
0000
0000
0000
0000
0000
0000
0000
0010
0000
0000
0000
0000
0000
0000
0000
0000
0000
0000
0000
0000
0000
0000
0000
0001
0000
0000
0000
0000
0000
1000
0000
0000
0000
0000
0000
0000
0000
0000
0000
0000
0000
0010
0000
0000
0000
0000
0000
0100
0000
0000
0000
0000
0000
0001
0000
0000
0000
0000
0000
1000
0000
0000
0000
0000
0000
0000
0000
0000
0000
0000
0000
0010
0000
0000
0000
0000
0000
0001
0000
0000
0000
0000
0000
0100
0000
0000
0000
0000
0000
0000
0000
0000
0000
0000
0000
0000
0000
0000
0000
0000
0000
1000
0000
0000
0000
0000
0000
0000
0000
0000
0000
0000
0000
0001
0000
0000
0000
0000
0000
0010
0000
0000
0000
0000
0000
0000
0000
0000
0000
0000
0000
0100
0000
0000
0000
0000
0000
0000
0000
0000
0000
0000
0000
1000
0000
0000
0000
0000
0000
0000
0000
0000
0000
0000
0000
0000
0000
0000
0000
0000
0000
0000
0000
0000
0000
0000
0000
1000
0000
0000
0000
0000
0000
0000
0000
0000
0000
0000
0000
0000
0000
0000
0000
0000
0000
0000
0000
0000
0000
0000
0000
,
1100
0000
0000
0000
0000
0000
0001
0000
0010
0100
1000
0000
0001
0000
0000
0000
0000
0000
1000
0000
0100
0010
0001
0000
1000
0000
0000
0000
0000
0000
0001
0000
0010
0100
1000
0000
0001
0000
0000
0000
0000
0000
1000
0000
0100
0010
0001
0000
,
1000
0000
0000
0000
0000
0000
0000
0000
0000
0000
0000
0000
0000
0000
0000
0000
0000
0000
0000
0000
0000
0000
0000
0000
0001
0000
0000
0000
0000
0000
0000
0000
0010
0000
0000
0000
0100
0000
0000
0000
1000
0000
0000
0000
0000
0000
0000
0000
0001
0000
0000
0000
0000
0000
0000
0000
0000
0000
0000
0000
0000
0000
0000
0000
0000
0000
0000
0000
0000
0000
0000
0000
2000
0000
0000
0000
0000
0000
0000
0000
0000
0000
0000
0000
0000
0000
0000
0000
0000
0000
0000
0000
0000
0000
0000
0000
0000
0000
0000
0000
0000
0000
0000
0000
0000
0000
0000
0000
0000
0000
0000
0000
0000
0000
0000
0000
0000
0000
0000
0000
0000
0000
0000
0000
0000
0000
0000
0000
0000
0000
0000
0000
0000
0000
0000
0000
0000
0000
0000
0000
0000
0000
0000
0000
0000
0000
0000
0000
0000
0000
0000
0000
0000
0000
0000
0000
0000
0000
0000
0000
0000
0000
0000
0000
0000
0000
0000
0000
0000
0000
0000
0000
0000
0000
0000
0000
0000
0000
0000
0000
0000
0000
0000
0000
0000
0000
3000
0000
0000
0000
0000
0000
,
0011
0000
0000
0000
1000
0000
0000
0000
0101
0000
0000
0000
0011
0000
0000
0000
0100
0000
0000
0000
0010
0000
0000
0000
0001
1000
0100
0000
0010
0000
0000
0000
,
1100
0000
0000
0000
0000
0000
0000
0000
0000
0000
0000
0000
0000
0000
0000
0000
0000
0000
0000
0000
0000
0000
0000
0000
0010
0000
0000
0000
0000
0000
0000
0000
0000
0000
0000
0000
0000
0000
0000
0000
0000
0000
0000
0000
0000
0000
0000
0000
0101
0000
0000
0000
0000
0000
0000
0000
0000
0000
0000
0000
0000
0000
0000
0000
0000
0000
0000
0000
0000
0000
0000
0000
0011
0000
0000
0000
0000
0000
0000
0000
0000
0000
0000
0000
0000
0000
0000
0000
0000
0000
0000
0000
0000
0000
0000
0000
1000
0000
0000
0000
0000
0000
0000
0000
0000
0000
0000
0000
0000
0000
0000
0000
0000
0000
0000
0000
0000
0000
0000
0000
0001
0000
0000
0000
0000
0000
0100
0000
0010
0000
0000
0000
0000
0000
0000
0000
0000
0000
0000
0000
0000
0000
0000
0000
1000
0000
0000
0000
0000
0000
0000
0000
0000
0000
0000
0000
0000
0000
0000
0000
0000
0000
0000
0000
0000
0000
0000
0000
0110
0000
0000
0000
0000
0000
0000
0000
0000
0000
0000
0000
0000
0000
0000
0000
0000
0000
0000
0000
0000
0000
0000
0000
,
1001
0100
1100
0101
0020
0000
0130
1010
,
0101
0000
0000
0000
0000
0000
0000
0000
0000
0000
0000
0000
0000
0000
0000
0000
0000
0000
0000
0000
0000
0000
0000
0000
1000
0000
0000
0000
0000
0000
0000
0000
0000
0000
0000
0000
0000
0000
0000
0000
0000
0000
0000
0000
0000
0000
0000
0000
0110
0000
0000
0000
0000
0000
0000
0000
0000
0000
0000
0000
0000
0000
0000
0000
0000
0000
0000
0000
0000
0000
0000
0000
0011
0000
0000
0000
0000
0000
0000
0000
0000
0000
0000
0000
0000
0000
0000
0000
0000
0000
0000
0000
0000
0000
0000
0000
0100
0000
0000
0000
0000
0000
0000
0000
0000
0000
0000
0000
0000
0000
0000
0000
0000
0000
0000
0000
0000
0000
0000
0000
0001
0000
0000
0000
0000
0000
1000
0000
0000
0000
0000
0000
0000
0000
0000
0000
0010
0000
0100
0000
0000
0000
0000
0000
0001
0000
0000
0000
0000
0000
0000
0000
0000
0000
0000
0000
0000
0000
0000
0000
0000
0000
0000
0000
0000
0000
0000
0000
1000
0000
0000
0000
0000
0000
0000
0000
0000
0000
0000
0000
0000
0000
0000
0000
0000
0000
0000
0000
0000
0000
0000
0000
,
0101
0001
0011
0110
1010
0100
0011
0100
,
1010
0000
0000
0000
0000
0000
0000
0000
0000
0000
0000
0000
0000
0000
0000
0000
0000
0000
0000
0000
0000
0000
0000
0000
0010
0000
0000
0000
0000
0000
0000
0000
0000
0000
0000
0000
0000
0000
0000
0000
0000
0000
0000
0000
0000
0000
0000
0000
1010
0000
0000
0000
0000
0000
0000
0000
0000
0000
0000
0000
0000
0000
0000
0000
0000
0000
0000
0000
0000
0000
0000
0000
1100
0000
0000
0000
0000
0000
0000
0000
0000
0000
0000
0000
0000
0000
0000
0000
0000
0000
0000
0000
0000
0000
0000
0000
0011
0000
0000
0000
0000
0000
0000
0000
0000
0000
0000
0000
0000
0000
0000
0000
0000
0000
0000
0000
0000
0000
0000
0000
0100
0000
0000
0000
0000
0000
1000
0000
0000
0000
0000
0000
0000
0000
0000
0000
0010
0000
0001
0000
0000
0000
0000
0000
0100
0000
0000
0000
0000
0000
0000
0000
0000
0000
0000
0000
0000
0000
0000
0000
0000
0000
0000
0000
0000
0000
0000
0000
0001
0000
0000
0000
0000
0000
0000
0000
0000
0000
0000
0000
0000
0000
0000
0000
0000
0000
0000
0000
0000
0000
0000
0000
,
0110
0010
0011
0100
1001
0100
0011
0100
,
1001
0000
0000
0000
0000
0000
0000
0000
0000
0000
0000
0000
0000
0000
0000
0000
0000
0000
0000
0000
0000
0000
0000
0000
1000
0000
0000
0000
0000
0000
0000
0000
0000
0000
0000
0000
0000
0000
0000
0000
0000
0000
0000
0000
0000
0000
0000
0000
0101
0000
0000
0000
0000
0000
0000
0000
0000
0000
0000
0000
0000
0000
0000
0000
0000
0000
0000
0000
0000
0000
0000
0000
0110
0000
0000
0000
0000
0000
0000
0000
0000
0000
0000
0000
0000
0000
0000
0000
0000
0000
0000
0000
0000
0000
0000
0000
1001
0000
0000
0000
0000
0000
0000
0000
0000
0000
0000
0000
0000
0000
0000
0000
0000
0000
0000
0000
0000
0000
0000
0000
0010
0000
0000
0000
0000
0000
0001
0000
0100
0000
0000
0000
0000
0000
0000
0000
0000
0000
1000
0000
0000
0000
0000
0000
0010
0000
0000
0000
0000
0000
0000
0000
0000
0000
0000
0000
0000
0000
0000
0000
0000
0000
0000
0000
0000
0000
0000
0000
0101
0000
0000
0000
0000
0000
0000
0000
0000
0000
0000
0000
0000
0000
0000
0000
0000
0000
0000
0000
0000
0000
0000
0000
,
0010
0100
1000
0010
0001
0100
0010
0100
,
0001
0100
1000
0001
1000
0100
0001
0100
,
0010
0001
1000
0001
0010
0100
1000
0001
,
1000
0100
1000
0001
0100
0010
1000
0010
,
0001
0100
1000
0001
0100
0001
0100
0001
,
0100
1000
0010
1000
0010
0001
0100
0010
,
1000
0010
0001
0100
0001
0010
1000
0001
,
0100
0010
1000
0001
0100
0001
0100
0010
,
0101
0101
0101
0101
0101
0101
0110
1100
,
1010
1010
1010
1010
1010
1010
2010
3000
,
0011
0011
0011
0011
0011
0011
0101
1001
,
0010
0100
0010
0100
0010
0100
0010
0100
0020
0000
0030
0000
0110
0000
0000
0000
,
1000
0010
0001
1000
0010
0001
0100
1000
,
0010
0100
0001
0100
1000
0001
0100
0010
,
0001
1000
0001
0010
0100
0001
1000
0100
,
0001
1000
0010
1000
0001
0010
0100
1000
,
0001
1000
0100
0001
1000
0010
1000
0010
,
0001
0100
0010
1000
0001
0100
0001
1000
,
0010
0100
0001
1000
0001
0100
0010
1000
,
0010
0100
0001
0010
0100
1000
0100
0010
,
0001
0100
0000
0010
1000
0000
0100
0010
0000
1000
0100
0000
0001
0010
0000
0001
0100
0000
0010
1000
0000
0100
0001
0000
,
1000
0010
0000
1000
0001
0000
0010
0100
0000
0001
0100
0000
0010
1000
0000
0100
0001
0000
0020
0000
0000
0030
0000
0000
,
0001
0010
0000
1000
0100
0000
0010
0001
0000
0010
0100
0000
1000
0001
0000
0100
0010
0000
1000
0001
0000
0100
0010
0000
,
1000
0001
1000
0010
1000
0100
1000
0010
0200
0000
0300
0000
0001
0000
0100
0000
,
0001
1000
0000
0010
0100
0000
0001
0010
0000
0100
0001
0000
0010
1000
0000
0100
0001
0000
0010
1000
0000
0100
0010
0000
,
0001
1000
0000
0100
0001
0000
1000
0100
0000
0001
1000
0000
0010
0100
0000
0001
0010
0000
0200
0000
0000
0300
0000
0000
,
0010
1000
0000
0100
0001
0000
0010
0100
0000
0010
0001
0000
1000
0010
0000
0100
0001
0000
1000
0010
0000
0001
0100
0000
,
1000
0010
0100
0010
0001
0010
1000
0010
2000
0000
0000
0000
3100
0000
0000
0000
,
1001
0000
1001
0010
0001
0100
0001
0100
,
1000
0010
0100
0001
1000
0100
0011
1000
,
0100
0001
0110
1000
0101
0010
0001
0100
,
0001
1000
0100
0001
0010
0100
1000
0100
,
0001
0010
1000
0010
0001
0100
0001
0100
,
1000
0100
0001
1000
0010
0001
1000
0010
,
0100
0001
0100
0001
1000
0100
0001
1000
,
0010
0000
1000
0000
0001
0000
0010
1000
0001
0000
0100
0000
0010
0000
1000
0000
,
0101
1000
0010
0100
0001
1000
0001
0010
,
0100
0001
1000
0100
0010
1000
0001
0100
,
0001
1000
0010
1000
0100
0010
0001
1000
,
0010
0100
0001
1000
0001
0100
0010
1000
,
0001
0100
0001
1000
0010
1000
0100
0001
,
0100
0010
1000
0010
0100
0001
0100
0010
,
1000
0001
0010
0100
1000
0100
0010
0001
,
1000
0001
0010
0001
0100
0010
1000
0100
,
0001
1000
0100
0001
1000
0010
1000
0001
,
0010
0100
1000
0100
0010
1000
0001
1000
,
0100
0001
1000
0010
1000
0001
0100
0001
,
1000
0010
1000
0001
0010
0100
1000
0100
,
0010
1000
0010
0001
0100
0010
1000
0001
,
0100
0001
1000
0010
0100
0001
0010
0100
,
1000
0100
0010
0001
1000
0001
0100
0001
,
1000
0010
1000
0100
0001
1000
0010
1000
,
0001
0010
0001
0100
0001
1000
0001
0100
,
0001
1000
0010
1000
0010
0100
0010
0100
,
0001
1000
0001
1000
0001
1000
0010
1000
,
0010
0100
0010
0100
0001
0100
0001
1000
,
0010
0001
1000
0001
0100
0001
1000
0010
,
0100
0010
1000
0010
0001
0100
0010
1000
,
0001
0100
0010
1000
0001
1000
0100
0010
,
0100
0001
1000
0010
1000
0001
0100
0001
,
1000
0010
1000
0001
0010
0100
1000
0100
,
0010
1000
0010
0001
0100
0010
1000
0001
,
0100
0001
1000
0010
0100
0001
0010
0100
,
1000
0100
0010
0001
1000
0001
0100
0001
,
1000
0100
0010
1000
0010
0001
0100
0001
,
1000
0001
0010
0100
0001
1000
0010
0100
,
1000
0001
0010
0001
0100
0010
1000
0100
,
0001
1000
0100
0001
1000
0010
1000
0001
,
0010
0100
1000
0100
0010
1000
0001
1000
,
0100
0001
1000
0010
1000
0001
0100
0001
,
1000
0010
1000
0001
0010
0100
1000
0100
,
0010
1000
0010
0001
0100
0010
1000
0001
,
0100
0001
1000
0010
0100
0001
0010
0100
,
1000
0100
0010
0001
1000
0001
0100
0001
,
1000
0010
1000
0100
0001
1000
0010
1000
,
0001
0010
0001
1000
0000
0000
0110
0000
,
0110
0000
0000
0000
0000
0000
1001
0000
0000
1001
0000
0000
1001
0000
0000
0001
0010
0100
1001
0000
0000
1001
0000
0000
,
1001
1001
1001
1001
1001
0101
0011
0011
,
0011
0000
0011
0000
0011
0000
0011
0000
0011
0000
1001
0000
1100
0000
0011
0100
,
0000
1000
0100
0010
0001
0010
0001
0010
0100
0001
1000
0001
0100
0001
1000
0010
,
0001
0000
0000
1000
0000
0000
0010
0000
0000
0100
0000
0000
0001
0000
0000
0100
0000
0000
0010
0000
0000
1000
0000
0000
0001
0000
0000
0010
0000
0000
1000
0000
0000
0100
0000
0000
0010
0000
0001
0000
0000
0000
1000
0000
0010
0000
0000
0000
,
0100
0001
0000
0001
0010
0000
0100
1000
0000
0001
0100
0000
0010
1000
0000
0100
0001
0000
1000
0100
0000
0010
1000
0000
,
0001
0010
0000
0100
0001
0000
0010
0001
0000
0100
1000
0000
0010
0100
0000
0001
1000
0000
0100
0010
0000
1000
0001
0000
,
0010
0001
0000
0100
0010
0000
0100
1000
0000
0001
0100
0000
0010
1000
0000
0010
0100
0000
0001
1000
0000
0001
0010
0000
,
0100
0001
0000
1000
0100
0000
0010
1000
0000
0100
0001
0000
1000
0010
0000
0100
0001
0000
0010
1000
0000
0010
0001
0000
,
0100
0010
0000
1000
0100
0000
0001
0100
0000
0010
1000
0000
0010
0100
0000
0001
0010
0000
1000
0100
0000
0001
0010
0000
,
1000
0010
0000
0001
0100
0000
1000
0001
0000
0010
0100
0000
1000
0001
0000
0010
0100
0000
0010
0001
0000
1000
0100
0000
,
0010
1000
0000
0001
0010
0000
0001
0100
0000
0010
1000
0000
0100
0001
0000
1000
0010
0000
0001
1000
0000
0010
1000
0000
,
0001
0010
0000
0100
0001
0000
1000
0010
0000
0010
0100
0000
1000
0001
0000
0010
0001
0000
0100
0010
0000
0001
1000
0000
,
0001
0010
0000
0100
0001
0000
0100
0010
0000
1000
0010
0000
0100
0001
0000
1000
0001
0000
0010
0100
0000
0001
1000
0000
,
0010
0100
0000
0001
1000
0000
0100
0001
0000
1000
0010
0000
0100
0001
0000
1000
0010
0000
0100
0001
0000
0001
0010
0000
,
0010
0100
0000
1000
0100
0000
0010
0001
0000
0100
0010
0000
1000
0001
0000
0010
0100
0000
1000
0010
0000
0100
0001
0000
,
0001
0100
0000
1000
0010
0000
0100
0001
0000
0010
1000
0000
0001
0100
0000
1000
0001
0000
0110
0000
0000
0000
0000
0000
,
1010
0000
0000
0100
0011
0000
1010
0000
,
0101
0000
0000
0010
1100
0000
0101
0000
,
1001
0000
0000
0010
0101
0000
1100
0000
,
0110
0000
0000
1000
0110
0000
0011
0000
,
1100
0000
0000
0010
1100
0000
0011
0000
,
1100
0000
0000
0010
1001
0000
1100
0000
,
0110
0000
0000
1000
0011
0000
0110
0000
,
0101
0000
0000
0010
1001
0000
1100
0010
,
0001
0100
0010
1000
0001
0010
0000
0010
,
0100
0001
1000
0100
0001
1000
0010
0100
,
0001
1000
0010
0100
0001
1000
0001
0010
,
0001
0100
0010
1000
0100
0010
1001
0010
,
0100
0001
1000
0001
0010
0100
0000
0100
,
1000
0001
1000
0100
0010
1000
0001
0010
,
0001
0100
0010
1000
0100
0001
1000
0010
,
0100
0001
0010
0100
1000
0100
0021
0000
,
0230
0000
0302
0000
2003
0100
3000
0020
,
0230
0302
0023
0000
0230
0000
2300
0000
,
0000
3002
0000
0023
,
0000
0230
0000
2300
,
3200
0000
0320
0000
2030
0001
3000
0200
,
0320
2030
3002
0000
0203
0000
0320
0000
,
0000
0230
0000
2300
,
0000
0000
0000
0000
3002
0000
0000
0000
0000
0000
0000
0000
1003
0100
0010
1000
,
0100
0000
0000
0010
0000
0000
1000
0000
0000
0100
0000
0000
0010
0000
1000
0000
0100
0000
0010
0000
1000
0000
0100
0000
0010
0000
0000
1000
0000
0000
0100
0000
0000
0001
0000
0000
1010
0000
0000
0000
0000
0000
0000
0000
0000
0000
0000
0000
,
1010
0000
0000
0000
0101
0000
0011
0000
1100
0000
0110
0000
0011
0000
1010
0001
,
0000
0010
1000
0100
0010
1000
0001
0010
0100
1000
0010
0100
0001
0010
0100
1000
,
0010
0001
0100
0010
1000
0001
0100
0010
1000
0100
0010
0001
1100
0000
1100
0000
,
1100
1100
1010
0101
0011
0110
1001
1001
,
1001
1001
0011
0110
1001
1100
0011
0011
,
0011
0011
0101
1010
0101
0011
0110
0110
,
0110
0000
0110
0000
1100
0000
1010
0000
0101
0000
0011
0000
0100
0010
0100
0010
,
0100
0000
0000
0000
0000
0000
0000
0000
0000
0000
0000
0000
0010
0000
0000
0000
0000
0000
0000
0000
0000
0000
0000
0000
0100
0000
0000
0000
0000
0000
0000
0000
0000
0000
0000
0000
0010
0000
0000
0000
0000
0000
0000
0000
0000
0000
0000
0000
0100
0000
0000
0000
0000
0000
0010
0000
0000
0000
0000
0000
0000
0000
0000
0000
0100
0000
0000
0000
0000
0000
0000
0000
0010
0000
0000
0000
0000
0000
0000
0000
0000
0000
0000
0000
0100
0000
0000
0000
0000
0000
0000
0000
0000
0000
0000
0000
0010
0000
0000
0000
0000
0000
0000
0000
0000
0000
0000
0000
0100
0000
0000
0000
0000
0000
0000
0000
0000
0000
0000
0000
0010
0000
0000
0000
0000
0000
0000
0000
0000
0000
0000
0000
0100
0000
0000
0000
0000
0000
0000
0000
0000
0000
0000
0000
0011
0000
0000
0000
0000
0000
0000
0000
0000
0000
0000
0000
0000
0000
0000
0000
0000
0000
0000
0000
0000
0000
0000
0000
0000
0000
0000
0000
0000
0000
0000
0000
0000
0000
0000
0000
0000
0000
0000
0000
0000
0000
0000
0000
0000
0000
0000
0000
,
1100
0000
0000
0000
0101
0000
1001
0000
0011
0000
0110
0000
1100
0000
0101
1000
,
0000
0100
0001
0010
0100
0001
1000
0100
0010
0001
0100
0010
1000
0100
0010
0001
,
0100
0000
0000
1000
0000
0000
0010
0000
0000
0100
0000
0000
0001
0000
0000
1000
0000
0000
0010
0000
0000
0100
0000
0000
0001
0000
0000
0010
0000
0000
0100
0000
0000
1000
0000
0000
0001
0000
0010
0000
0000
0000
0100
0000
0001
0000
0000
0000
,
1000
0100
0000
0010
1000
0000
0001
0100
0000
1000
0001
0000
0100
0010
0000
1000
0100
0000
0010
0001
0000
0010
0100
0000
,
0001
1000
0000
0010
0100
0000
1000
0001
0000
1000
0100
0000
0010
1000
0000
0001
0010
0000
0100
0001
0000
1000
0010
0000
,
0100
0001
0000
0100
0010
0000
1000
0010
0000
0100
0001
0000
1000
0001
0000
0010
0100
0000
1000
0001
0000
0100
0010
0000
,
1000
0000
0100
0000
0000
0000
0010
0000
0001
0000
0000
0000
0001
0000
0010
0000
0000
0000
1000
0000
0001
0000
0000
0000
0100
0000
0010
0000
0000
0000
0010
0000
1000
0000
0000
0000
0001
0000
0000
0100
0000
0000
0001
0000
0000
0100
0000
0000
,
0010
1000
0100
0010
0001
1000
0001
0100
0001
1000
0100
0010
1000
0010
0100
0010
,
1000
0010
0100
0001
1000
0010
0001
0100
0001
1000
0001
0010
0100
0001
1000
0100
,
0001
1000
0010
1000
0001
0010
0100
1000
0100
0010
1000
0100
0010
0001
0010
0001
,
0100
0001
1000
0010
0100
0001
0100
0001
0100
0001
0100
0010
1000
0001
1000
0001
,
1000
0001
1000
0001
1000
0010
1000
0010
1000
0010
1000
0010
0100
0010
0100
0010
,
0100
0010
0100
0010
0001
0010
0001
0010
0001
0010
0001
0010
0001
0100
0001
1000
,
0010
0100
0001
0100
0010
1000
0100
0010
0001
0010
0001
0100
0010
1000
0001
1000
,
0100
0001
1000
0001
1000
0010
0100
0001
1000
0010
1000
0001
0010
0100
0001
1000
,
0100
0010
1000
0010
0001
0100
0001
1000
0010
0100
0001
0010
0001
0100
0010
1000
,
0010
0100
1000
0001
0100
0010
1000
0100
0010
1000
0001
0010
0001
1000
0100
0010
,
1000
0010
0100
0001
0100
0010
1000
0010
0100
1000
0010
0100
0010
0001
0100
0010
,
1000
0010
0001
0010
0001
0100
0010
1000
0001
0100
0010
1000
0101
0000
0000
0000
,
0100
0100
0010
0000
;
