#TITLE:Cowboy Bebop;
#SUBTITLE:- Tank;
#ARTIST:Luke Vibert;
#TITLETRANSLIT:;
#SUBTITLETRANSLIT:;
#ARTISTTRANSLIT:;
#CREDIT:;
#BANNER:CowboyBebopLogo.png;
#BACKGROUND:CowboyBebopBG.png;
#LYRICSPATH:;
#CDTITLE:;
#MUSIC:Tank.mp3;
#OFFSET:-0.023;
#SAMPLESTART:42.483;
#SAMPLELENGTH:12.000;
#SELECTABLE:YES;
#BPMS:0.000=140.960;
#STOPS:;
#BGCHANGES:0.000=cowboybebop.avi=1.000=0=0=1,
190.750=cowboybebopbg.png=1.000=0=0=1,
99999=-nosongbg-=1.000=0=0=0 // don't automatically add -songbackground-
;
// cache tags:
#FIRSTBEAT:8.500;
#LASTBEAT:194.250;
#SONGFILENAME:Songs/Anime Songs/CowboyBebop/CowboyBebop.sm;
#HASMUSIC:1;
#HASBANNER:1;
#MUSICLENGTH:91.820;
// end cache tags

//---------------dance-single - BASIC----------------
#NOTES:
     dance-single:
     BASIC:
     Easy:
     1:
     0.103,0.106,0.011,0.054,0.005,60.000,1.000,5.000,0.000,0.000:





0000
0000
0000
0000
,
0000
0000
0000
0000
,
0000
0000
0000
0000
,
0000
1000
0000
0000
0000
0000
0000
0000
,
0000
0001
0000
0000
0000
0000
0000
0000
,
0000
0010
0000
0000
0000
0000
0000
0000
,
0000
0100
0000
0000
0000
0000
0000
0000
,
0000
0100
0000
0100
0000
0100
0000
0000
,
0000
2000
0000
0000
0000
0000
0000
0000
,
0000
3000
0000
0000
0000
0000
0000
0000
,
0000
0002
0000
0000
0000
0000
0000
0000
,
0000
0003
0000
0000
0000
0000
0000
0000
,
0000
2000
0000
0000
0000
0000
0000
0000
,
0000
3000
0000
0000
0000
0000
0000
0000
,
0000
0002
0000
0000
0000
0000
0000
0000
,
0000
0003
0000
0000
0000
0000
0000
0000
,
0000
1000
0000
0000
0000
1000
0000
0000
,
0000
0001
0000
0000
0000
0001
0000
0000
,
0000
0000
0000
0000
0000
0100
0000
0000
,
0000
0010
0000
0000
0000
0001
0000
0000
,
0000
1000
0000
0000
0000
0001
0000
0000
,
0000
0010
0000
0000
0000
1000
0000
0000
,
0000
0001
0000
0000
0000
0100
0000
0000
,
0000
0100
0000
0000
0000
0001
0000
0000
,
0000
1000
0000
0000
0000
0000
0000
0000
,
0000
0000
0000
0000
,
0000
0002
0000
0000
0000
0000
0000
0000
,
0000
0000
0000
0003
0000
0000
0000
0000
,
0000
0000
0000
0010
0000
0000
0000
0001
,
0000
0000
0000
1000
0000
0000
0000
0100
,
0000
0000
0000
0010
0000
0000
0000
0001
,
0000
0000
0000
1000
0000
0000
0000
1000
,
0000
0000
0000
1000
0000
0000
0000
1000
,
0000
0000
0000
0001
0000
0000
0000
0001
,
0000
0000
0000
0001
0000
0000
0000
0001
,
0000
0000
0000
0010
0000
0000
0000
0010
,
0000
0000
0000
0100
0000
0000
0000
0100
,
0000
0000
0000
0000
,
0000
0000
0000
0000
,
0000
0000
0000
0000
,
0000
0000
0000
0010
0000
0000
0000
1000
,
0000
0000
0000
0001
0000
0000
0000
1000
,
0000
0000
0000
0001
0000
0000
0000
0010
,
0000
0000
0000
0010
0000
0000
0000
0010
,
0000
0000
0000
0010
0000
0000
0000
0100
,
0000
0000
0000
0100
0000
0000
0000
0100
,
0000
0000
0000
0100
0000
0000
0000
0000
,
0000
0000
0000
0000
,
0000
0000
0000
0000
0000
0000
0000
0000
0000
1001
0000
0000
0000
0000
0000
0000;

//---------------dance-single - ANOTHER----------------
#NOTES:
     dance-single:
     ANOTHER:
     Medium:
     4:
     0.257,0.264,0.120,0.131,0.005,142.000,11.000,12.000,0.000,0.000:





0000
0000
0000
0000
,
0000
0000
0000
0000
,
0000
0000
0000
0000
,
0000
1000
0000
1000
0000
1000
0000
1000
,
0000
0001
0000
0001
0000
0001
0000
0001
,
0000
1000
0000
1000
0000
1000
0000
1000
,
0000
0001
0000
0001
0000
0001
0000
0001
,
0000
1001
0000
1001
0000
1001
0000
0000
,
0000
2000
0000
0001
0000
0001
0000
0001
,
0000
3001
0000
0000
0000
1001
0000
0000
,
0000
0002
0000
1000
0000
1000
0000
1000
,
0000
1003
0000
0000
0000
1001
0000
0000
,
0000
2000
0000
0001
0000
0001
0000
0001
,
0000
3001
0000
0000
0000
1001
0000
0000
,
0000
0002
0000
1000
0000
1000
0000
1000
,
0000
1003
0000
0000
0000
1001
0000
0000
,
0000
0010
0000
0010
0000
0010
0000
0110
,
0000
0100
0000
0100
0000
0100
0000
0110
,
0000
0001
0000
0100
0000
1000
0000
0100
,
0000
0001
0000
0100
0000
1000
0000
0100
,
0000
0001
0000
0100
0000
1000
0000
0001
,
0000
1000
0000
0001
0000
0010
0000
0001
,
0000
1000
0000
0100
0000
0010
0000
1000
,
0000
0001
0000
0100
0000
1000
0000
0010
,
0000
0001
0000
0100
0000
1000
0000
0001
,
0000
1000
0000
0001
0000
1000
0000
0001
,
0000
0220
0000
0000
0000
0000
0000
0000
,
0000
0000
0000
0330
0000
0000
0000
0000
,
0000
1000
0000
0100
0000
0001
0000
0100
,
0000
1000
0000
0100
0000
0001
0000
0010
,
0000
1000
0000
0010
0000
0001
0000
0010
,
0000
1000
0000
0010
0000
0001
0000
1000
,
0000
0001
0000
1000
0000
0100
0000
0010
,
0000
0100
0000
0010
0000
1000
0000
0001
,
0000
1000
0000
0001
0000
0100
0000
1000
,
0000
0010
0000
0001
0000
0100
0000
1000
,
0000
0010
0000
0001
0000
0100
0000
1000
,
0000
0001
0000
1000
0000
0001
0000
0010
,
0000
0100
0000
1000
0000
0001
0000
0200
,
0000
0000
0000
0000
,
0300
0000
0020
0000
0000
2000
0000
0000
,
0000
0000
0000
3030
,
0000
0020
0000
0000
0002
0000
0000
0000
,
0000
0000
0000
0000
0000
0033
0000
0000
,
0000
0100
0000
0100
0000
0100
0000
0100
,
0000
0100
0000
0100
0000
0100
0000
0100
,
0000
0200
0000
0000
0000
0000
0000
0000
,
0000
0000
0000
0000
,
0000
0000
0000
0000
0000
0000
0300
0000
0000
1001
0000
0000
0000
0000
0000
0000;

//---------------dance-single - MANIAC----------------
#NOTES:
     dance-single:
     MANIAC:
     Hard:
     8:
     0.490,0.635,0.152,0.174,0.343,285.000,14.000,16.000,0.000,0.000:

0000
0000
0000
0000
,
0000
0000
0000
0000
,
0000
1000
0100
0010
0001
1000
0100
0010
,
0001
1000
0100
0010
0001
1000
0100
0010
,
0001
0100
0001
1000
0010
0100
0001
1000
,
0010
1000
0100
0001
0010
1000
0100
0001
,
0010
0002
0000
0000
0000
0000
1000
1003
,
0000
1001
0000
0110
0000
1001
1000
1000
,
0000
0000
1000
0100
0000
1000
0100
0000
1000
0100
0000
1000
0200
0000
0000
0000
,
0310
0000
0000
0000
1000
0100
1000
0000
,
0000
0000
0001
0100
0000
0001
0100
0000
0001
0100
0000
0001
0200
0000
0000
0000
,
0310
0000
0000
0000
0001
0100
0001
0000
,
0000
0000
1000
0001
0000
1000
0001
0000
1000
0001
0000
1000
0002
0000
0000
0000
,
1003
0000
0000
0000
0100
0001
0100
0000
,
0000
0000
0010
0100
0000
0010
0100
0000
0010
0100
0000
0010
0200
0000
0000
0000
,
0310
0000
0000
0000
0100
1000
0100
0000
,
0000
0000
0000
0010
0010
0000
0000
0000
0000
0010
0010
0000
0000
0000
1000
0001
,
0000
0000
0000
0100
0100
0000
0000
0000
0000
0100
0100
0000
0000
0000
1000
0001
,
0000
0020
0000
1000
0000
0001
0000
1000
,
0000
0130
0000
1000
0000
0001
0001
0000
,
1001
0000
0010
1000
0001
0100
0010
1000
,
0001
1000
0001
1000
0001
1000
0100
0010
,
0001
1000
0100
0010
0001
0100
0010
0100
,
0010
0100
0010
0010
0001
1000
0100
0010
,
0001
1000
1000
0001
0010
0100
1000
0001
,
0010
0100
1000
0001
1000
0001
1000
0001
,
0000
1000
1000
1000
0000
0001
0001
0001
,
0000
1000
1000
1000
0000
0000
0000
1001
,
0000
0000
1000
0100
0000
1000
0100
0000
1000
0100
0000
1000
0200
0000
0000
0000
,
0310
0000
0000
0010
0100
0010
0100
0010
,
0000
0000
0001
0100
0000
0001
0100
0000
0001
0100
0000
0001
0200
0000
0000
0000
,
0310
0000
0000
0010
0100
0010
0100
0010
,
0000
0000
1000
0001
0000
1000
0001
0000
1000
0001
0000
1000
0002
0000
0000
0000
,
1003
0000
0000
1000
0001
1000
0001
1000
,
0000
0000
0010
0100
0000
0010
0100
0000
0010
0100
0000
0010
0200
0000
0000
0000
,
0310
0000
0000
1000
0001
1000
0001
1000
,
0000
0000
0000
0100
0100
0000
0000
0000
0000
0100
0100
0000
0000
0000
1000
0001
,
0000
0000
0000
0010
0010
0000
0000
0000
0000
0010
0010
0000
0000
0000
1000
0001
,
0000
0000
0000
1000
1000
0000
0000
0000
0000
0001
0001
0000
0000
0000
1000
0001
,
0000
0000
0000
0000
0100
0100
0000
0000
0000
0000
0010
0020
0000
0000
0000
0000
,
0030
0000
2000
0000
0001
0200
0000
0000
,
0000
0000
0000
0000
3300
0000
1000
1000
,
0000
0000
0002
0000
0000
0000
0000
1000
0000
0200
0000
0000
0000
0000
0000
0000
,
0000
0000
0000
0303
0000
0000
0001
0001
,
0000
1010
0000
0011
0000
1010
0000
0011
,
0000
1100
0000
0101
0000
1100
0000
0101
,
0000
0000
0110
0000
0000
0000
1000
0001
1000
0001
1000
0001
1000
0001
1000
0001
,
1000
0001
1000
0001
1000
0001
1000
0001
1000
0001
1000
0002
0000
0000
0000
0000
,
0000
0000
0000
0000
0000
0000
0000
0000
0000
1003
0000
0000
0000
0000
0000
0000;
