#TITLE:Chaotic Rain Dance;
#SUBTITLE:;
#ARTIST:GLoVE;
#TITLETRANSLIT:;
#SUBTITLETRANSLIT:;
#ARTISTTRANSLIT:;
#CREDIT:;
#BANNER:../fallback-bn.png;
#BACKGROUND:../fallback-bg.png;
#LYRICSPATH:;
#CDTITLE:monst3rjoe - cdtitle.png;
#MUSIC:Chaotic Rain Dance.ogg;
#OFFSET:1.493;
#SAMPLESTART:36.381;
#SAMPLELENGTH:12.000;
#SELECTABLE:YES;
#BPMS:0.000=158.001,36.000=144.001,52.000=139.001,80.000=158.002,96.000=172.003,146.500=172.100,148.000=159.003;
#STOPS:78.500=0.004
,79.000=0.003
,79.500=0.003
;
#BGCHANGES:;
// cache tags:
#FIRSTBEAT:36.000;
#LASTBEAT:172.000;
#SONGFILENAME:Songs/SSSC PACK/[Monst3rjoe ] - Chaotic Rain Dance/Chaotic Rain Dance.sm;
#HASMUSIC:1;
#HASBANNER:1;
#MUSICLENGTH:65.750;
// end cache tags

//---------------dance-single - Blank----------------
#NOTES:
     dance-single:
     Blank:
     Challenge:
     15:
     1.000,1.000,0.015,0.167,1.000,519.000,1.000,11.000,25.000,1.000:

0000
0000
0000
0000
,
0000
0000
0000
0000
,
0000
0000
0000
0000
,
0000
0000
0000
0000
,
0000
0000
0000
0000
,
0000
0000
0000
0000
,
0000
0000
0000
0000
,
0000
0000
0000
0000
,
0000
0000
0000
0000
,
0001
0010
0001
1000
0100
1000
0010
0100
0010
1000
0100
1000
0001
0010
0001
1000
,
0100
0010
0100
1000
0001
0100
0010
0100
0001
1000
0100
0010
0001
0100
0010
0100
,
0001
0010
0100
1000
0010
0100
0010
1000
0200
0000
0000
0000
0000
0000
0000
0000
,
2000
0000
0000
0000
0000
0000
3000
0000
2000
0000
0000
0000
0300
0000
0000
3000
,
0001
0100
0010
1000
0100
1000
0100
0010
0001
0010
0001
0100
0010
1000
0001
1000
0001
0100
0010
1000
0001
1000
0001
0100
,
0010
0100
0001
0010
0100
1000
0100
1000
0010
0100
0001
0100
0001
0010
0100
1000
0010
0100
0001
0010
0100
1000
0010
0100
,
0001
0010
0001
0100
0010
0100
0001
1000
0100
1000
0010
0100
0010
1000
0100
0010
0001
0100
0010
0100
0001
0010
0100
1000
,
0010
0100
0010
1000
0100
1000
0001
0100
0001
1000
0010
0100
0001
0010
0100
1000
0001
0010
0001
1000
0100
1000
0001
0100
,
0001
1000
0010
1000
0010
0100
0001
0100
0001
0010
0100
1000
0010
0100
0001
0010
0001
0100
0010
0100
0001
1000
0010
1000
,
0100
0010
0100
1000
0001
0010
0100
1000
0001
0010
0001
1000
0100
1000
0001
0100
0001
1000
0010
0100
0001
1000
0100
0010
,
0002
0000
0000
0000
0000
0000
0000
0003
,
0200
0000
0310
1000
0000
0100
0100
0000
0010
0002
0000
0100
,
0103
0000
0000
0000
0010
0000
1000
0000
0000
0001
0000
0000
0000
0000
0000
0000
0100
0000
0010
0000
0000
0000
0000
0000
,
1000
0000
1000
0100
0000
0010
0001
0000
0100
0100
0000
0010
,
1000
0000
0000
0000
0001
0000
0010
0000
0000
0100
0000
0000
0000
0000
0000
0000
1000
0000
2000
0000
0000
0000
0000
0000
,
3010
0100
0001
0100
0010
0100
0001
0100
0010
0100
0001
0100
0010
0100
0001
0100
,
0001
0000
0100
0000
0001
0000
0100
0000
0001
0000
0100
0000
0001
0000
0100
0000
0001
0000
0100
0000
0001
0000
0100
0000
0001
0000
0100
0000
0001
0000
0100
0000
0001
0000
0100
0000
0001
0000
0000
0010
0000
0000
0100
0000
0000
1000
0000
0000
,
0100
0010
0100
1000
0100
0010
0100
1000
0100
0010
0100
1000
0100
0010
0100
1000
,
0100
0000
1000
0000
0100
0000
1000
0000
0100
0000
1000
0000
0100
0000
1000
0000
0100
0000
1000
0000
0100
0000
1000
0000
0100
0000
1000
0000
0100
0000
1000
0000
0100
0000
1000
0000
0100
0000
0000
0010
0000
0000
0001
0000
0000
0100
0000
0000
,
0010
0100
0010
1000
0001
0100
0001
0100
0010
1000
0001
0100
0001
0100
0010
1000
0010
0100
0001
1000
0001
0100
0001
0100
,
0010
1000
0001
1000
0010
1000
0001
1000
0010
1000
0001
1000
0100
0010
0100
1000
,
0001
0000
1000
0000
0001
0000
1000
0000
0001
0000
1000
0000
0001
0000
1000
0000
0001
0000
1000
0000
0001
0000
1000
0000
0001
0000
1000
0000
0001
0000
1000
0000
0001
0000
1000
0000
0001
0000
0000
0100
0000
0000
0010
0000
0000
1000
0000
0000
,
0001
0010
0100
0010
0001
0010
0100
0010
0001
0010
0100
0010
0001
0010
0100
0010
,
0001
0000
0100
0000
0001
0000
0100
0000
0001
0000
0100
0000
0001
0000
0100
0000
0001
0000
0100
0000
0001
0000
0100
0000
0001
0000
0100
0000
0001
0000
0100
0000
0001
0000
0100
0000
0001
0000
0000
1000
0000
0000
0010
0000
0000
0100
0000
0000
,
0001
1000
0001
1000
0010
0100
0010
0100
0001
1000
0001
1000
0100
1000
0100
0010
0001
0010
0001
1000
0001
1000
0010
0100
,
0000
MMMM
0000
0000
0000
0000
0000
0000
,
0222
0000
0000
0000
,
0333
0000
0000
2000
0000
0000
0000
0000
,
3010
0010
0010
0010
M100
0100
0100
0100
00M1
0001
0001
0001
M010
0010
0010
0010
,
010M
0100
1000
1000
00M1
0001
0100
0100
0010
0010
1000
1000
0M01
0001
0010
0010
,
010M
0100
1000
1000
0001
0001
00M1
0001
0100
0100
M100
0100
0001
0001
0010
0100
,
100M
1000
1000
0100
0010
0010
M001
0010
0010
0100
1000
1000
00M1
0001
0100
0100
,
0010
0010
1000
1000
0M10
0010
0010
0100
001M
0010
1M00
10M0
010M
0100
M010
0010
,
0M10
0000
0000
0001
0000
0000
10M0
0000
0000
1000
0000
0000
010M
0000
0000
0100
0000
0000
0010
0000
0000
0010
0000
0000
0001
0000
0000
0100
0000
0000
0001
0000
0000
0100
0000
0000
0001
0000
0000
0100
0000
0000
0001
0100
0001
0100
0001
0100
,
0001
0000
0000
0000
;
