#TITLE:The legend of MAX tribute;
#SUBTITLE:;
#ARTIST:;
#TITLETRANSLIT:;
#SUBTITLETRANSLIT:;
#ARTISTTRANSLIT:ZZ;
#CREDIT:;
#BANNER:The legend of MAX tribute-bn.png;
#BACKGROUND:The legend of MAX tribute-bg.png;
#LYRICSPATH:;
#CDTITLE:;
#MUSIC:The legend of MAX tribute.mp3;
#OFFSET:-5.440;
#SAMPLESTART:22.618;
#SAMPLELENGTH:12.000;
#SELECTABLE:YES;
#BPMS:0.000=360.000,524.000=720.000;
#STOPS:96.000=0.680
,363.000=1.200
,371.000=1.400
,379.000=1.260
;
#BGCHANGES:;
// cache tags:
#FIRSTBEAT:0.000;
#LASTBEAT:556.000;
#SONGFILENAME:Songs/toune 3/The legend of MAX tribute/The legend of MAX tribute.sm;
#HASMUSIC:1;
#HASBANNER:1;
#MUSICLENGTH:101.727;
// end cache tags

//---------------dance-single - ----------------
#NOTES:
     dance-single:
     :
     Easy:
     7:
     0.604,0.888,0.688,0.767,0.000,282.000,70.000,78.000,0.000,0.000:
1000
0000
1000
0000
,
0000
0000
0000
0000
,
0001
0000
0001
0000
,
0000
0000
0000
0000
,
0010
0000
0010
0000
,
0000
0000
0000
0000
,
0100
0000
0010
0000
,
0100
0000
0000
0000
,
1001
0000
0000
0000
,
1000
0000
0000
0000
,
0001
0000
0000
0000
,
0010
0000
0000
0000
,
0100
0000
0000
0000
,
1000
0000
0000
0000
,
0001
0000
0000
0000
,
0010
0000
0000
0000
,
0100
0000
0010
0000
,
0001
0000
0100
0000
,
1000
0000
0100
0000
,
0010
0000
0001
0000
,
0100
1000
0100
0000
,
1000
0100
0010
0000
,
0010
0100
1000
0000
,
0001
0010
0100
1000
,
1001
0000
0000
0000
,
0110
0000
2002
0000
,
0000
0000
0000
3003
,
0000
0000
0000
0010
,
0001
0000
0000
0100
0000
0000
0010
0000
,
0100
0000
0000
0000
,
0001
0000
0000
1000
0000
0000
0001
0000
,
0010
0000
0000
0100
,
1000
0000
0000
0001
0000
0000
1000
0000
,
0001
0000
0000
0000
,
1000
0000
0000
0100
0000
0000
0010
0000
,
0001
0000
0000
0001
,
0010
0000
0000
0100
0000
0000
0001
0000
,
1000
0000
0000
1000
,
0100
0000
0100
0000
,
0010
0000
0001
0000
,
0100
0000
0020
0030
,
1100
0101
0000
0010
,
0001
1000
0010
1000
,
0101
1100
0000
1000
,
0100
0001
0010
0100
,
2200
0000
0000
0000
0000
3300
0022
0000
,
0000
0000
0000
0033
2002
0000
0000
0000
,
0000
3003
2200
0000
0000
0000
0000
3300
,
0011
0000
1001
0000
,
1100
1100
0000
0001
,
0010
1000
0001
0100
,
1001
1100
0000
1000
,
0100
1000
0001
0010
,
2002
0000
0000
0000
0000
3003
0220
0000
,
0000
0330
0022
0000
,
0000
0033
2002
0000
0000
0000
0000
3003
,
1000
0000
0000
0000
0002
0000
0000
0003
,
1001
0001
0020
0000
,
0000
0030
1200
0000
0000
0300
0012
0000
,
0000
0003
0001
0000
1000
0000
0100
0000
,
2000
0000
0000
3000
0022
0000
0000
0033
,
1001
0100
0002
0000
,
0000
0003
2100
0000
0000
3000
0012
0000
,
0000
0003
1001
0000
0001
0000
0010
0000
,
0200
0000
0000
0300
2200
0000
0000
3300
,
0010
0000
0001
0000
,
0010
0000
0100
0000
,
1000
0000
0100
0000
,
0010
0000
0100
0000
,
0001
0000
0010
0000
,
0100
0000
1000
0000
,
0100
0000
0010
0000
,
0001
0000
0100
0000
,
1001
0010
0002
0000
,
0000
0003
2100
0000
0000
3000
0012
0000
,
0000
0003
1001
0000
0100
0000
0010
0000
,
0002
0000
0000
0003
2020
0000
0000
3030
,
0011
1000
0200
0000
,
0000
0300
0012
0000
0000
0003
1002
0000
,
0000
0003
1100
0000
0010
0000
0100
0000
,
0002
0000
0000
0003
0020
0000
0000
0030
,
1001
1000
0100
0000
,
0010
0000
0001
0000
,
0100
0000
0010
0000
,
1000
0000
0100
0000
,
0010
0000
0001
0000
,
0100
0000
0010
0000
,
0001
0010
0100
1000
,
1000
0100
0010
0001
,
1001
1100
0020
0000
,
0030
0000
0012
0000
0000
0003
2100
3000
,
1001
0011
0002
0000
,
0003
0000
0202
0000
0303
0000
2010
3000
,
1100
0011
0002
0000
,
0003
0000
2100
0000
0000
3000
0012
0003
,
1100
0011
2000
0000
,
0000
3000
0012
0000
0000
0003
2100
0000
,
0000
3000
0001
0000
0010
0000
0100
0000
,
1000
0000
0000
0001
0000
0000
0010
0000
,
1001
0000
0000
0000
0000
0000
0000
2200
,
0000
0000
0000
0000
0000
0000
0000
3300
,
0001
0000
0000
0000
0000
0000
0000
0022
,
0000
0000
0000
0000
0000
0000
0000
0033
,
1000
0000
0000
0000
0000
0000
0000
0220
,
0000
0000
0000
0000
0000
0000
0000
0330
,
0010
0000
0000
0000
0000
0000
0000
2002
,
0000
0000
0000
0000
0000
0000
0000
3003
,
0010
0000
0000
0000
0000
0000
0000
2020
,
0000
0000
0000
0000
0000
0000
0000
3030
,
0001
0000
0000
0000
0000
0000
0000
0202
,
0000
0000
0000
0000
0000
0000
0000
0303
,
0010
0000
0000
0000
0000
0000
0000
2020
,
0000
0000
0000
0000
0000
0000
0000
3030
,
0001
0000
0000
0000
0000
0000
0000
2002
,
0000
0000
0000
0000
0000
0000
0000
3003
,
1001
0001
0010
0000
,
0100
0000
1000
0000
,
0100
0010
0001
0000
,
0010
0000
0100
0000
,
1000
0001
1000
0000
,
0100
0010
0220
0330
,
0001
0010
0100
1000
,
0100
0010
0001
0100
,
0010
0001
0010
0000
,
0100
1000
0100
0000
,
0010
0001
0010
0000
,
0100
1000
0100
0000
,
0010
0001
0010
0100
,
1000
0100
0220
0330
,
1000
0100
0010
0001
,
0100
0010
0100
0010
,
2002
0000
0000
0000
,
0000
0000
0000
0000
,
0000
0000
0000
0000
,
0000
0000
0000
0000
,
0000
0000
0000
0000
,
0000
0000
0000
0000
,
0000
0000
0000
0000
,
0000
0000
0000
0000
,
3003
0000
0000
0000
;

//---------------dance-single - ----------------
#NOTES:
     dance-single:
     :
     Beginner:
     3:
     0.202,0.342,0.108,0.108,0.000,122.000,11.000,11.000,0.000,0.000:
1000
0000
0000
0000
,
0000
0000
0000
0000
,
0001
0000
0000
0000
,
0000
0000
0000
0000
,
0010
0000
0000
0000
,
0000
0000
0000
0000
,
0100
0000
0000
0000
,
0100
0000
0000
0000
,
1001
0000
0000
0000
,
0000
0000
0000
0000
,
0001
0000
0000
0000
,
0000
0000
0000
0000
,
0100
0000
0000
0000
,
0000
0000
0000
0000
,
0001
0000
0000
0000
,
0000
0000
0000
0000
,
0100
0000
0000
0000
,
0001
0000
0000
0000
,
1000
0000
0000
0000
,
0010
0000
0000
0000
,
0100
0000
0000
0000
,
1000
0000
0000
0000
,
0010
0000
0000
0000
,
0001
0000
0000
0000
,
0001
0000
0000
0000
,
0010
0000
2002
0000
,
0000
0000
0000
3003
,
0000
0000
0000
0000
,
0001
0000
0000
0000
,
0100
0000
0000
0000
,
0001
0000
0000
0000
,
0010
0000
0000
0000
,
1000
0000
0000
0000
,
0001
0000
0000
0000
,
1000
0000
0000
0000
,
0001
0000
0000
0000
,
0010
0000
0000
0000
,
1000
0000
0000
0000
,
0100
0000
0000
0000
,
0010
0000
0000
0000
,
0100
0000
0000
0000
,
1100
0000
0000
0000
,
0001
0000
0000
0000
,
0101
0000
0000
0000
,
0100
0000
0000
0000
,
2000
0000
0000
0000
0000
3000
0002
0000
,
0000
0000
0000
0003
0002
0000
0000
0000
,
0000
0003
2000
0000
0000
0000
0000
3000
,
0001
0000
0000
0000
,
1100
0000
0000
0000
,
0010
0000
0000
0000
,
1001
0000
0000
0000
,
0100
0000
0000
0000
,
0002
0000
0000
0000
0000
0003
0020
0000
,
0000
0000
0000
0030
0002
0000
0000
0000
,
0000
0003
2000
0000
0000
0000
0000
3000
,
1000
0000
0000
0000
,
1001
0000
0000
0000
,
0000
1000
0000
0001
,
0000
0001
0000
0000
,
0000
0000
0001
0000
,
0001
0000
0000
0000
,
0000
0001
0000
0100
,
0000
0010
0000
0000
,
0001
0000
1000
0000
,
0010
0000
0000
0000
,
0010
0000
0000
0000
,
1000
0000
0000
0000
,
0010
0000
0000
0000
,
0001
0000
0000
0000
,
0100
0000
0000
0000
,
0100
0000
0000
0000
,
0001
0000
0000
0000
,
1001
0000
0000
0000
,
0000
1000
0000
0001
,
0000
0001
0000
0000
,
0001
0000
1000
0000
,
0001
0000
0000
0000
,
0000
0010
0000
1000
,
0000
1000
0000
0000
,
0001
0000
0010
0000
,
1000
0000
0000
0000
,
0010
0000
0000
0000
,
0100
0000
0000
0000
,
1000
0000
0000
0000
,
0010
0000
0000
0000
,
0100
0000
0000
0000
,
0001
0000
0000
0000
,
0000
0000
0000
0000
,
1001
0000
0000
0000
,
0000
0000
0000
0000
,
0001
0000
0000
0000
,
0000
0000
0000
0000
,
0100
0000
0000
0000
,
0000
0000
0000
0000
,
1000
0000
0000
0000
,
0000
0001
0000
1000
,
0000
0001
0000
0000
,
1000
0000
0000
0000
,
1001
0000
0000
0000
,
0000
0000
0000
0000
,
0001
0000
0000
0000
,
0000
0000
0000
0000
,
1000
0000
0000
0000
,
0000
0000
0000
0000
,
0010
0000
0000
0000
,
0000
0000
0000
0000
,
0010
0000
0000
0000
,
0000
0000
0000
0000
,
0001
0000
0000
0000
,
0000
0000
0000
0000
,
0010
0000
0000
0000
,
0000
0000
0000
0000
,
0001
0000
0000
0000
,
0000
0000
0000
0000
,
1001
0000
0000
0000
,
0100
0000
0000
0000
,
0100
0000
0000
0000
,
0010
0000
0000
0000
,
1000
0000
0000
0000
,
0100
0000
0000
0000
,
0001
0000
0000
0000
,
0100
0000
0000
0000
,
0010
0000
0000
0000
,
0100
0000
0000
0000
,
0010
0000
0000
0000
,
0100
0000
0000
0000
,
0010
0000
0000
0000
,
1000
0000
0000
0000
,
1000
0000
0000
0000
,
0100
0000
0000
0000
,
0002
0000
0000
0000
,
0000
0000
0000
0000
,
0000
0000
0000
0000
,
0000
0000
0000
0000
,
0000
0000
0000
0000
,
0000
0000
0000
0000
,
0000
0000
0000
0000
,
0000
0000
0000
0000
,
0003
0000
0000
0000
;

//---------------dance-single - ----------------
#NOTES:
     dance-single:
     :
     Medium:
     9:
     0.838,1.000,1.000,1.000,0.000,359.000,119.000,119.000,0.000,0.000:
1001
0100
2000
0000
,
0000
0000
3000
0000
,
0011
1000
0002
0000
,
0000
0000
0003
0000
,
0011
1000
0020
0000
,
0000
0000
0030
0000
,
2200
3300
0022
0033
,
2200
3300
0220
0330
,
1001
0000
0010
0000
,
1000
0000
0010
0000
,
0001
0000
0100
0000
,
0010
0000
0001
0000
,
0100
0000
0010
0000
,
1000
0000
0100
0000
,
0001
0000
1000
0000
,
0010
0000
0000
0000
,
0100
0000
0010
0000
,
0001
0000
0100
0000
,
1000
0000
0100
0000
,
0010
0000
0001
0000
,
0100
1000
0100
0010
,
1000
0100
0010
0001
,
0010
0100
1000
0010
,
0001
0010
0100
1000
,
1001
0000
0000
0000
,
0110
0000
2002
0000
,
0000
0000
0000
0000
,
0000
0000
3003
0010
,
0001
0000
0000
0100
0000
0000
0010
0000
,
0100
1000
0100
0010
,
0001
0000
0000
1000
0000
0000
0001
0000
,
0010
0001
0010
0100
,
1000
0000
0000
0001
0000
0000
1000
0000
,
0001
0010
0001
0010
,
1000
0000
0000
0100
0000
0000
0010
0000
,
0001
0100
1000
0001
,
0010
0000
0000
0100
0000
0000
0001
0000
,
1000
0010
0001
1000
,
0100
0010
0100
0000
,
0010
1000
0001
0000
,
0100
0001
0010
0001
,
1100
0101
0000
0010
,
0001
1000
0010
1000
,
0101
1100
0000
1000
,
0100
0001
0010
0100
,
2200
0000
0000
0000
0000
3300
0022
0000
,
0000
0000
0000
0033
2002
0000
0000
0000
,
0000
3003
2200
0000
0000
0000
0000
3300
,
0022
0000
0000
0033
2002
0000
0000
3003
,
1100
1100
0000
0001
,
0010
1000
0001
0100
,
1001
1100
0000
1000
,
0100
1000
0001
0010
,
2002
0000
0000
0000
0000
3003
0220
0000
,
0000
0330
0022
0000
,
0000
0033
2002
0000
0000
0000
0000
3003
,
1000
0000
0010
0000
0001
1000
0100
0000
,
1001
0011
0220
0000
,
0000
0330
2200
0000
0000
3300
0022
0000
,
0000
0033
0101
0000
1010
0000
0101
0000
,
2200
0000
0000
3300
0022
0000
0000
0033
,
1001
1100
0022
0000
,
0000
0033
2200
0000
0000
3300
0022
0000
,
0000
0033
1001
0000
0101
0000
1010
0000
,
0202
0000
0000
0303
2200
0000
0000
3300
,
0011
1000
0001
0100
,
0010
0001
0100
0010
,
1000
0001
0100
1000
,
0010
1000
0100
0010
,
0001
0100
0010
0001
,
0100
0010
1000
0001
,
0100
1000
0010
0100
,
0001
0010
0100
0010
,
1001
0110
0022
0000
,
0000
0033
2200
0000
0000
3300
0022
0000
,
0000
0033
1001
0000
0110
0000
1010
0000
,
0022
0000
0000
0033
2020
0000
0000
3030
,
0011
1001
0220
0000
,
0000
0330
0022
0000
0000
0033
2002
0000
,
0000
3003
1100
0000
0011
0000
0110
0000
,
2002
0000
0000
3003
0220
0000
0000
0330
,
1001
1000
0100
0001
,
0010
0100
0001
0010
,
0100
0001
0010
0001
,
1000
0010
0100
1000
,
0010
0100
0001
0010
,
0100
0001
0010
1000
,
0001
0010
0100
1000
,
1000
0100
0010
0001
,
1001
1100
0220
0000
,
0330
0000
0022
0000
0000
0033
2200
3300
,
1001
0011
0202
0000
,
0303
0000
0202
0000
0303
0000
2020
3030
,
1100
0011
0202
0000
,
0303
0000
2200
0000
0000
3300
0022
0033
,
1010
1001
2200
0000
,
0000
3300
0022
0000
0000
0033
2200
0000
,
0000
3300
0011
0000
0110
0000
0101
0000
,
1001
0000
0000
0101
0000
0000
0110
0000
,
1001
0000
0000
0000
0000
1000
0000
2200
,
0000
0000
0000
0000
0000
0000
0000
3300
,
0101
0000
0000
0000
0000
0001
0000
0022
,
0000
0000
0000
0000
0000
0000
0000
0033
,
1100
0000
0000
0000
0000
0010
0000
0220
,
0000
0000
0000
0000
0000
0000
0000
0330
,
0011
0000
0000
0000
0000
1000
0000
2002
,
0000
0000
0000
0000
0000
0000
0000
3003
,
0110
0000
0000
0000
0000
0010
0000
2020
,
0000
0000
0000
0000
0000
0000
0000
3030
,
1001
0000
0000
0000
0000
0001
0000
0202
,
0000
0000
0000
0000
0000
0000
0000
0303
,
1010
0000
0000
0000
0000
1000
0000
2020
,
0000
0000
0000
0000
0000
0000
0000
3030
,
0011
0000
0000
0000
0000
0001
0000
2002
,
0000
0000
0000
0000
0000
0000
0000
3003
,
1001
0001
0010
1000
,
0100
0001
1000
0010
,
1100
0010
0001
0100
,
0010
0001
0100
0001
,
1000
0001
1000
0010
,
0100
0010
0220
0330
,
0001
0010
0100
1000
,
0100
0010
0001
0100
,
1010
0001
0010
0000
,
0100
1000
0100
1000
,
0010
0001
0010
0000
,
0100
1000
0100
1000
,
0010
0001
0010
0100
,
1000
0100
0220
0330
,
1000
0100
0010
0001
,
0100
0010
0100
0010
,
2002
0000
0000
0000
,
0000
0000
0000
0000
,
0000
0000
0000
0000
,
0000
0000
0000
0000
,
0000
0000
0000
0000
,
0000
0000
0000
0000
,
0000
0000
0000
0000
,
0000
0000
0000
0000
,
3003
0000
0000
0000
;

//---------------dance-single - ----------------
#NOTES:
     dance-single:
     :
     Hard:
     11:
     1.000,1.000,1.000,1.000,0.000,637.000,132.000,114.000,0.000,0.000:
1001
0110
2002
0000
,
0000
0000
3003
0000
,
0011
1100
2002
0000
,
0000
0000
3003
0000
,
0011
1001
0220
0000
,
0000
0000
0330
0000
,
2200
3300
0022
0033
,
2200
3300
0220
0330
,
1001
0000
0010
0000
,
1000
0000
0010
0000
,
0001
0000
0100
0000
,
0010
0000
0001
0000
,
0100
0000
0010
0000
,
1000
0000
0100
0000
,
0001
0000
1000
0000
,
0010
0000
0001
0000
,
0100
1000
0010
1000
,
0001
0010
0100
0010
,
1000
0001
0100
1000
,
0010
1000
0001
0010
,
0100
1000
0100
0010
,
1000
0100
0010
0001
,
0010
0100
1000
0010
,
0001
1000
0010
1000
0100
0010
1000
0010
,
1001
0000
0000
0000
,
0110
0000
0000
0000
2002
3000
0020
0030
,
0200
0300
0020
0030
2000
3000
0200
0300
,
0020
0030
0200
0300
2000
3003
0010
0000
,
0101
0000
0000
1100
0000
0000
0011
1000
,
0100
0001
1000
0001
0100
1000
0010
1000
,
0101
0000
0000
1010
0000
0000
0011
1000
,
0010
1000
0001
0100
0010
0001
0100
0001
,
1010
0000
0000
0101
0000
0000
1001
0100
,
0001
0100
0010
1000
0001
0100
0010
0100
,
1001
0000
0000
0101
0000
0000
0110
1000
,
0001
0010
0100
0001
1000
0010
0001
0100
,
0011
0000
0000
1100
0000
0000
0101
0010
,
1000
0100
0010
0100
0001
0010
1000
0001
,
0100
0001
0010
0001
0100
0001
0100
1000
,
0010
0100
1000
0010
0001
1000
0100
0010
,
0100
0000
0001
0000
0010
1000
0001
0000
,
1100
0000
0101
0000
0000
0000
0010
1000
,
0001
0100
1000
0001
0010
0100
1000
0010
,
0101
0000
1100
0000
0000
0000
1000
0010
,
0100
0010
0001
1000
0010
1000
0100
0001
,
2200
0000
0000
0000
0000
3300
0022
0000
,
0000
0000
0000
0033
2002
0000
0000
0000
,
0000
3003
2200
0000
0000
0000
0000
3300
,
0022
0000
0000
0033
2002
0000
0000
3003
,
1100
0000
1100
0000
0000
0000
0001
0100
,
0010
0100
1000
0010
0001
1000
0100
0010
,
1001
0000
1100
0000
0000
0000
1000
0010
,
0100
0001
1000
0010
0001
1000
0010
0100
,
2002
0000
0000
0000
0000
3003
0220
0000
,
0000
0330
0022
0000
,
0000
0033
2002
0000
0000
0000
0000
3003
,
1000
0000
0010
0000
0001
1000
0100
0000
,
1001
0011
0220
0300
,
0130
0000
2200
0000
0000
3300
0022
0000
,
0000
0033
0101
0000
1010
0000
0101
0000
,
2200
0000
0000
3300
0022
0000
0000
0033
,
1001
1100
0022
0030
,
0013
0000
2200
0000
0000
3300
0022
0000
,
0000
0033
1001
0000
0101
0000
1010
0000
,
0202
0000
0000
0303
2200
0000
0000
3300
,
0011
0100
1000
0000
0001
0010
0100
0000
,
0010
1000
0001
0000
0100
0001
0010
0000
,
1000
0010
0001
0000
0100
0010
1000
0000
,
0010
0001
1000
0000
0100
1000
0010
0000
,
0001
1000
0100
0000
0010
1000
0001
0000
,
0100
0001
0010
0000
1000
0100
0001
0000
,
0100
0010
1000
0000
0010
0001
0100
0000
,
0001
1000
0010
1000
0100
1000
0010
0100
,
1001
0110
0022
0030
,
0013
0000
2200
0000
0000
3300
0022
0000
,
0000
0033
1001
0000
0110
0000
1010
0000
,
0022
0000
0000
0033
2020
0000
0000
3030
,
0011
1001
0220
0030
,
0301
0000
0022
0000
0000
0033
2002
0000
,
0000
3003
1100
0000
0011
0000
0110
0000
,
2002
0000
0000
3003
0220
0000
0000
0330
,
1001
0010
1000
0000
0100
1000
0001
0000
,
0010
1000
0100
0000
0001
1000
0010
0000
,
0100
1000
0001
0000
0010
1000
0001
0000
,
1000
0001
0010
0000
0100
0001
1000
0000
,
0010
0001
0100
0000
0001
1000
0010
0000
,
0100
0010
0001
0000
0010
0100
1000
0000
,
0001
0010
0100
1000
,
1000
0001
0100
0001
0010
0100
0001
0010
,
1001
1100
0220
0000
,
0330
0000
0022
0000
0000
0033
2200
3300
,
1001
0011
0202
0000
,
0303
0000
0220
0000
0330
0000
2020
3030
,
1100
0011
0202
0000
,
0303
0000
2200
0000
0000
3300
0022
0033
,
1010
1001
2200
0000
,
0000
3300
0022
0000
0000
0033
2200
0000
,
0000
3300
0011
0000
0110
0000
0101
0000
,
1001
0000
0000
0101
0000
0000
0110
0000
,
0101
0010
0001
0010
0100
1000
0100
1000
,
0100
1000
0010
1000
0001
0100
0001
0010
,
0101
1000
0100
1000
0001
0100
0010
0001
,
1000
0001
0100
0010
0100
0010
0001
0010
,
1100
0010
0001
0100
0001
0010
1000
0100
,
1000
0010
0001
1000
0001
0100
0001
1000
,
0011
0100
1000
0010
0001
1000
0010
1000
,
0001
0100
0001
1000
0010
1000
0001
0010
,
1001
1000
0100
1000
0001
0010
1000
0001
,
1000
0100
0010
0001
1000
0010
0100
0001
,
1001
1000
0100
1000
0010
0001
1000
0100
,
1000
0001
0010
0001
0100
0001
0010
0001
,
1010
0001
0010
0100
0001
1000
0001
0010
,
1000
0100
1000
0100
1000
0010
0001
0100
,
0011
1000
0100
0001
0010
0001
0100
0001
,
0000
1000
0000
0001
0010
0100
1000
0000
,
1001
0010
0001
0100
0010
0001
1000
0001
,
0100
0010
0001
0100
1000
0001
0010
0001
,
1100
0001
0010
1000
0001
0010
0100
1000
,
0010
1000
0001
0010
0100
0010
0001
0010
,
1000
0100
0001
0010
1000
0001
0010
1000
,
0100
0001
0010
1000
0220
0000
0330
0000
,
0001
1000
0010
1000
0100
0001
1000
0001
,
0100
1000
0010
1000
0001
0010
0100
0001
,
1010
0100
0001
0100
0010
0100
1000
0010
,
0100
0001
1000
0010
0100
0001
1000
0100
,
0010
0100
0001
1000
0010
1000
0001
0010
,
0100
0001
1000
0001
0100
0001
1000
0100
,
0010
1000
0001
1000
0010
0001
0100
0010
,
1000
0001
0100
0001
0220
0000
0330
0000
,
1000
0001
0100
0001
0010
1000
0001
1000
,
0100
0001
0010
0001
0100
1000
0010
0100
,
2002
0000
0000
0000
,
0000
0000
0000
0000
,
0000
0000
0000
0000
,
0000
0000
0000
0000
,
0000
0000
0000
0000
,
0000
0000
0000
0000
,
0000
0000
0000
0000
,
0000
0000
0000
0000
,
3003
0000
0000
0000
;
