#TITLE:Sandstorm;
#SUBTITLE:;
#ARTIST:Darude;
#TITLETRANSLIT:;
#SUBTITLETRANSLIT:;
#ARTISTTRANSLIT:;
#CREDIT:;
#BANNER:BN.PNG;
#BACKGROUND:BG.PNG;
#LYRICSPATH:;
#CDTITLE:../CDTitleOV1.png;
#MUSIC:Darude - Sandstorm.ogg;
#OFFSET:-0.910;
#SAMPLESTART:43.223;
#SAMPLELENGTH:29.999;
#SELECTABLE:YES;
#BPMS:0.000=136.064;
#STOPS:;
#BGCHANGES:;
// cache tags:
#FIRSTBEAT:0.000;
#LASTBEAT:503.000;
#SONGFILENAME:Songs/owenviau1 Simfiles 07_final/Sandstorm - [owenviau1] v1.0.8/Darude - Sandstorm.sm;
#HASMUSIC:1;
#HASBANNER:1;
#MUSICLENGTH:224.574;
// end cache tags

//---------------dance-single - 32.99 (Spread) (mist----------------
#NOTES:
     dance-single:
     32.99 (Spread) (mist:
     Beginner:
     33:
     1.000,1.000,1.000,0.031,1.000,3084.000,1064.000,7.000,0.000,17.000:
2002
0000
0000
0000
,
3003
0000
0000
0000
,
0000
0000
0000
0000
0000
0000
0000
0000
1100
0000
0000
1100
0000
0000
1100
0000
,
1001
0000
0000
0011
0000
0000
0011
0000
0101
0000
0000
0101
0000
0000
0101
0000
,
0110
0000
0000
0110
0000
0000
1010
0000
1100
0000
0000
1100
0000
0000
1100
0000
,
1001
0000
0000
1001
0000
0000
1001
0000
0011
0000
0000
0011
0000
0000
0011
0000
,
0101
0000
0000
0101
0000
0000
0101
0000
1001
0000
0000
1001
0000
0000
1001
0000
,
1100
0000
0000
1100
0000
0000
1100
0000
1010
0000
0000
1010
0101
0000
1010
0000
,
0001
0010
0100
1000
0001
0010
0100
1000
0001
0010
0100
1000
0001
0000
0000
0000
0000
0000
0000
0000
0000
0000
0000
0000
1001
0000
0000
0000
0000
0000
0000
0000
0000
1001
0000
0000
0000
0000
0000
0000
0000
0000
1100
0000
0000
0000
0000
0000
,
1010
0000
0000
1010
0000
0000
1010
0000
0110
0000
0000
0110
1001
0000
0000
0000
,
1000
0100
0010
0001
1000
0100
0010
0001
1000
0100
0010
0001
1000
0000
0000
0000
0000
0000
0000
0000
0000
0000
0000
0000
1010
0000
0000
0000
0000
0000
0000
0000
0000
1010
0000
0000
0000
0000
0000
0000
0000
0000
1010
0000
0000
0000
0000
0000
,
1100
0000
0000
1100
0000
0000
1100
0000
1001
0000
0000
1001
0000
0000
1001
0000
,
0001
0010
0100
1000
0001
0010
0100
1000
0001
0010
0100
1000
0001
0000
0000
0000
0000
0000
0000
0000
0000
0000
0000
0000
1000
0100
0010
0001
1000
0100
0010
0001
1000
0100
0010
0001
1000
0000
0000
0000
0000
0000
0000
0000
0000
0000
0000
0000
,
0001
0100
0010
1000
0001
0100
0010
1000
0001
0100
0010
1000
0001
0000
0000
0000
0000
0000
0000
0000
0000
0000
0000
0000
1000
0100
0010
0001
1000
0100
0010
0001
1000
0100
0010
0001
1000
0000
0000
0000
0000
0000
0000
0000
0000
0000
0000
0000
,
1000
0100
0010
0001
0100
0010
1000
0100
0001
0010
0100
1000
0010
0100
0001
1000
0100
0010
0001
0100
1000
0010
0100
0001
1000
0100
0010
0001
1000
0010
1000
0100
,
0001
0010
0100
1000
0001
0010
0100
1000
0001
0010
0100
1000
0001
0010
0100
1000
0001
0010
0100
1000
0001
0010
0100
1000
0001
0100
0010
1000
0001
0100
0010
1000
0001
0100
0010
1000
0001
0010
0100
1000
0001
0010
0100
1000
0001
0010
0100
1000
,
0011
0100
1001
0010
1100
0010
1001
0100
0011
1000
0001
1000
0110
0001
1010
0001
1100
0010
1001
0100
0011
1000
0101
1000
0110
1001
0100
0001
1100
0010
1001
0010
,
1100
0001
1010
0100
0011
1000
0101
1000
0110
0001
0010
1000
0101
1000
0110
0001
1010
0001
1100
0010
1001
0100
0011
1000
0101
0010
0100
0010
1001
0100
1001
0010
,
1100
0001
1100
0001
1010
0100
1010
0100
0011
1000
0100
0010
1001
0010
1100
0010
1001
0100
0011
1000
0101
1000
0110
0001
1010
0100
0010
0100
1001
0010
1100
0010
,
1001
0100
0011
1000
0101
1000
0110
0001
1010
0100
0010
0001
1100
0001
1010
0001
1100
0010
1001
0100
0011
1000
0101
1000
0110
0001
0010
0100
1001
0010
1001
0010
,
1100
0001
1010
0100
0011
1000
0101
1000
0110
0001
0100
0001
1010
0001
1100
0010
1001
0100
0011
1000
0101
1000
0110
0001
1010
0100
0010
0001
1100
0001
1010
0100
,
1001
0100
0011
1000
0101
1000
0110
0001
1010
0100
0010
0100
1001
0010
1001
0010
1100
0001
1010
0100
0011
1000
0101
1000
0110
0001
0010
0100
1001
0010
1001
0010
,
1100
0010
1001
0100
0011
1000
0101
1000
0110
0001
0010
0100
1001
0010
1100
0001
1010
0100
0011
1000
0101
1000
0110
0001
1010
0100
0010
0100
1001
0010
1100
0010
,
1001
0010
1100
0010
1001
0100
0011
1000
0101
0010
0100
0010
1001
0010
1100
0010
1001
0100
0011
1000
0101
1000
0110
0001
1010
0100
0001
0010
1001
0100
1001
0100
,
1011
0100
1001
0010
1100
0010
1001
0100
0011
1000
0001
1000
0110
0001
1010
0001
1100
0010
1001
0100
0011
1000
0101
1000
0110
1001
0100
0001
1100
0010
1001
0010
,
1001
0100
1001
0010
1100
0010
1001
0100
0011
1000
0001
1000
0110
0001
1010
0001
1100
0010
1001
0100
0011
1000
0101
1000
0110
1001
0100
0001
1100
0010
1001
0010
,
1100
0001
1010
0100
0011
1000
0101
1000
0110
0001
0010
1000
0101
1000
0110
0001
1010
0001
1100
0010
1001
0100
0011
1000
0101
0010
0100
0010
1001
0100
1001
0010
,
1100
0001
1100
0001
1010
0100
1010
0100
0011
1000
0100
0010
1001
0010
1100
0010
1001
0100
0011
1000
0101
1000
0110
0001
1010
0100
0010
0100
1001
0010
1100
0010
,
1001
0100
0011
1000
0101
1000
0110
0001
1010
0100
0010
0001
1100
0001
1010
0001
1100
0010
1001
0100
0011
1000
0101
1000
0110
0001
0010
0100
1001
0010
1001
0010
,
1100
0001
1010
0100
0011
1000
0101
1000
0110
0001
0100
0001
1010
0001
1100
0010
1001
0100
0011
1000
0101
1000
0110
0001
1010
0100
0010
0001
1100
0001
1010
0100
,
1001
0100
0011
1000
0101
1000
0110
0001
1010
0100
0010
0100
1001
0010
1001
0010
1100
0001
1010
0100
0011
1000
0101
1000
0110
0001
0010
0100
1001
0010
1001
0010
,
1100
0010
1001
0100
0011
1000
0101
1000
0110
0001
0010
0100
1001
0010
1100
0001
1010
0100
0011
1000
0101
1000
0110
0001
1010
0100
0010
0100
1001
0010
1100
0010
,
1101
0010
1001
0100
0011
1000
0010
1000
0101
0010
0100
1000
0110
0001
1010
0001
1100
0010
1001
0100
0011
1000
0010
1000
0101
0010
0100
1000
0110
0001
0010
0100
,
1010
0100
1001
0100
0011
1000
0100
0010
0101
1000
0010
1000
0101
1000
0110
0001
1010
0001
1100
0010
1001
0100
0010
1000
0011
0100
1000
0100
0011
1000
0100
0001
,
0110
0001
1010
0001
1100
0010
0001
0010
1100
0001
0010
0100
0011
1000
0101
1000
0110
0001
1010
0001
1100
0010
0100
0001
1010
0100
0001
0010
1001
0010
1100
0010
,
1001
0100
0011
1000
0101
0010
0100
0001
1010
0100
0010
0001
1100
0001
1010
0100
0011
1000
0101
0010
1001
0100
0010
0001
1100
0010
0001
0100
1010
0001
1010
0100
,
1011
0100
1001
0100
0011
1000
0010
1000
0101
0010
0100
1000
0110
0001
1010
0001
1100
0010
1001
0100
0011
1000
0010
1000
0101
0010
0100
1000
0110
0001
0010
0100
,
1010
0100
1001
0100
0011
1000
0100
0010
0101
1000
0010
1000
0101
1000
0110
0001
1010
0001
1100
0010
1001
0100
0010
1000
0011
0100
1000
0100
0011
1000
0100
0001
,
0110
0001
1010
0001
1100
0010
0001
0010
1100
0001
0010
0100
0011
1000
0101
1000
0110
0001
1010
0001
1100
0010
0100
0001
1010
0100
0001
0010
1001
0010
1100
0010
,
1001
0100
0011
1000
0101
0010
0100
0001
1010
0100
0010
0001
1100
0001
1010
0100
0011
1000
0101
0010
1001
0100
0010
0001
1100
0010
0001
0100
1010
0001
1010
0100
,
1011
0100
1001
0100
0011
1000
0010
1000
0101
0010
0100
1000
0110
0001
1010
0001
1100
0010
1001
0100
0011
1000
0010
1000
0101
0010
0100
1000
0110
0001
0010
0100
,
1010
0100
1001
0100
0011
1000
0100
0010
0101
1000
0010
1000
0101
1000
0110
0001
1010
0001
1100
0010
1001
0100
0010
1000
0011
0100
1000
0100
0011
1000
0100
0001
,
0110
0001
1010
0001
1100
0010
0001
0010
1100
0001
0010
0100
0011
1000
0101
1000
0110
0001
1010
0001
1100
0010
0100
0001
1010
0100
0001
0010
1001
0010
0100
0010
,
1001
0100
0011
1000
0101
1000
0110
0001
1010
0100
0010
0001
1100
0010
1001
0100
0011
1000
0101
1000
0110
0001
0010
0100
1010
0001
0010
0001
1100
0010
0100
0010
,
1001
0100
0011
1000
0101
0010
0100
0010
1001
0100
0010
0100
1001
0010
0100
0010
1001
0100
0011
1000
0101
0010
0100
0010
1001
0100
0010
0100
1001
0010
0100
0010
,
1001
0100
0011
1000
0101
0010
0100
0010
1001
0100
0010
0100
1001
0010
0100
0010
1001
0100
0011
1000
0101
0010
0100
0010
1001
0100
0010
0100
1001
0010
0100
0010
,
1001
0100
0011
0100
1001
0010
0100
0010
1001
0100
0011
0100
1001
0010
0100
0010
1001
0100
0011
0100
1001
0010
0100
0010
1001
0100
0011
0100
1001
0010
0100
0010
,
0001
0010
0100
1000
0001
0010
0100
1000
0001
0010
0100
1000
0001
0010
0100
1000
0001
0010
0100
1000
0001
0010
0100
1000
0001
0010
0100
1000
0001
0010
0100
1000
0001
0010
0100
1000
0001
0010
0100
1000
0001
0010
0100
1000
0001
0010
0100
1000
,
0022
0000
0000
0000
0000
0000
0000
0033
,
0000
0000
0000
0000
0000
0000
0000
0000
1001
0000
0000
1001
0000
0000
1001
0000
,
1100
0000
0000
1100
0000
0000
1100
0000
1010
0000
0000
1010
0000
0000
1010
0000
,
0011
0000
0000
0011
0000
0000
0011
0000
0101
0000
0000
0101
0000
0000
0101
0000
,
1111
0000
0000
0110
0000
0000
0110
0000
1100
0000
0000
1100
0000
0000
1100
0000
,
1111
0000
0000
0011
0000
0000
1111
0000
0110
0000
0000
0110
1111
0000
0110
0000
,
1111
0000
0000
1100
0000
0000
1100
0000
1010
0000
0000
1010
0000
0000
1010
0000
,
0011
0000
0000
0011
0000
0000
0011
0000
0101
0000
0000
0101
0000
0000
0101
0000
,
1111
0000
0000
0110
0000
0000
0110
0000
1100
0000
0000
1100
0000
0000
1100
0000
,
1010
0000
0000
1010
0000
0000
1010
0000
1001
0000
0000
1001
0000
0000
1001
0000
,
0011
0000
0000
0011
0000
0000
0011
0000
0101
0000
0000
0101
0000
0000
0101
0000
,
0110
0000
0000
0110
0000
0000
0110
0000
1010
0000
0000
1010
0000
0000
1010
0000
,
1100
0000
0000
1100
0000
0000
1100
0000
1001
0000
0000
1001
0000
0000
1001
0000
,
0011
0000
0000
0011
0000
0000
0011
0000
0101
0000
0000
0101
0000
0000
0101
0000
,
0110
0000
0000
0110
0000
0000
0110
0000
1010
0000
0000
1010
0000
0000
1010
0000
,
1100
0000
0000
1100
0000
0000
1100
0000
1001
0000
0000
1001
1111
0000
1111
0000
,
0001
0010
0100
1000
0001
0010
0100
1000
0001
0010
0100
1000
0001
0000
0000
0000
0000
0000
0000
0000
0000
0000
0000
0000
1001
0000
0000
0000
0000
0000
0000
0000
0000
1001
0000
0000
0000
0000
0000
0000
0000
0000
1001
0000
0000
0000
0000
0000
,
1100
0000
0000
1100
0000
0000
1100
0000
1010
0000
0000
1010
0101
0000
1010
0000
,
1000
0100
0010
0001
1000
0200
0310
0001
1000
0100
0010
0001
1000
0000
0000
0000
0000
0000
0000
0000
0000
0000
0000
0000
1001
0000
0000
0000
0000
0000
0000
0000
0000
1001
0000
0000
0000
0000
0000
0000
0000
0000
1001
0000
0000
0000
0000
0000
,
0011
0000
0000
0011
0000
0000
0011
0000
0101
0000
0000
0101
0000
0000
0101
0000
,
0001
0010
0100
1000
0001
0010
0100
1000
0001
0010
0100
1000
0001
0000
0000
0000
0000
0000
0000
0000
0000
0000
0000
0000
1010
0000
0000
0000
0000
0000
0000
0000
0000
1010
0000
0000
0000
0000
0000
0000
0000
0000
1010
0000
0000
0000
0000
0000
,
1100
0000
0000
0000
0000
0000
0000
0000
0000
1100
0000
0000
0000
0000
0000
0000
0000
0000
1100
0000
0000
0000
0000
0000
1001
0000
0000
0000
0000
0000
0000
0000
0000
1001
0000
0000
0110
0000
0000
0000
0000
0000
1000
0010
0100
0001
1000
0010
,
0100
0001
1000
0010
0100
0001
1000
0010
0100
0001
0010
1000
0100
0010
0001
1000
0100
0010
0001
0000
0000
0000
0000
0000
1100
0000
0000
0000
0000
0000
0000
0000
0000
1100
0000
0000
0000
0000
0000
0000
0000
0000
1100
0000
0000
0000
0000
0000
,
1010
0000
0000
1010
0000
0000
1010
0000
0110
0000
0000
0110
1111
0000
1111
0000
,
0001
0010
0100
1000
0001
0010
0100
1000
0001
0010
0100
1000
0001
0000
0000
0000
0000
0000
0000
0000
0000
0000
0000
0000
1100
0000
0000
0000
0000
0000
0000
0000
0000
1100
0000
0000
0000
0000
0000
0000
0000
0000
1100
0000
0000
0000
0000
0000
,
1000
0100
0010
0001
1000
0100
0010
0001
1000
0100
0010
0001
1000
0000
0000
0000
0000
0000
0000
0000
0000
0000
0000
0000
1001
0000
0000
0000
0000
0000
0000
0000
0000
1001
0000
0000
0000
0000
0000
0000
0000
0000
1001
0000
0000
0000
0000
0000
,
0001
0010
0100
1000
0001
0010
0100
1000
0001
0010
0100
1000
0001
0000
0000
0000
0000
0000
0000
0000
0000
0000
0000
0000
1001
0000
0000
0000
0000
0000
0000
0000
0000
1001
0000
0000
0000
0000
0000
0000
0000
0000
1001
0000
0000
0000
0000
0000
,
1000
0100
0010
0001
1000
0100
0010
0001
1000
0100
0010
0001
1000
0000
0000
0000
0000
0000
0000
0000
0000
0000
0000
0000
1001
0000
0000
0000
0000
0000
0000
0000
0000
1001
0000
0000
0000
0000
0000
0000
0000
0000
1111
0000
0000
0000
0000
0000
,
0001
0010
0100
1000
0001
0010
0100
1000
0001
0010
0100
1000
0001
0000
0000
0000
0000
0000
0000
0000
0000
0000
0000
0000
1000
0100
0010
0001
1000
0100
0010
0001
1000
0100
0010
0001
1000
0000
0000
0000
0000
0000
0000
0000
0000
0000
0000
0000
,
0001
0010
0100
1000
0001
0010
0100
1000
0001
0010
0100
1000
0001
0000
0000
0000
0000
0000
0000
0000
0000
0000
0000
0000
1000
0100
0010
0001
1000
0100
0010
0001
1000
0100
0010
0001
1000
0000
0000
0000
0000
0000
0000
0000
0000
0000
0000
0000
,
0001
0010
0100
1000
0001
0010
0100
1000
0001
0010
0100
1000
0001
0000
0000
0000
0000
0000
0000
0000
0000
0000
0000
0000
1000
0100
0010
0001
1000
0100
0010
0001
1000
0100
0010
0001
1000
0000
0000
0000
0000
0000
0000
0000
0000
0000
0000
0000
,
0001
0010
0100
1000
0001
0010
0100
1000
0001
0010
0100
1000
0001
0000
0000
0000
0000
0000
0000
0000
0000
0000
0000
0000
1000
0100
0010
0001
1000
0100
0010
0001
1000
0100
0010
0001
1000
0000
0000
0000
0000
0000
0000
0000
0000
0000
0000
0000
,
0001
0010
0100
1000
0001
0100
0010
1000
0001
0010
0001
0100
0010
1000
0100
1000
0001
0010
0100
1000
0010
0100
0001
1000
0100
0010
0001
0100
0010
1000
0100
0001
,
0010
0100
1000
0010
0100
0001
1000
0100
0010
0001
0100
0010
1000
0100
1000
0001
0010
0100
1000
0010
0100
0001
1000
0100
0010
0001
0100
0010
1000
0100
1000
0010
,
0100
0001
0010
0100
1000
0010
0100
0001
0010
0100
1000
0010
0100
0001
1000
0100
0010
0001
0100
1000
0010
0100
0001
0010
0100
1000
0010
0100
0001
1000
0100
0010
,
0001
0010
0100
1000
0001
0010
0100
1000
0001
0010
0100
1000
0001
0010
0100
1000
0001
0010
0100
1000
0001
0010
0100
1000
0001
0010
0100
1000
0001
0010
0100
1000
0001
0010
0100
1000
0001
0010
0100
1000
0001
0010
0100
1000
0001
0010
0100
1000
,
0011
0100
1001
0010
1100
0010
1001
0100
0011
1000
0001
1000
0110
0001
1010
0001
1100
0010
1001
0100
0011
1000
0101
1000
0110
1001
0100
0001
1100
0010
1001
0010
,
1100
0001
1010
0100
0011
1000
0101
1000
0110
0001
0010
1000
0101
1000
0110
0001
1010
0001
1100
0010
1001
0100
0011
1000
0101
0010
0100
0010
1001
0100
1001
0010
,
1100
0001
1100
0001
1010
0100
1010
0100
0011
1000
0100
0010
1001
0010
1100
0010
1001
0100
0011
1000
0101
1000
0110
0001
1010
0100
0010
0100
1001
0010
1100
0010
,
1001
0100
0011
1000
0101
1000
0110
0001
1010
0100
0010
0001
1100
0001
1010
0001
1100
0010
1001
0100
0011
1000
0101
1000
0110
0001
0010
0100
1001
0010
1001
0010
,
1100
0001
1010
0100
0011
1000
0101
1000
0110
0001
0100
0001
1010
0001
1100
0010
1001
0100
0011
1000
0101
1000
0110
0001
1010
0100
0010
0001
1100
0001
1010
0100
,
1001
0100
0011
1000
0101
1000
0110
0001
1010
0100
0010
0100
1001
0010
1001
0010
1100
0001
1010
0100
0011
1000
0101
1000
0110
0001
0010
0100
1001
0010
1001
0010
,
1100
0010
1001
0100
0011
1000
0101
1000
0110
0001
0010
0100
1001
0010
1100
0001
1010
0100
0011
1000
0101
1000
0110
0001
1010
0100
0010
0100
1001
0010
1100
0010
,
1001
0010
1100
0010
1001
0100
0011
1000
0101
0010
0100
0010
1001
0010
1100
0010
1001
0100
0011
1000
0101
1000
0110
0001
1010
0100
0001
0010
1001
0100
1001
0100
,
1011
0100
1001
0010
1100
0010
1001
0100
0011
1000
0001
1000
0110
0001
1010
0001
1100
0010
1001
0100
0011
1000
0101
1000
0110
1001
0100
0001
1100
0010
1001
0010
,
1001
0100
1001
0010
1100
0010
1001
0100
0011
1000
0001
1000
0110
0001
1010
0001
1100
0010
1001
0100
0011
1000
0101
1000
0110
1001
0100
0001
1100
0010
1001
0010
,
1100
0001
1010
0100
0011
1000
0101
1000
0110
0001
0010
1000
0101
1000
0110
0001
1010
0001
1100
0010
1001
0100
0011
1000
0101
0010
0100
0010
1001
0100
1001
0010
,
1100
0001
1100
0001
1010
0100
1010
0100
0011
1000
0100
0010
1001
0010
1100
0010
1001
0100
0011
1000
0101
1000
0110
0001
1010
0100
0010
0100
1001
0010
1100
0010
,
1001
0010
1100
0010
1001
0100
0011
1000
0101
0010
1000
0001
0110
0001
1010
0001
1100
0010
1001
0100
0011
1000
0101
1000
0110
0001
0100
0010
1100
0010
1001
0100
,
0011
1000
0101
1000
0110
0001
1010
0001
1100
0010
0100
0010
1001
0100
0011
1000
0101
1000
0110
0001
1010
0001
1100
0010
1001
0100
0010
0001
1100
0001
1010
0100
,
0011
1000
0100
0010
0001
0100
0010
1000
0001
0010
0100
1000
0010
0100
0001
1000
0100
0010
0001
0100
0010
1000
0001
0010
0100
0001
1000
0010
0100
0001
1000
0010
,
0100
1000
0010
0001
0100
1000
0010
0001
0100
1000
0010
0001
0100
0010
1000
0001
0100
0010
1000
0001
0100
0010
1000
0001
0010
0100
0001
1000
0010
0100
0001
1000
0010
0100
0001
1000
0010
0001
0100
1000
0010
0001
0100
1000
0010
0001
0100
1000
,
0011
0100
1001
0100
0011
1000
0010
1000
0101
0010
0100
1000
0110
0001
1010
0001
1100
0010
1001
0100
0011
1000
0010
1000
0101
0010
0100
1000
0110
0001
0010
0100
,
1010
0100
1001
0100
0011
1000
0100
0010
0101
1000
0010
1000
0101
1000
0110
0001
1010
0001
1100
0010
1001
0100
0010
1000
0011
0100
1000
0100
0011
1000
0100
0001
,
0110
0001
1010
0001
1100
0010
0001
0010
1100
0001
0010
0100
0011
1000
0101
1000
0110
0001
1010
0001
1100
0010
0100
0001
1010
0100
0001
0010
1001
0010
0100
0010
,
1001
0100
0011
1000
0101
0010
0100
0001
1010
0100
0010
0001
1100
0001
1010
0100
0011
1000
0101
0010
1001
0100
0010
0001
1100
0010
0001
0100
1010
0001
0010
0100
,
1011
0100
1001
0100
0011
1000
0010
1000
0101
0010
0100
1000
0110
0001
1000
0001
1100
0010
1001
0100
0011
1000
0010
1000
0101
0010
0100
1000
0110
0001
0010
0100
,
1010
0100
1001
0100
0011
1000
0100
0010
0101
1000
0010
1000
0101
1000
0010
0001
1010
0001
1100
0010
1001
0100
0010
1000
0011
0100
1000
0100
0011
1000
0100
0001
,
1010
0001
1010
0001
1100
0010
0001
0100
1010
0001
1010
0001
1100
0010
0001
0100
1010
0001
1010
0001
1100
0010
0001
0100
1010
0001
1010
0001
1100
0010
0001
0100
,
1000
0100
0010
0001
1000
0100
0010
0001
1000
0100
0010
0001
1000
0100
0010
0001
1000
0100
0010
0001
1000
0100
0010
0001
1000
0100
0010
0001
1000
0100
0010
0001
1000
0100
0010
0001
1000
0100
0010
0001
1000
0100
0010
0001
1000
0100
0010
0001
,
1100
0010
1001
0100
0011
0100
1001
0010
1100
0001
1000
0001
0110
1000
0101
1000
0011
0100
1001
0010
1100
0001
1010
0001
0110
1001
0010
1000
0011
0100
1001
0100
,
0011
1000
0101
0010
1100
0001
1010
0001
0110
1000
0100
0001
1010
0001
0110
1000
0101
1000
0011
0100
1001
0010
1100
0001
1010
0100
0010
0100
1001
0010
1001
0100
,
0011
1000
0011
1000
0101
0010
0101
0010
1100
0001
0010
0100
1001
0100
0011
0100
1001
0010
1100
0001
1010
0001
0110
1000
0101
0010
0100
0010
1001
0100
0011
0100
,
1001
0010
1100
0001
1010
0001
0110
1000
0101
0010
0100
1000
0011
1000
0101
1000
0011
0100
1001
0010
1100
0001
1010
0001
0110
1000
0100
0010
1001
0100
1001
0100
,
0011
1000
0101
0010
1100
0001
1010
0001
0110
1000
0010
1000
0101
1000
0011
0100
1001
0010
1100
0001
1010
0001
0110
1000
0101
0010
0100
1000
0011
1000
0101
0010
,
1001
0010
1100
0001
1010
0001
0110
1000
0101
0010
0100
0010
1001
0100
1001
0100
0011
1000
0101
0010
1100
0001
1010
0001
0110
1000
0100
0010
1001
0100
1001
0100
,
0011
0100
1001
0010
1100
0001
1010
0001
0110
1000
0100
0010
1001
0100
0011
1000
0101
0010
1100
0001
1010
0001
0110
1000
0101
0010
0100
0010
1001
0100
0011
0100
,
1001
0100
0011
0100
1001
0010
1100
0001
1010
0100
0010
0100
1001
0100
0011
0100
1001
0010
1100
0001
1010
0001
0110
1000
0101
0010
1000
0100
1001
0010
1001
0010
,
1100
0010
1001
0100
0011
0100
1001
0010
1100
0001
1000
0001
0110
1000
0101
1000
0011
0100
1001
0010
1100
0001
1010
0001
0110
1001
0010
1000
0011
0100
1001
0100
,
0011
1000
0101
0010
1100
0001
1010
0001
0110
1000
0100
0001
1010
0001
0110
1000
0101
1000
0011
0100
1001
0010
1100
0001
1010
0100
0010
0100
1001
0010
1001
0100
,
0011
1000
0011
1000
0101
0010
0101
0010
1100
0001
0010
0100
1001
0100
0011
0100
1001
0010
1100
0001
1010
0001
0110
1000
0101
0010
0100
0010
1001
0100
0011
0100
,
1001
0010
1100
0001
1010
0001
0110
1000
0101
0010
0100
1000
0011
1000
0101
1000
0011
0100
1001
0010
1100
0001
1010
0001
0110
1000
0100
0010
1001
0100
1001
0100
,
0011
1000
0101
0010
1100
0001
1010
0001
0110
1000
0010
1000
0101
1000
0011
0100
1001
0010
1100
0001
1010
0001
0110
1000
0101
0010
0100
1000
0011
1000
0101
0010
,
1001
0010
1100
0001
1010
0001
0110
1000
0101
0010
0100
0010
1001
0100
1001
0100
0011
1000
0101
0010
1100
0001
1010
0001
0110
1000
0100
0010
1001
0100
1001
0100
,
0001
0010
0100
1000
0010
0100
0001
1000
0100
0010
0001
0100
0010
1000
0001
0010
0100
1000
0010
0100
0001
1000
0100
0010
0001
0100
0010
1000
0001
0010
0100
1000
,
0001
0010
0100
1000
0001
0010
0100
1000
0001
0010
0100
1000
0001
0010
0100
1000
0001
0010
0100
1000
0001
0010
0100
1000
0001
0010
0100
1000
0001
0010
0100
1000
0001
0010
0100
1000
0001
0010
0100
1000
0001
0010
0100
1000
0001
0010
0100
1000
,
0022
0000
0000
0033
;

//---------------dance-single - 18.53 (18+) (owenvia----------------
#NOTES:
     dance-single:
     18.53 (18+) (owenvia:
     Medium:
     18:
     1.000,1.000,0.668,0.111,1.000,2201.000,150.000,25.000,25.000,2.000:
2002
0000
0000
0000
,
3000
0000
0000
0000
,
0000
0000
0000
0000
0000
0000
0000
1013
,
0110
0000
0000
0101
0000
0000
1001
0000
1010
0000
0000
0110
0000
0000
1001
0000
,
1010
0000
0000
0101
0000
0000
1100
0000
0110
0000
0000
0011
0000
0000
1001
0000
,
0110
0000
0000
1010
0000
0000
0101
0000
1001
0000
0000
0110
0000
0000
0011
0000
,
1100
0000
0000
0110
0000
0000
0101
0000
1010
0000
0000
0110
0000
0000
1001
0000
,
1100
0000
0000
0011
0000
0000
0101
0000
1010
0000
0000
1000
00M1
0000
0100
0000
,
001M
1000
0100
0010
0001
0000
0110
0000
1100
0000
0000
0101
0000
0000
1001
0000
,
0110
0000
0000
0000
0000
0000
0000
0000
0000
1100
0000
0000
0000
0000
0000
0000
0000
0000
0101
0000
0000
0000
0000
0000
1001
0000
0000
0000
0000
0000
0000
0000
0000
0010
0000
0000
0200
0000
0000
0000
0000
0300
0000
0000
0000
0000
0000
0000
,
0001
0010
0100
1000
0001
0100
0010
1000
0100
1000
0010
0100
0001
0100
0010
1000
,
0100
0010
0001
1000
0010
1000
0100
0010
0001
0100
0010
1000
0001
0010
0100
1000
,
001M
0100
0010
1000
0001
0010
0100
1000
0010
0100
0010
1000
0100
0010
0001
0100
,
0001
1000
0010
0100
0001
1000
0100
0010
0001
0100
0010
1000
0010
0100
0001
1000
,
0100
0010
0001
0100
0010
1000
0010
0100
0001
1000
0001
0010
0100
1000
0010
0100
,
0001
1000
0010
0100
0001
1000
0100
0010
0001
0100
0010
1000
0001
0010
0100
1000
0010
0100
0010
1000
0001
1000
0010
0100
0001
1000
0100
0010
0001
0100
0010
1000
,
0M01
0010
0100
1000
0010
0100
0001
1000
0100
0010
0001
0100
0010
0100
0001
1000
0001
0010
0100
1000
0010
0100
0010
1000
,
0100
0010
0001
1000
0001
0100
0010
1000
0001
0010
0100
1000
0001
0010
0001
1000
0010
1000
0100
0010
0001
0100
0001
1000
,
0010
0100
0001
1000
0100
0010
0001
0100
0010
0100
0001
1000
0100
0010
0001
1000
0010
0100
0001
0010
0100
1000
0001
0010
,
0001
1000
0100
0010
0001
0100
0010
0100
0001
1000
0100
0010
0001
1000
0010
1000
0001
0100
0001
1000
0100
0010
0001
0100
,
0010
1000
0010
0100
0001
1000
0001
0010
0100
1000
0010
0100
0010
1000
0001
0100
0001
1000
0100
0010
0001
0100
0010
1000
,
0001
0100
0001
0010
0100
1000
0010
0100
0001
1000
0100
1000
0001
0010
0001
0100
0010
1000
0010
0100
0001
1000
0001
0100
,
0010
1000
0100
0010
0001
1000
0100
1000
0001
0100
0010
1000
0001
0010
0100
1000
0010
0100
0001
1000
0100
0010
0001
0010
,
0100
1000
0010
0100
0010
1000
0001
1000
0100
0010
0001
0100
0010
0100
0001
1000
0010
0100
0010
1000
0001
1000
0100
0010
,
0001
0100
0010
1000
0001
0010
0001
1000
0100
0010
0001
0100
0010
1000
0010
0100
0001
1000
0001
0010
0100
1000
0010
0100
,
0001
1000
0100
1000
0001
0100
0010
1000
0010
0100
0001
1000
0100
0010
0001
0100
0010
1000
0001
0010
0100
1000
0010
0100
,
0001
1000
0100
0010
0001
0100
0010
0100
0001
1000
0001
0010
0100
1000
0010
0100
0010
1000
0100
0010
0001
1000
0001
0100
,
0010
1000
0001
0010
0100
1000
0001
0010
0001
1000
0010
1000
0100
0010
0001
0100
0001
1000
0010
0100
0001
1000
0100
0010
,
0001
0100
0010
0100
0001
1000
0100
0010
0001
1000
0010
0100
0001
0010
0100
1000
0001
0010
0001
1000
0100
0010
0001
0100
,
0010
0100
0001
1000
0100
0010
0001
1000
0010
1000
0001
0100
0001
1000
0100
0010
0001
0100
0010
1000
0010
0100
0001
1000
,
0001
0010
0100
1000
0010
0100
0010
1000
0001
0100
0001
1000
0100
0010
0001
0100
0010
1000
0001
0100
0001
0010
0100
1000
,
0010
0100
0001
1000
0100
1000
0001
0010
0001
0100
0010
1000
0010
0100
0001
1000
0001
0100
0010
1000
0100
0010
0001
1000
,
0100
1000
0001
0100
0010
1000
0001
0010
0100
1000
0010
0100
0001
1000
0100
0010
0001
0010
0100
1000
0010
0100
0010
1000
,
0001
1000
0100
0010
0001
0100
0010
0100
0001
1000
0010
0100
0010
1000
0001
1000
0100
0010
0001
0100
0010
1000
0001
0010
,
0001
1000
0100
0010
0001
0100
0010
1000
0010
0100
0001
1000
0001
0010
0100
1000
0010
0100
0001
1000
0100
1000
0001
0100
,
0010
1000
0010
0100
0001
1000
0100
0010
0001
0100
0010
1000
0001
0010
0100
1000
0010
0100
0001
1000
0100
0010
0001
0100
,
0010
0100
0001
1000
0001
0010
0100
1000
0010
0100
0010
1000
0100
0010
0001
1000
0001
0100
0010
1000
0001
0010
0100
1000
,
0001
0010
0001
1000
0010
1000
0100
0010
0001
0100
0001
1000
0010
0100
0001
1000
0100
0010
0001
0100
0010
0100
0001
1000
,
0100
0010
0001
1000
0010
0100
0001
0010
0100
1000
0001
0010
0001
1000
0100
0010
0001
0100
0010
0100
0001
1000
0100
0010
,
0001
1000
0010
1000
0001
0100
0001
1000
0100
0010
0001
0100
0010
1000
0010
0100
0001
1000
0001
0010
0100
1000
0010
0100
,
0010
1000
0001
0100
0001
1000
0100
0010
0001
0100
0010
1000
0001
0100
0001
0010
0100
1000
0010
0100
0001
1000
0100
1000
,
0001
0010
0001
0100
0010
1000
0010
0100
0001
1000
0001
0100
0010
1000
0100
0010
0001
1000
0100
1000
0001
0100
0010
1000
,
0001
0010
0100
1000
0010
0100
0001
1000
0100
0010
0001
0010
0100
1000
0010
0100
0010
1000
0001
1000
0100
0010
0001
0100
,
0010
0100
0001
1000
0010
0100
0010
1000
0001
1000
0100
0010
0001
0100
0010
1000
0001
0010
0001
1000
0100
0010
0001
0100
,
0010
1000
0001
0100
0001
0010
0100
1000
0010
0100
0001
1000
0010
1000
0100
0010
,
0001
0100
0010
0100
0001
1000
0001
0010
0100
1000
0010
0100
0001
1000
0100
0010
,
0001
1000
0010
1000
0100
0010
0001
0100
0001
1000
0010
1000
0100
0010
0001
0100
,
0010
1000
0100
0010
0001
0100
0001
1000
0010
0100
0001
1000
0100
0010
0001
0100
0010
0100
0001
1000
0001
0010
0100
1000
0010
0100
0001
1000
0100
0010
0001
1000
,
0M20
0000
0000
0000
,
0000
0000
0000
0000
0000
0000
0000
1031
,
1100
0000
0000
0110
0000
0000
0011
0000
0101
0000
0000
0110
0000
0000
1010
0000
,
1001
0000
0000
0101
0000
0000
1010
0000
0101
0000
0000
1100
0000
0000
0011
0000
,
2MM2
3003
0000
1010
0000
0000
0110
0000
0101
0000
0000
1100
0000
0000
0101
0000
,
2M2M
3030
0000
0110
0000
0000
2MM2
3003
0101
0000
0000
1000
2M2M
3030
0010
0000
,
M22M
0330
0000
0101
0000
0000
1010
0000
0101
0000
0000
1100
0000
0000
0011
0000
,
0102
0000
0000
1000
0000
0000
0100
0000
1003
0000
0000
0110
0000
0000
1010
0000
,
1MM1
0000
0000
0110
0000
0000
1100
0000
1010
0000
0000
0101
0000
0000
1100
0000
,
0110
0000
0000
0011
0000
0000
1001
0000
0110
0000
0000
1010
0000
0000
0101
0000
,
1001
0000
0000
0110
0000
0000
0011
0000
1100
0000
0000
0110
0000
0000
0101
0000
,
1010
0000
0000
0110
0000
0000
1001
0000
1100
0000
0000
0011
0000
0000
0101
0000
,
1010
0000
0000
0110
0000
0000
1001
0000
1010
0000
0000
0101
0000
0000
1100
0000
,
0110
0000
0000
0011
0000
0000
1001
0000
0110
0000
0000
1010
0000
0000
0101
0000
,
0110
0000
0000
1010
0000
0000
0101
0000
1100
0000
0000
0110
0000
0000
0101
0000
,
1010
0000
0000
0110
0000
0000
1001
0000
1100
0000
0000
0001
1MM0
0000
0010
0000
,
M1M0
0001
0010
0100
1000
0000
0101
0000
0110
0000
0000
1010
0000
0000
1001
0000
,
0110
0000
0000
0000
0000
0000
0000
0000
0000
0011
0000
0000
0000
0000
0000
0000
0000
0000
1100
0000
0000
0000
0000
0000
1010
0000
0000
0000
0000
0000
0000
0000
0000
0001
0000
0000
2000
0000
0000
0000
0000
3000
0010
0000
0000
0000
0000
0000
,
0100
0001
1000
0100
0010
0000
0101
0000
0110
0000
0000
1010
0000
0000
0011
0000
,
0110
0000
0000
1100
0000
0000
1001
0000
0101
0000
0000
0110
0000
0000
1010
0000
,
10MM
0100
0010
0001
1000
0000
0110
0000
0101
0000
0000
1001
0000
0000
1100
0000
,
0110
0000
0000
0000
0000
0000
0000
0000
0000
0011
0000
0000
0000
0000
0000
0000
0000
0000
1001
0000
0000
0000
0000
0000
1010
0000
0000
0000
0000
0000
0000
0000
0000
0001
0000
0000
0200
0000
0000
0000
0000
0300
0010
0000
0000
1000
0000
0000
,
0100
0000
0000
0000
0000
0000
0000
0000
0000
0000
0000
0000
0010
0000
0000
0000
0000
0000
0000
0000
0000
0000
0000
0000
0001
0000
0000
0000
0000
0000
0000
0000
0000
0000
0000
0000
0100
0000
0000
0000
0000
0000
0000
0000
0000
0000
0000
0000
0020
0000
0000
0000
0000
0000
0000
0000
0000
0000
0000
0000
0000
0000
0000
0000
0000
0000
0030
0000
0000
0000
0000
0000
0002
0000
0000
0000
0000
0000
0000
0000
0003
0000
0000
0000
0000
0000
0000
0000
0000
0000
0000
0000
0000
0000
0000
0000
1100
0000
0000
0000
0000
0000
0000
0000
0000
0000
0000
0000
0000
0000
0000
0000
0000
0000
0000
0000
0000
0000
0000
0000
0000
0000
0000
0000
0000
0000
0000
0000
0000
0000
0000
0000
0110
0000
0000
0000
0000
0000
0000
0000
0000
0000
0000
0000
0000
0000
0000
0000
0000
0000
0000
0000
0000
0000
0000
0000
0000
0000
0000
0000
0000
0000
0000
0000
0000
0000
0000
0000
0101
0000
0000
0000
0000
0000
0000
0000
0000
0000
0000
0000
0000
0000
0000
0000
0000
0000
0000
0000
0000
0000
0000
0000
,
1001
0000
0000
1010
0000
0000
0110
0000
0101
0000
0000
0010
1M0M
0000
0010
0000
,
0200
0000
0300
0002
0000
0003
0020
0000
0030
0200
0000
0300
2000
0000
3000
0001
0000
0000
0100
0000
0000
0010
0000
0000
1000
0000
0000
0100
0000
0000
0010
0000
0000
0001
0000
0000
1000
0000
0000
0010
0000
0000
1000
0000
0000
0100
0000
0000
,
0010
0001
0100
0010
1000
0001
0100
0001
1000
0100
0010
0001
0100
0010
1000
0001
,
0010
0001
0100
0010
1000
0100
0010
0001
1000
0010
1000
0100
0010
0001
0100
0010
,
1000
0001
0010
0001
1000
0100
0010
0001
0100
0010
0100
0001
1000
0010
0100
0001
,
0100
0010
1000
0100
0010
0001
1000
0010
1000
0100
0010
0001
0100
0010
1000
0001
,
0100
0001
0010
0100
1000
0010
0100
0001
1000
0100
0010
0001
0100
0010
0100
0001
,
1000
0001
0100
0010
1000
0010
0100
0001
1000
0100
0010
0001
0100
0010
0100
0001
,
1000
0010
0100
0010
1000
0001
0010
0001
0100
0010
1000
0100
0010
0001
0100
0001
,
1000
0010
0100
0001
1000
0100
0010
0001
0100
0010
1000
0010
0100
0001
1000
0100
,
0010
0001
0100
0010
1000
0001
0010
0001
0100
0010
1000
0001
0100
0001
0010
0100
,
1000
0010
0100
0001
1000
0100
0010
0001
0100
0010
0100
0001
1000
0010
0100
0001
,
1000
0100
0010
0001
0100
0010
1000
0001
0010
0100
1000
0010
0100
0001
0100
0010
1000
0001
1000
0010
0100
0001
1000
0100
0010
0001
0100
0010
1000
0001
0010
0100
,
1000
0010
0100
0001
1000
0100
0010
0001
0100
0010
0100
0001
1000
0001
0010
0100
1000
0010
0100
0010
1000
0100
0010
0001
,
1000
0001
0100
0010
1000
0001
0010
0100
1000
0001
0010
0001
1000
0010
1000
0100
0010
0001
0100
0001
1000
0010
0100
0001
,
1000
0100
0010
0001
0100
0010
0100
0001
1000
0100
0010
0001
1000
0010
0100
0001
0010
0100
1000
0001
0010
0001
1000
0100
,
0010
0001
0100
0010
0100
0001
1000
0100
0010
0001
1000
0010
1000
0001
0100
0001
1000
0100
0010
0001
0100
0010
1000
0010
,
0100
0001
1000
0001
0010
0100
1000
0010
0100
0010
1000
0001
0100
0001
1000
0100
0010
0001
0100
0010
1000
0001
0100
0001
,
0010
0100
1000
0010
0100
0001
1000
0100
1000
0001
0010
0001
0100
0010
1000
0010
0100
0001
1000
0001
0100
0010
1000
0100
,
0010
0001
1000
0100
1000
0001
0100
0010
1000
0001
0010
0100
1000
0010
0100
0001
1000
0100
0010
0001
0010
0100
1000
0010
,
0100
0010
1000
0001
1000
0100
0010
0001
0100
0010
0100
0001
1000
0010
0100
0010
1000
0001
1000
0100
0010
0001
0100
0010
,
1000
0001
0010
0001
1000
0100
0010
0001
0100
0010
1000
0010
0100
0001
1000
0001
0010
0100
1000
0010
0100
0001
1000
0100
,
1000
0001
0100
0010
1000
0010
0100
0001
1000
0100
0010
0001
0100
0010
1000
0001
0010
0100
1000
0010
0100
0001
1000
0100
,
0010
0001
0100
0010
0100
0001
1000
0001
0010
0100
1000
0010
0100
0010
1000
0100
0010
0001
1000
0001
0100
0010
1000
0001
,
0010
0100
1000
0001
0010
0001
1000
0010
1000
0100
0010
0001
0100
0001
1000
0010
0100
0001
1000
0100
0010
0001
0100
0010
,
0100
0001
1000
0100
0010
0001
1000
0010
0100
0001
0010
0100
1000
0001
0010
0001
1000
0100
0010
0001
0100
0010
0100
0001
,
1000
0100
0010
0001
1000
0010
1000
0001
0100
0001
1000
0100
0010
0001
0100
0010
1000
0010
0100
0001
1000
0001
0010
0100
,
1000
0010
0100
0010
1000
0001
0100
0001
1000
0100
0010
0001
0100
0010
1000
0001
0100
0001
0010
0100
1000
0010
0100
0001
,
1000
0100
1000
0001
0010
0001
0100
0010
1000
0010
0100
0001
1000
0001
0100
0010
1000
0100
0010
0001
1000
0100
1000
0001
,
0100
0010
1000
0001
0010
0100
1000
0010
0100
0001
1000
0100
0010
0001
0010
0100
1000
0010
0100
0010
1000
0001
1000
0100
,
0010
0001
0100
0010
0100
0001
1000
0010
0100
0010
1000
0001
1000
0100
0010
0001
0100
0010
1000
0001
0010
0001
1000
0100
,
0010
0001
0100
0010
1000
0010
0100
0001
1000
0001
0010
0100
1000
0010
0100
0001
1000
0100
1000
0001
0100
0010
1000
0010
,
0100
0001
1000
0100
0010
0001
0100
0010
1000
0001
0010
0100
1000
0010
0100
0001
1000
0100
0010
0001
0100
0010
0100
0001
,
1000
0100
0010
0001
0100
0010
1000
0001
0100
0001
0010
0100
1000
0010
0100
0010
,
1000
0001
0100
0001
1000
0100
0010
0001
0100
0010
1000
0001
0010
0100
1000
0001
,
0010
0001
1000
0100
0010
0001
1000
0010
1000
0001
0100
0010
1000
0100
0010
0001
,
1000
0010
0100
0001
1000
0100
0010
0001
0100
0010
0100
0001
1000
0010
0100
0001
1000
0100
0010
0001
0100
0010
1000
0001
0010
0100
1000
0010
0100
0001
0100
0010
,
1000
0001
0100
0010
1000
0100
0010
0001
0100
0010
0100
0001
1000
0001
0010
0100
1000
0010
0100
0010
1000
0100
0010
0001
,
1000
0001
0100
0010
1000
0001
0010
0100
1000
0001
0010
0001
1000
0010
1000
0100
0010
0001
0100
0001
1000
0010
0100
0001
,
1000
0100
0010
0001
0100
0010
0100
0001
1000
0100
0010
0001
1000
0010
0100
0001
0010
0100
1000
0001
0010
0001
1000
0100
,
0010
0001
0100
0010
0100
0001
1000
0100
0010
0001
1000
0010
1000
0001
0100
0001
1000
0100
0010
0001
0100
0010
1000
0010
,
0100
0001
1000
0001
0010
0100
1000
0010
0100
0010
1000
0001
0100
0001
1000
0100
0010
0001
0100
0010
1000
0001
0100
0001
,
0010
0100
1000
0010
0100
0001
1000
0100
1000
0001
0010
0001
0100
0010
1000
0010
0100
0001
1000
0001
0100
0010
1000
0100
,
0010
0001
1000
0100
1000
0001
0100
0010
1000
0001
0010
0100
1000
0010
0100
0001
1000
0100
0010
0001
0010
0100
1000
0010
,
0100
0010
1000
0001
1000
0100
0010
0001
0100
0010
0100
0001
1000
0010
0100
0010
1000
0001
1000
0100
0010
0001
0100
0010
,
1000
0001
0010
0001
1000
0100
0010
0001
0100
0010
1000
0010
0100
0001
1000
0001
0010
0100
1000
0010
0100
0001
1000
0100
,
1000
0001
0100
0010
1000
0010
0100
0001
1000
0100
0010
0001
0100
0010
1000
0001
0010
0100
1000
0010
0100
0001
1000
0100
,
0010
0001
0100
0010
0100
0001
1000
0001
0010
0100
1000
0010
0100
0010
1000
0100
0010
0001
1000
0001
0100
0010
1000
0001
,
0010
0100
1000
0001
0010
0001
1000
0010
1000
0100
0010
0001
0100
0001
1000
0010
0100
0001
1000
0100
0010
0001
0100
0010
,
1000
0100
0010
0001
0100
0010
1000
0001
0100
0001
0010
0100
1000
0010
0100
0010
,
1000
0001
0100
0001
1000
0100
0010
0001
0100
0010
1000
0001
0010
0100
1000
0001
,
0010
0001
1000
0100
0010
0001
1000
0010
1000
0001
0100
0010
1000
0100
0010
0001
,
1000
0010
0100
0001
1000
0100
0010
0001
0100
0010
0100
0001
1000
0010
0100
0001
1000
0100
0010
0001
0100
0010
1000
0001
0010
0100
1000
0010
0100
0001
0100
0010
,
2000
0000
0000
0000
,
0000
0000
0000
3000
;

//---------------dance-single - 12.48 (12+) (Aoreo)----------------
#NOTES:
     dance-single:
     12.48 (12+) (Aoreo):
     Hard:
     12:
     0.949,1.000,0.178,0.107,1.000,1428.000,40.000,24.000,8.000,0.000:
2002
0000
0000
0000
,
0000
0000
0000
0000
,
0000
0000
0000
0000
0000
0000
3003
1000
,
0100
0000
0000
1000
0000
0000
0010
0000
0100
0000
0000
0001
0000
0000
0010
0000
,
0001
0000
0000
0100
0000
0000
0001
0000
0010
0000
0000
0100
0000
0000
1000
0000
,
0010
0000
0000
0100
0000
0000
0001
0000
0010
0000
0000
0100
0000
0000
1000
0000
,
0100
0000
0000
1000
0000
0000
0010
0000
0100
0000
0000
0001
0000
0000
1000
0000
,
0100
0000
0000
1000
0000
0000
0010
0000
0100
0000
0000
0000
0101
0000
0000
0000
,
0001
0100
0001
0010
0100
0000
1000
0000
0010
0000
0000
0100
0000
0000
0010
0000
,
1000
0000
0000
0100
0000
0000
0010
0000
0001
0000
0000
0000
2000
0000
0000
0000
,
3001
1000
0001
0010
0100
0000
1000
0000
0100
0000
0000
1000
0000
0000
0010
0000
,
0100
0000
0000
0001
0000
0000
0010
0000
0100
0000
0000
1000
0000
0000
0100
0000
,
1000
0100
1000
0010
0100
0000
0000
0000
0001
0100
0010
0100
0001
0000
0000
0000
,
0010
0100
1000
0001
1000
0000
0000
0000
0001
0100
0001
0010
0100
0000
0000
0000
,
1000
0100
1000
0010
0100
0001
1000
0100
1000
0010
0100
0001
0010
0100
1000
0010
,
1000
0100
0010
0001
0100
0010
1000
0001
0100
0001
0010
0100
1000
0010
0100
0010
1000
0100
0010
0001
0100
0010
1000
0001
,
0100
0001
0010
0100
1000
0000
0001
0100
0001
0010
0100
1000
0010
0000
1000
0100
,
1000
0010
0100
0001
0010
0000
0100
1000
0001
1000
0010
0100
0010
0000
1000
0100
,
1000
0010
0100
0001
0010
0000
0100
1000
0010
1000
0001
0100
0010
0000
1000
0100
,
1000
0010
1000
0001
0100
0000
0001
1000
0001
0010
0100
1000
0010
0000
1000
0010
,
1000
0100
0010
0001
0100
0000
0001
1000
0001
0010
0100
1000
0010
0000
1000
0100
,
1000
0010
0100
0001
0010
0000
0100
1000
0001
1000
0010
0100
0001
0000
1000
0100
,
1000
0010
0100
0001
0010
0000
0100
1000
0001
0100
0001
0010
0100
0000
1000
0010
,
0100
0010
1000
0100
0010
0000
0001
0100
0001
0010
0100
1000
0010
0000
1000
0001
,
0100
0010
0100
0001
0010
0000
0100
1000
0010
0100
0010
1000
0100
0000
1000
0001
,
1000
0010
0100
0001
0010
0000
0100
1000
0001
1000
0010
0100
0010
0000
1000
0100
,
0010
0100
1000
0010
0100
0000
0001
0100
0001
0010
0100
1000
0010
0000
1000
0010
,
0100
0010
1000
0001
0100
0000
0010
1000
0100
0010
0001
1000
0001
0000
0100
0010
,
1000
0001
0100
0001
0010
0000
0100
1000
0010
1000
0100
0010
0001
0000
1000
0010
,
1000
0100
0010
0001
0100
0000
0001
0100
0001
0010
0100
1000
0001
0000
1000
0100
,
1000
0010
0100
0010
1000
0000
0001
0100
0001
0010
0100
1000
0010
0000
1000
0100
,
1000
0010
0100
0001
0100
0000
0001
0100
0001
0010
0100
1000
0001
0000
1000
0100
,
1000
0010
0100
0000
0001
0000
1000
0100
1000
0010
0100
0000
0001
0000
0010
0000
,
0100
1000
0010
0000
0100
0000
0001
1000
0001
0010
0100
0000
1000
0000
0010
0000
,
0100
0001
0100
0000
0001
0000
0010
0100
1000
0001
1000
0000
0010
0000
0100
0001
,
1000
0100
0010
0000
0001
0000
1000
0100
1000
0010
0100
0000
0001
0000
0100
0010
,
0100
0001
0010
0000
0100
0000
1000
0100
1000
0010
0100
0000
0001
0000
0010
0000
,
0100
1000
0010
0000
1000
0000
0001
1000
0001
0010
0100
0000
1000
0000
0010
0000
,
0100
0010
0100
0000
0001
0000
0010
0100
1000
0010
1000
0000
0001
0000
1000
0100
,
1000
0010
0100
0000
0001
0000
0010
0100
1000
0010
1000
0000
0001
0000
0100
0010
,
1000
0100
0010
0000
0001
0000
1000
0100
1000
0010
0100
0000
0001
0000
1000
0000
,
0001
0100
0001
0000
0010
0000
0100
1000
0010
0100
0010
0000
1000
0000
0100
0000
,
0010
0001
1000
0000
0001
0000
1000
0100
1000
0010
0100
0000
0001
0000
1000
0000
,
0001
0010
0100
0000
1000
0000
0010
1000
0100
0010
0001
0000
1000
0000
0100
0000
,
1000
0001
0100
0000
0001
0000
0010
0000
0100
1000
0010
0000
1000
0000
0100
0000
,
1000
0001
1000
0000
0001
0000
0100
0000
0010
1000
0100
0000
0010
0000
0001
0000
,
1000
0100
0010
0000
0001
0100
0010
0000
1000
0100
0010
0000
0001
0100
0010
0000
,
1000
0001
0010
0100
1000
0010
0100
0010
1000
0001
0100
0010
1000
0100
1000
0001
0010
0100
1000
0100
0010
0001
0100
0010
,
1000
0000
0000
0000
,
0000
0000
0000
0000
0000
0000
0000
0001
,
0100
0000
0000
0001
0000
0000
0010
0000
0100
0000
0000
1000
0000
0000
0010
0000
,
0000
0000
0000
0100
0000
0000
1000
0000
0010
0000
0000
0100
0000
0000
0001
0000
,
0022
0033
0000
0010
0000
0000
0100
0000
1000
0000
0000
0010
0000
0000
1000
0000
,
2002
3003
0000
0001
0000
0000
0202
0303
0100
0000
0000
0010
2000
3000
0100
0000
,
0220
0330
0000
0010
0000
0000
0001
0000
0100
0000
0000
0001
0000
0000
1000
0000
,
0100
0000
0000
1000
0000
0000
0010
0000
0100
0000
0000
0001
0000
0000
0010
0000
,
0220
0330
0000
0100
0000
0000
1000
0000
0010
0000
0000
0100
0000
0000
0010
0000
,
1000
0000
0000
0100
0000
0000
0010
0000
0001
0000
0000
1000
0000
0000
0100
0000
,
1000
0000
0000
0010
0000
0000
0100
0000
0001
0000
0000
0010
0000
0000
0100
0000
,
1000
0000
0000
0001
0000
0000
1000
0000
0100
0000
0000
1000
0000
0000
0010
0000
,
0100
0000
0000
0001
0000
0000
0010
0000
0100
0000
0000
0010
0000
0000
0001
0000
,
0100
0000
0000
0010
0000
0000
1000
0000
0100
0000
0000
1000
0000
0000
0001
0000
,
0100
0000
0000
0001
0000
0000
0010
0000
0100
0000
0000
1000
0000
0000
0001
0000
,
0100
0000
0000
0010
0000
0000
0100
0000
0001
0000
0000
0001
1MM0
0000
0010
0000
,
M1M0
0001
0010
0100
1000
0000
0101
0000
0110
0000
0000
1010
0000
0000
1001
0000
,
0110
0000
0000
0000
0000
0000
0000
0000
0000
0011
0000
0000
0000
0000
0000
0000
0000
0000
1100
0000
0000
0000
0000
0000
1010
0000
0000
0000
0000
0000
0000
0000
0000
0001
0000
0000
2000
0000
0000
0000
0000
3000
0010
0000
0000
0000
0000
0000
,
0100
0001
1000
0100
0010
0000
0101
0000
0110
0000
0000
1010
0000
0000
0011
0000
,
0110
0000
0000
1100
0000
0000
1001
0000
0101
0000
0000
0110
0000
0000
1010
0000
,
10MM
0100
0010
0001
1000
0000
0110
0000
0101
0000
0000
1001
0000
0000
1100
0000
,
0110
0000
0000
0000
0000
0000
0000
0000
0000
0011
0000
0000
0000
0000
0000
0000
0000
0000
1001
0000
0000
0000
0000
0000
1010
0000
0000
0000
0000
0000
0000
0000
0000
0001
0000
0000
0200
0000
0000
0000
0000
0300
0010
0000
0000
1000
0000
0000
,
0100
0000
0000
0000
0000
0000
0010
0000
0000
0000
0000
0000
0001
0000
0000
0000
0000
0000
0100
0000
0000
0000
0000
0000
0020
0000
0000
0000
0000
0000
0000
0000
0000
0030
0000
0000
0002
0000
0000
0000
0003
0000
0000
0000
0000
0000
0000
0000
1100
0000
0000
0000
0000
0000
0000
0000
0000
0000
0000
0000
0000
0000
0000
0000
0000
0000
0110
0000
0000
0000
0000
0000
0000
0000
0000
0000
0000
0000
0000
0000
0000
0000
0000
0000
0101
0000
0000
0000
0000
0000
0000
0000
0000
0000
0000
0000
,
1001
0000
0000
1010
0000
0000
0110
0000
0101
0000
0000
0010
1M0M
0000
0010
0000
,
0200
0000
0300
0002
0000
0003
0020
0000
0030
0200
0000
0300
2000
0000
3000
0001
0000
0000
0100
0000
0000
0010
0000
0000
1000
0000
0000
0100
0000
0000
0010
0000
0000
0001
0000
0000
1000
0000
0000
0010
0000
0000
1000
0000
0000
0100
0000
0000
,
0010
0001
0100
0010
1000
0001
0100
0001
1000
0100
0010
0001
0100
0010
1000
0001
,
0010
0001
0100
0010
1000
0100
0010
0001
1000
0010
1000
0100
0010
0001
0100
0010
,
1000
0001
0010
0001
1000
0100
0010
0001
0100
0010
0100
0001
1000
0010
0100
0001
,
0100
0010
1000
0100
0010
0001
1000
0010
1000
0100
0010
0001
0100
0010
1000
0001
,
0100
0001
0010
0100
1000
0010
0100
0001
1000
0100
0010
0001
0100
0010
0100
0001
,
1000
0001
0100
0010
1000
0010
0100
0001
1000
0100
0010
0001
0100
0010
0100
0001
,
1000
0010
0100
0010
1000
0001
0010
0001
0100
0010
1000
0100
0010
0001
0100
0001
,
1000
0010
0100
0001
1000
0100
0010
0001
0100
0010
1000
0010
0100
0001
1000
0100
,
0010
0001
0100
0010
1000
0001
0010
0001
0100
0010
1000
0001
0100
0001
0010
0100
,
1000
0010
0100
0001
1000
0100
0010
0001
0100
0010
0100
0001
1000
0010
0100
0001
,
1000
0100
0010
0001
0100
0010
0100
0001
1000
0100
0010
0001
0010
0100
1000
0010
0100
0010
1000
0001
1000
0010
0100
0001
,
1000
0001
0010
0100
1000
0000
0001
0100
0001
0010
0100
1000
0010
0000
1000
0100
,
1000
0010
0100
0001
0010
0000
0100
1000
0001
1000
0010
0100
0010
0000
1000
0100
,
1000
0010
0100
0001
0010
0000
0100
1000
0010
1000
0001
0100
0010
0000
1000
0100
,
1000
0010
1000
0001
0100
0000
0001
1000
0001
0010
0100
1000
0010
0000
1000
0010
,
1000
0100
0010
0001
0100
0000
0001
1000
0001
0010
0100
1000
0010
0000
1000
0100
,
1000
0010
0100
0001
0010
0000
0100
1000
0001
1000
0010
0100
0001
0000
1000
0100
,
1000
0010
0100
0001
0010
0000
0100
1000
0001
0100
0001
0010
0100
0000
1000
0010
,
0100
0010
1000
0100
0010
0000
0001
0100
0001
0010
0100
1000
0010
0000
1000
0001
,
0100
0010
0100
0001
0010
0000
0100
1000
0010
0100
0010
1000
0100
0000
1000
0001
,
1000
0010
0100
0001
0010
0000
0100
1000
0001
1000
0010
0100
0010
0000
1000
0100
,
0010
0100
1000
0010
0100
0000
0001
0100
0001
0010
0100
1000
0010
0000
1000
0010
,
0100
0010
1000
0001
0100
0000
0010
1000
0100
0010
0001
1000
0001
0000
0100
0010
,
1000
0001
0100
0001
0010
0000
0100
1000
0010
1000
0100
0010
0001
0000
1000
0010
,
1000
0100
0010
0001
0100
0000
0001
0100
0001
0010
0100
1000
0001
0000
1000
0100
,
1000
0010
0100
0010
1000
0000
0001
0100
0001
0010
0100
1000
0010
0000
1000
0100
,
1000
0010
0100
0001
0100
0000
0001
0100
0001
0010
0100
1000
0001
0000
1000
0100
,
1000
0010
0100
0000
0001
0000
1000
0100
1000
0010
0100
0000
0001
0000
0010
0000
,
0100
1000
0010
0000
0100
0000
0001
1000
0001
0010
0100
0000
1000
0000
0010
0000
,
0100
0001
0100
0000
0001
0000
0010
0100
1000
0001
1000
0000
0010
0000
0100
0001
,
1000
0100
0010
0000
0001
0000
1000
0100
1000
0010
0100
0000
0001
0000
0100
0010
,
0100
0001
0010
0000
0100
0000
1000
0100
1000
0010
0100
0000
0001
0000
0010
0000
,
0100
1000
0010
0000
1000
0000
0001
1000
0001
0010
0100
0000
1000
0000
0010
0000
,
0100
0010
0100
0000
0001
0000
0010
0100
1000
0010
1000
0000
0001
0000
1000
0100
,
1000
0010
0100
0000
0001
0000
0010
0100
1000
0010
1000
0000
0001
0000
0100
0010
,
1000
0100
0010
0000
0001
0000
1000
0100
1000
0010
0100
0000
0001
0000
1000
0000
,
0001
0100
0001
0000
0010
0000
0100
1000
0010
0100
0010
0000
1000
0000
0100
0000
,
0010
0001
1000
0000
0001
0000
1000
0100
1000
0010
0100
0000
0001
0000
1000
0000
,
0001
0010
0100
0000
1000
0000
0010
1000
0100
0010
0001
0000
1000
0000
0100
0000
,
1000
0001
0010
0100
1000
0000
0001
0100
0001
0010
0100
1000
0010
0000
1000
0100
,
1000
0010
0100
0001
0010
0000
0100
1000
0001
1000
0010
0100
0010
0000
1000
0100
,
1000
0010
0100
0001
0010
0000
0100
1000
0010
1000
0001
0100
0010
0000
1000
0100
,
1000
0010
1000
0001
0100
0000
0001
1000
0001
0010
0100
1000
0010
0000
1000
0010
,
1000
0100
0010
0001
0100
0000
0001
1000
0001
0010
0100
1000
0010
0000
1000
0100
,
1000
0010
0100
0001
0010
0000
0100
1000
0001
1000
0010
0100
0001
0000
1000
0100
,
1000
0010
0100
0001
0010
0000
0100
1000
0001
0100
0001
0010
0100
0000
1000
0010
,
0100
0010
1000
0100
0010
0000
0001
0100
0001
0010
0100
1000
0010
0000
1000
0001
,
0100
0010
0100
0001
0010
0000
0100
1000
0010
0100
0010
1000
0100
0000
1000
0001
,
1000
0010
0100
0001
0010
0000
0100
1000
0001
1000
0010
0100
0010
0000
1000
0001
,
0010
0001
1000
0100
0010
0001
1000
0010
1000
0001
0100
0010
1000
0100
0010
0001
,
1000
0001
0010
0100
1000
0010
0100
0010
1000
0001
0100
0010
1000
0100
1000
0001
0010
0100
1000
0100
0010
0001
0100
0010
,
2000
0000
0000
0000
,
0000
0000
0000
3000
,
0000
0000
0000
0000
;

//---------------dance-single - ----------------
#NOTES:
     dance-single:
     :
     Easy:
     28:
     1.000,1.000,0.125,0.022,1.000,2445.000,28.000,5.000,0.000,10.000:

1111
0000
0000
0000
,
0001
0000
0000
0001
0000
0000
0001
0000
0100
0000
0000
0100
0000
0000
0100
0000
,
1000
0000
0000
1000
0000
0000
1000
0000
0100
0000
0000
0100
0000
0000
0100
0000
,
0010
0000
0000
0010
0000
0000
0010
0000
1000
0000
0000
1000
0000
0000
1000
0000
,
0010
0000
0000
0010
0000
0000
0010
0000
0100
0000
0000
0100
0000
0000
0100
0000
,
0001
0000
0000
0001
0000
0000
0001
0000
0100
0000
0000
0100
0000
0000
0100
0000
,
0010
0000
0000
0010
0000
0000
0010
0000
1000
0000
0000
1000
0000
0000
1000
0000
,
0001
0000
0000
0001
0000
0000
0001
0000
0100
0000
0000
0000
1110
0000
0000
0000
,
1011
0001
1000
0100
1000
0001
0100
0010
1000
0100
0010
0100
1000
0001
0100
0010
,
1000
0100
0010
0100
1000
0001
0100
0010
0100
0001
0010
0100
1000
0001
0100
0010
,
0100
0001
0010
0100
1000
0100
0010
0001
0100
0010
0100
0001
0010
0100
1000
0100
,
0010
0001
0100
0010
1000
0100
1000
0001
0010
0100
1000
0100
0010
0001
1000
0100
,
0011
0100
1000
0001
0100
0010
1000
0100
0010
0001
0010
0001
0010
0100
1000
0001
,
0100
0010
0100
0010
0100
0001
1000
0100
0010
0001
0010
0001
0010
0100
1000
0001
,
0100
0010
0100
0010
1000
0100
1000
0100
0010
0001
0010
0001
0100
0010
0100
0010
,
1000
0001
0010
0100
1000
0100
0010
0001
0100
0010
1000
0100
0010
0100
1000
0001
0010
0100
1000
0100
0010
0001
0100
0010
0100
0001
0010
0100
1000
0100
0010
0001
,
1000
0010
0100
0001
1000
0100
0010
0001
0010
0000
0000
0000
0100
1000
0001
0100
0010
1000
0100
0010
0001
0010
0100
1000
0001
0000
0000
0000
0100
0010
1000
0100
,
0010
0100
1000
0001
0100
0010
1000
0100
0010
0000
0000
0000
0001
0100
0010
1000
0100
0010
0001
0010
0100
1000
0001
0100
0010
0000
0000
0000
1000
0001
0100
0010
,
1000
0001
1000
0100
0010
0001
0010
0100
1000
0000
0000
0000
0001
0100
0010
1000
0100
0010
0100
1000
0001
0100
0010
1000
0100
0000
0000
0000
0010
0001
0100
0010
,
1000
0100
0010
0100
1000
0001
0100
0010
1000
0000
0000
0000
0100
0010
0100
1000
0001
0100
0010
1000
0100
0010
0001
0100
0010
0000
0000
0000
1000
0100
0010
0001
,
1100
0000
0010
0000
0001
0000
0100
0000
0010
0000
0000
0000
1000
0001
0100
0010
1000
0100
0010
0100
1000
0001
0100
0010
1000
0000
0000
0000
0001
1000
0100
1000
,
0001
1000
0100
1000
0001
0100
0010
1000
0100
0000
0000
0000
0010
0001
0100
0010
1000
0100
0010
0100
1000
0001
0100
0010
1000
0000
0000
0000
0001
0100
0010
1000
,
0100
0010
0100
1000
0001
0100
0010
1000
0100
0000
0000
0000
0010
0001
0100
0010
1000
0100
0010
0100
1000
0001
0100
0010
1000
0000
0000
0000
0001
0010
0100
1000
,
0100
0010
0001
0100
0010
0100
0001
0010
0100
0000
0000
0000
1000
0001
0100
0010
1000
0100
0010
0100
1000
0001
0100
0010
1000
0000
0000
0000
0001
0010
0100
1000
,
0011
0000
0100
0000
1000
0000
0100
0000
0010
0000
0000
0000
0001
0100
0010
1000
0100
0010
0100
1000
0001
0100
0010
1000
0100
0000
0000
0000
0010
0001
1000
0100
,
0010
0001
1000
0100
0010
0001
1000
0100
0010
0000
0000
0000
0001
0010
0100
1000
0001
0010
0100
1000
0001
0010
0100
1000
0001
0000
0000
0000
1000
0010
0100
0001
,
1000
0100
0010
0001
0010
0100
1000
0001
0100
0000
0000
0000
0010
1000
0100
0010
0001
1000
0100
0010
0001
1000
0010
1000
0001
0000
0000
0000
0100
0010
1000
0100
,
0010
0001
0010
0100
1000
0001
0100
0010
1000
0000
0000
0000
0001
0100
0010
1000
0100
0010
0100
1000
0001
0010
0100
1000
0100
0000
0000
0000
0010
0000
0001
0000
,
0011
0000
0100
0000
1000
0000
0100
0000
0010
0000
0000
0000
0001
0100
0010
1000
0100
0010
0100
1000
0001
0100
0010
1000
0100
0000
0000
0000
0010
0001
1000
0100
,
0010
0001
1000
0100
0010
0001
1000
0100
0010
0000
0000
0000
0001
0010
0100
1000
0001
0010
0100
1000
0001
0010
0100
1000
0001
0000
0000
0000
1000
0010
0100
0001
,
1000
0100
0010
0001
0010
0100
1000
0001
0100
0000
0000
0000
0010
1000
0100
0010
0001
1000
0100
0010
0001
1000
0010
1000
0001
0000
0000
0000
0100
0010
1000
0100
,
0010
0001
0010
0100
1000
0001
0100
0010
1000
0000
0000
0000
0001
0100
0010
1000
0100
0010
0100
1000
0001
0010
0100
1000
0100
0000
0000
0000
0010
0000
0001
0000
,
1100
0000
0001
0000
0010
0100
1000
0000
0001
0100
0010
0000
1000
0000
0010
0000
0100
0000
0001
0000
1000
0000
0000
0000
0010
0100
0001
0000
1000
0100
0010
0000
,
1000
0000
0001
0000
0100
0000
0000
0000
0010
1000
0010
0000
0100
0000
0001
0000
0100
0000
0010
0000
1000
0000
0000
0000
0001
0100
0010
0000
1000
0001
0100
0000
,
0010
0000
1000
0000
0010
0000
0000
0000
0100
0001
0100
0000
0010
0000
1000
0000
0100
0000
0010
0000
0001
0000
0000
0000
0100
0010
1000
0000
0001
0100
0010
0000
,
1000
0000
0100
0000
0010
0000
0000
0000
0001
0100
0010
0000
1000
0000
0100
0000
1000
0000
0001
0000
0100
0000
0000
0000
0010
1000
0001
0000
1000
0000
0100
0000
,
1100
0000
0010
0000
0001
0100
0010
1000
0100
0010
0100
1000
0001
0010
0100
1000
0001
0100
0010
1000
0100
0010
0001
0010
0100
1000
0100
0010
0001
0000
0000
0000
,
0001
0010
0100
1000
0001
0100
0010
1000
0100
0010
0100
1000
0001
0100
0010
1000
0100
0010
0001
0020
0130
1000
0001
1000
0100
0010
0001
1000
0010
0000
0000
0000
,
0100
0001
1000
0100
0010
0001
0010
0100
1000
0001
0100
0010
1000
0100
0010
0001
0010
0100
1000
0001
0100
0010
1000
0100
0010
0001
0010
0100
1000
0000
0001
0000
,
0100
0001
0100
0000
0101
0000
0100
0010
1000
0010
0100
0000
0101
0000
0001
1000
,
0110
0000
0001
0000
1000
0000
0000
0000
0001
0100
0010
1000
0100
0010
0100
1000
0001
0100
0010
1000
0200
0310
0001
0100
0010
1000
0100
0010
0001
0000
0000
0000
,
0100
0010
1000
0001
0010
0100
1000
0100
0010
0001
0100
0010
0100
0001
0010
0100
1000
0100
0010
0001
0100
0010
1000
0100
0010
0001
0010
0100
1000
0000
0000
0000
,
0100
0010
1000
0001
0010
0100
1000
0100
0010
0001
0100
0010
0100
0001
0010
0100
1000
0100
0010
0001
0100
0010
1000
0100
0010
0001
0010
0100
1000
0000
0000
0000
,
0100
0010
1000
0001
0010
0100
1000
0100
0010
0001
0100
0010
0100
0001
0010
0100
1000
0100
0010
0001
0100
0010
1000
0100
0010
0001
0010
0100
1000
0000
0000
0000
,
0100
0010
1000
0001
0010
0100
1000
0100
0010
0001
0100
0010
0100
0001
0010
0100
1000
0100
0010
0001
0100
0010
1000
0100
0010
0001
0010
0100
1000
0001
0100
0010
,
0100
0010
1000
0001
0010
0100
1000
0100
0010
0001
0100
0010
0100
0001
0010
0100
1000
0100
0010
0001
0100
0010
1000
0100
0010
0001
0010
0100
1000
0001
0100
0010
,
1000
0100
0010
0001
0010
0100
1000
0001
0010
0001
1000
0100
0010
0001
0100
0010
0100
0001
0010
0100
1000
0100
0010
0001
0100
0010
0100
0001
0010
0100
1000
0100
,
0010
0001
0100
0010
1000
0100
0010
0100
1000
0100
0010
0100
1000
0001
0100
0010
1000
0100
0010
0001
0010
0100
1000
0001
0100
0010
1000
0100
0010
0001
1000
0000
,
1011
0000
0000
0000
,
0001
0000
0100
0000
,
0010
0000
0000
0010
0000
0000
0010
0000
1000
0000
0000
1000
0000
0000
1000
0000
,
0010
0000
0000
0010
0000
0000
0010
0000
0100
0000
0000
0100
0000
0000
0100
0000
,
0111
0000
0000
0001
0000
0000
1000
0000
0010
0000
0000
1000
0000
0000
0010
0000
,
1110
0000
0000
1000
0000
0000
1011
0000
0001
0000
0000
0000
0111
0000
0000
0000
,
1011
0000
0000
0001
0000
0000
0100
0000
0010
0000
0000
1000
0000
0000
0100
0000
,
0010
0000
0000
0001
0000
0000
0100
0000
0010
0000
0000
1000
0000
0000
0001
0000
,
1011
0000
0000
0001
0000
0000
0100
0000
0010
0000
0000
1000
0000
0000
0010
0000
,
0100
0000
0000
0001
0000
0000
0100
0000
0010
0000
0000
1000
0000
0000
0010
0000
,
0100
0000
0000
0001
0000
0000
0100
0000
0001
0000
0000
0001
0000
0000
0001
0000
,
0100
0000
0000
0100
0000
0000
0100
0000
0010
0000
0000
0010
0000
0000
0010
0000
,
0001
0000
0000
0100
0000
0000
0010
0000
0100
0000
0000
0001
0000
0000
0100
0000
,
0001
0000
0000
0100
0000
0000
0010
0000
1000
0000
0000
0100
0000
0000
0010
0000
,
0001
0000
0010
0000
0000
0100
0000
0000
1000
0000
0000
0010
0000
0000
0100
0000
,
0001
0000
0000
0100
0000
0000
0010
0000
0100
0000
0000
0000
0101
0000
0000
0000
,
0110
0010
0100
0010
0100
0000
0010
0000
1000
0000
0001
0100
0000
0100
0001
0000
,
0100
0000
0010
1000
0000
1000
0010
0000
0100
0000
0001
1000
0000
1000
0001
0000
,
0100
0010
0100
0001
0100
0000
0010
0000
1000
0000
0001
0100
0000
0010
1000
0000
,
0001
0000
0100
0010
1000
0100
1000
0000
0001
0000
0100
0010
0100
0001
1000
0000
,
1001
0001
0010
0001
0100
0010
1000
0000
0001
0000
0100
0010
1000
0010
0100
0000
,
0001
0000
1000
0100
0010
0100
1000
0000
0001
0000
0100
0010
1000
0100
0010
0001
,
0100
0010
1000
0100
0040
0000
0031
0000
1000
0000
0000
0010
0000
0000
0100
0000
,
0001
0000
0000
0100
0000
0000
0010
0000
1000
0000
0000
0010
1010
0000
0000
0000
,
1001
0100
0010
0100
0010
0000
0000
0000
0000
0000
0000
0000
0000
0000
0000
0000
,
0001
1000
0001
1000
0001
0000
0000
0000
0000
0000
0000
0000
0000
0000
0000
0000
,
0010
0100
0010
0100
0010
0000
0000
0000
0000
0000
0000
0000
0000
0000
0000
0000
,
0001
0010
0001
0010
0001
0000
0000
0000
0000
0000
0000
0000
0000
0000
0000
0000
,
1000
0100
1000
0100
1000
0001
0100
0010
1000
0100
0010
0100
1000
0001
0100
0010
,
0100
0001
0010
0100
1000
0001
0100
0010
0100
0001
1000
0100
0010
0001
0010
0100
,
1000
0001
0100
0010
1000
0001
0010
0100
1000
0100
0010
0001
0010
0100
1000
0001
,
0100
0010
1000
0100
0010
0001
0010
0100
1000
0001
0100
0010
0100
0001
0010
0100
,
1000
0100
0010
0001
1000
0100
1000
0001
0010
0100
1000
0001
0100
0010
1000
0100
,
0010
0100
1000
0001
0010
0100
1000
0100
0010
0001
0100
0010
0100
0001
1000
0100
,
1000
0001
0100
0010
1000
0100
0010
0100
1000
0001
0100
0010
1000
0100
0010
0001
,
0100
0010
1000
0001
0010
0100
1000
0100
0010
0001
1000
0010
0100
0001
1000
0100
0010
0001
0010
0100
1000
0001
0100
0010
1000
0100
0010
0001
0010
0100
1000
0001
,
1000
0010
1000
0100
0010
0001
0010
0100
1000
0001
0100
0010
1000
0100
0010
0001
0010
0100
1000
0001
0100
0010
1000
0001
,
0010
0100
1000
0100
0010
0001
0100
0010
1000
0001
0010
0100
1000
0100
0010
0001
0100
0010
0100
0001
0100
0010
1000
0100
,
0010
0001
0100
0010
1000
0001
0010
0100
1000
0001
0010
0001
1000
0100
1000
0001
0100
0010
1000
0100
0010
0001
0010
0100
,
1000
0001
0100
0010
1000
0100
0010
0001
0010
0100
1000
0001
0100
0010
1000
0100
0010
0001
0010
0100
1000
0001
1000
0010
,
1000
0100
0010
0001
0010
0100
1000
0001
1000
0000
0000
0000
0100
0000
0010
0000
0001
0010
0100
1000
0100
0010
0001
0100
0010
0000
0000
0000
1000
0000
0010
0000
,
0100
0001
0100
0010
1000
0100
0010
0001
1000
0000
0000
0000
0010
0000
0100
0000
0001
0010
0100
1000
0100
0010
0001
1000
0010
0000
0000
0000
0100
0010
0001
1000
,
0100
0010
0001
0010
0100
1000
0001
0100
0010
0000
0000
0000
1000
0001
1000
0100
0010
0001
0010
0100
1000
0001
1000
0100
0010
0000
0000
0000
0001
0100
0010
1000
,
0001
0010
0100
1000
0001
0100
0010
1000
0100
0000
0000
0000
0010
0001
0010
0100
1000
0001
0100
0010
1000
0100
0010
0001
0100
0000
0000
0000
0010
0000
0001
0000
,
1100
0000
0001
0000
0010
0000
0000
0000
0100
1000
0001
0100
0010
1000
0100
0010
0001
0100
0010
1000
0100
0010
0001
0010
0100
0000
0000
0000
1000
0001
0100
0010
,
1000
0001
0100
0010
1000
0100
0010
0001
0100
0000
0000
0000
0010
1000
0100
0010
0001
0010
0100
1000
0001
0100
0010
1000
0100
0000
0000
0000
0010
0001
0100
0010
,
1000
0001
0100
0010
1000
0100
0010
0001
0100
0000
0000
0000
0010
1000
0100
0010
0001
0010
0100
1000
0001
0100
0010
1000
0100
0000
0000
0000
0010
0001
0100
0010
,
1000
0100
0010
0100
1000
0001
0100
0010
1000
0000
0000
0000
0001
0100
0010
1000
0100
0010
0001
0010
0100
1000
0001
0100
0010
0000
0000
0000
1000
0000
0100
0000
,
0011
0100
1000
1000
1000
0000
0010
0100
0001
1000
0100
0100
0100
0000
0010
0001
,
1000
0010
0100
0100
0100
0000
0001
0100
0010
1000
0100
0100
0100
0000
0010
0001
,
1000
0100
0010
0010
0010
0001
0100
0010
1000
0100
0010
0001
0100
0010
1000
0100
,
0010
0001
0010
0100
1000
0001
0100
0010
1000
0100
0010
0001
0010
0100
1000
0001
0100
0010
1000
0100
0010
0001
0010
0100
1000
0001
0100
0010
1000
0100
0010
0001
,
1000
0010
0100
0001
1000
0100
0010
0001
0010
0100
1000
0001
0100
0010
1000
0100
0010
0001
0010
0100
1000
0001
1000
0010
0100
0001
1000
0100
0010
0001
0010
0100
,
1000
0001
0100
0010
1000
0100
0010
0001
0010
0100
1000
0001
0100
0010
1000
0100
0010
0001
0010
0100
1000
0001
0100
0010
1000
0100
0010
0001
0010
0100
1000
0001
,
0100
0010
1000
0001
0100
0010
1000
0100
0010
0001
0010
0100
1000
0001
0100
0010
1000
0100
0010
0100
1000
0001
0100
0010
1000
0100
0010
0001
0010
0100
1000
0001
,
1000
0010
0100
0001
1000
0100
0010
0001
0010
0100
2000
3001
0100
0010
1000
0100
0010
0001
0010
0100
1000
0100
0010
0001
0010
0100
1000
0100
0010
0001
1000
0100
,
1100
0010
0001
0010
0100
1000
0001
0100
0010
1000
0100
0010
0100
1000
0001
0100
0010
1000
0100
0010
0100
1000
0001
0100
0010
1000
0100
0010
0001
0010
0100
0010
,
0001
0100
0010
1000
0100
0010
0001
0010
0100
1000
0001
1000
0020
1030
0100
0010
0100
1000
0010
0100
0010
1000
0010
0100
0001
1000
0100
0010
0001
1000
0010
0100
,
0001
1000
0100
0010
0001
0010
0100
1000
0001
0100
0010
1000
0100
0010
0001
0100
0010
1000
0001
0100
0010
1000
0100
0010
0001
0100
0010
1000
0100
0010
0001
1000
,
0100
0010
0001
0010
0100
1000
0001
0100
0010
1000
0100
0010
0001
0010
0100
1000
0100
0010
0001
0100
0010
1000
0100
0010
,
0100
0010
0001
0010
0100
1000
0001
0100
0010
1000
0100
0010
0001
0010
0100
1000
0001
0100
0010
1000
0100
0010
0100
1000
0001
0100
0010
1000
0100
0010
0100
1000
,
0001
0100
0010
1000
0100
0010
0100
1000
0001
0010
0100
1000
0100
0010
0100
1000
0001
0100
0010
1000
0100
0010
0100
1000
0001
0100
0010
1000
0100
0010
0100
1000
,
0001
0010
0100
1000
0100
0010
0001
0010
0100
1000
0001
0100
0010
1000
0100
0010
0001
0010
0100
1000
0001
0100
0010
0100
0001
0010
0100
1000
0100
0010
0001
0100
,
0010
1000
0100
0010
0001
0010
0100
1000
0001
0100
0010
1000
0001
1000
0100
0010
0001
0010
0100
1000
0001
0100
0010
1000
0100
0010
0100
1000
0001
0100
0010
1000
,
0001
0000
0100
0000
0010
0000
1000
0000
0100
0000
0000
0000
0010
0001
0100
0010
1000
0100
0010
0001
0010
0100
0010
0100
0001
0100
0010
0100
0001
1000
0100
0010
,
0001
0010
0100
1000
0001
1000
0100
0010
0001
0010
0100
1000
0001
0100
0010
1000
0100
0010
0100
1000
0001
1000
0001
1000
0010
1000
0001
0100
0010
1000
0100
1000
,
0001
0100
0010
1000
0001
0010
0100
1000
0001
0010
0100
1000
0001
0100
0010
1000
0001
0010
0001
1000
0100
1000
0001
0100
0001
1000
0010
1000
0001
0100
0010
1000
,
0100
0010
0001
0010
0100
1000
0001
0100
0010
1000
0100
0010
0001
0010
0100
1000
0001
0100
0010
1000
0100
0010
0001
0010
0100
1000
0001
0100
0010
0100
0001
0010
,
0100
1000
0100
0010
0001
0100
0010
1000
0001
0010
0100
1000
0100
0010
0001
0100
0010
1000
0100
0010
0001
0010
0100
1000
0001
0100
0010
1000
0100
0010
0001
0010
,
0100
1000
0001
0100
0010
1000
0100
0010
0100
0010
0100
1000
0001
0100
0010
1000
0100
0010
0001
0010
0100
1000
0001
1000
0010
1000
0001
1000
0010
1000
0001
0000
,
0010
0100
0001
1000
0001
1000
0010
1000
0001
0010
0100
1000
0100
0010
0001
1000
0010
1000
0001
0010
0100
1000
0100
0010
0001
1000
0010
0100
0001
1000
0100
0010
,
0001
0010
0100
1000
0001
0100
0010
1000
0100
0010
0001
0010
0100
1000
0001
0100
0010
1000
0100
0010
0100
1000
0001
0100
0010
1000
0001
0010
0100
1000
0100
0010
,
0001
0100
0010
1000
0001
0100
0010
0100
0001
1000
0010
0100
0001
1000
0010
0100
0001
0100
0010
0100
0001
1000
0010
1000
0001
0100
0001
1000
0010
0100
0001
0100
,
0010
1000
0100
1000
0001
1000
0010
1000
0001
0100
0010
1000
0100
0010
0100
1000
0010
1000
0001
1000
0010
1000
0001
1000
0010
1000
0001
1000
0010
1000
0001
1000
,
0010
0000
0010
0000
0100
0000
0100
0000
0001
0000
0001
0000
0100
0000
0100
0000
0010
1000
0010
0000
0100
0000
0000
0000
0001
1000
0001
0000
0100
0000
0000
0000
,
0001
0010
0100
1000
0001
0010
0100
1000
0100
0010
0001
1000
0100
0010
0001
1000
0100
0010
0001
1000
0001
0010
0100
1000
0001
0010
0100
1000
0100
0020
0031
1000
0100
0010
0001
1000
0100
0010
0001
0010
0100
1000
0001
0010
0100
1000
0001
0010
,
0100
0000
0000
0000
;
