#TITLE:Heavenly Spores;
#SUBTITLE:;
#ARTIST:Blitz Lunar;
#TITLETRANSLIT:;
#SUBTITLETRANSLIT:;
#ARTISTTRANSLIT:;
#CREDIT:WinDEU;
#BANNER:../bn.png;
#BACKGROUND:../bg.png;
#LYRICSPATH:;
#CDTITLE:;
#MUSIC:Heavenly Spores.ogg;
#OFFSET:2.148;
#SAMPLESTART:124.574;
#SAMPLELENGTH:17.240;
#SELECTABLE:YES;
#DISPLAYBPM:225.000;
#BPMS:0.000=225.358,292.000=225.000,296.000=225.358,392.000=221.771,412.000=225.358;
#STOPS:292.000=0.001
;
#BGCHANGES:;
// cache tags:
#FIRSTBEAT:8.000;
#LASTBEAT:615.000;
#SONGFILENAME:Songs/Cirque du Zonda/Zaia - Heavenly Spores/Heavenly Spores.sm;
#HASMUSIC:1;
#HASBANNER:1;
#MUSICLENGTH:163.008;
// end cache tags

//---------------dance-single - Zaia - 16.8----------------
#NOTES:
     dance-single:
     Zaia - 16.8:
     Challenge:
     16:
     1.000,1.000,0.000,0.454,1.000,1692.000,0.000,74.000,52.000,0.000:
0000
0000
0000
0000
,
0000
0000
0000
0000
,
0001
1000
0001
0010
0001
1000
0010
1000
0010
0100
0001
0100
0010
1000
0001
1000
,
0100
0010
0001
1000
0001
0010
0100
1000
0010
0100
0001
1000
0001
0100
0010
0100
,
0001
1000
0001
0100
0001
1000
0100
1000
0100
0010
0001
0010
0100
1000
0001
1000
,
0010
0100
0001
1000
0001
0100
0010
1000
0100
0010
0001
1000
0001
0010
0100
1000
,
0001
0010
0001
1000
0010
1000
0001
0100
0010
1000
0100
1000
0001
0010
0001
0100
,
0010
1000
0001
1000
0010
0100
0001
1000
0001
0100
0010
1000
0001
0010
0001
1000
,
0010
0100
0001
1000
0100
1000
0001
0010
0100
1000
0010
1000
0001
0100
0001
0010
,
0100
1000
0001
1000
0100
0010
0001
1000
0001
0010
0100
1000
0001
0100
0001
1000
,
0010
0100
0001
1000
0100
0010
0001
1000
,
0010
0100
0001
1000
0100
0010
0001
1000
,
0010
0100
0001
1000
0100
0010
0001
1000
,
0020
0030
0000
0000
0000
0000
0000
0000
0200
0300
0000
0000
0000
0000
0000
0000
0020
0030
0000
0000
0000
0000
0000
0000
2000
3000
0000
0000
0000
0000
0000
0000
0001
0000
0000
0000
0010
0000
0000
0000
0001
0000
0000
0000
1000
0000
0000
0000
0001
0000
0000
0000
0100
0000
0000
0000
0010
0000
0000
0000
1000
0000
0000
0000
,
0001
0010
0100
1000
0001
0100
0010
1000
,
0001
0010
0100
1000
0001
0100
0010
1000
,
0001
0010
0100
1000
0001
0100
0010
1000
,
0200
0300
0000
0000
0000
0000
0000
0000
0020
0030
0000
0000
0000
0000
0000
0000
0200
0300
0000
0000
0000
0000
0000
0000
2000
3000
0000
0000
0000
0000
0000
0000
0001
0000
0000
0000
0100
0000
0000
0000
0001
0000
0000
0000
1000
0000
0000
0000
0001
0000
0000
0000
0010
0000
0000
0000
0100
0000
0000
0000
1000
0000
0000
0000
,
0001
0100
0010
1000
0100
1000
0001
0100
,
0010
1000
0001
1000
0100
0010
0001
1000
,
0010
1000
0001
0010
0100
1000
0001
1000
,
0020
0030
0000
0000
0000
0000
0000
0000
0200
0300
0000
0000
0000
0000
0000
0000
0002
0003
0000
0000
0000
0000
0000
0000
0020
0030
0000
0000
0000
0000
0000
0000
0100
0000
0000
0000
1000
0000
0000
0000
0001
0000
0000
0000
1000
0000
0000
0000
0010
0000
0000
0000
1000
0000
0000
0000
0001
0000
0000
0000
0010
0000
0000
0000
,
0100
1000
0001
1000
0010
0100
0001
0010
,
0100
1000
0001
1000
0010
0100
0001
1000
,
0100
1000
0001
0100
0010
1000
0001
1000
,
0100
0010
0001
1000
0001
0100
0010
1000
0001
0010
0001
1000
0010
0100
0010
1000
,
0001
0000
0000
0000
0010
0000
0000
0000
0100
0000
0000
0000
1000
0000
0000
0000
0002
0003
0000
0000
0100
0000
0000
0000
0010
0000
0000
0000
2000
3000
0000
0000
,
0001
0000
0000
0000
0010
0000
0000
0000
0200
0300
0000
0000
1000
0000
0000
0000
0001
0000
0000
0000
0020
0030
0000
0000
0001
0000
0000
0000
1000
0000
0000
0000
,
0020
0030
0000
0000
0100
0000
0000
0000
0002
0003
0000
0000
2000
3000
0000
0000
0001
0000
0000
0000
0100
0000
0000
0000
0010
0000
0000
0000
1000
0000
0000
0000
,
0001
0010
0100
1000
0001
0010
0100
1000
0001
0100
0001
1000
0010
0100
0001
1000
,
0200
0300
0000
0000
0010
0000
0000
0000
0200
0300
0000
0000
2000
3000
0000
0000
0001
0000
0000
0000
0100
0000
0000
0000
0010
0000
0000
0000
1000
0000
0000
0000
,
0001
0000
0010
0000
0100
0000
1000
0000
0001
0000
0020
0030
0002
0003
2000
3000
,
0020
0030
0100
0000
0002
0003
2000
3000
0001
0000
0010
0000
0100
0000
1000
0000
,
0001
0100
0010
1000
0001
0100
0010
1000
0001
0010
0001
1000
0100
0010
0001
1000
,
0010
0000
0000
0000
1000
0000
0000
0000
0100
0000
0000
0000
0010
0000
0000
0000
0002
0003
0000
0000
0100
0000
0000
0000
0010
0000
0000
0000
2000
3000
0000
0000
,
0001
0000
0000
0000
0010
0000
0000
0000
0200
0300
0000
0000
1000
0000
0000
0000
0001
0000
0000
0000
0020
0030
0000
0000
0001
0000
0000
0000
1000
0000
0000
0000
,
0020
0030
0000
0000
0100
0000
0000
0000
0002
0003
0000
0000
2000
3000
0000
0000
0001
0000
0000
0000
0100
0000
0000
0000
0010
0000
0000
0000
1000
0000
0000
0000
,
0001
0010
0100
1000
0001
0010
0100
1000
0001
0100
0001
1000
0010
0100
0001
1000
,
0200
0300
0000
0000
0010
0000
0000
0000
0200
0300
0000
0000
2000
3000
0000
0000
0001
0000
0000
0000
0020
0030
0000
0000
0100
0000
0000
0000
2000
3000
0000
0000
,
0001
0000
0100
0000
0010
0000
1000
0000
0001
0000
0200
0300
0002
0003
2000
3000
,
0200
0300
0010
0000
0001
0000
1000
0001
0020
0030
0100
0000
0010
0000
0001
0000
,
1000
0010
0100
0001
1000
0010
0100
0001
1000
0100
1000
0001
0010
0100
1000
0001
,
1000
0010
0100
0001
1000
0001
1000
0100
0010
0100
1000
0001
1000
0010
1000
0001
,
0100
0001
1000
0001
0010
0100
1000
0001
0100
0010
1000
0001
0010
0100
1000
0010
,
0100
0001
0100
0010
1000
0001
1000
0001
0010
0100
1000
0001
0100
0001
1000
0100
,
1000
0001
1000
0010
0100
0001
1000
0001
0010
0100
0010
0001
1000
0001
0100
0010
,
1000
0100
0010
0001
1000
0001
1000
0010
0100
0010
1000
0001
1000
0100
1000
0001
,
0010
0001
1000
0001
0100
0010
1000
0001
0010
0100
1000
0001
0100
0010
1000
0010
,
0100
0001
0010
0100
1000
0001
1000
0001
0100
0010
1000
0001
0010
0001
1000
0010
,
1000
0001
1000
0100
0010
0001
1000
0001
0100
0010
0100
0001
1000
0001
0010
0100
,
1000
0010
0100
0001
1000
0001
1000
0100
0010
0100
1000
0001
1000
0010
1000
0001
,
0100
0001
1000
0001
0010
0100
1000
0001
0100
0010
1000
0001
0010
0100
1000
0010
,
0100
0001
0100
0010
1000
0001
1000
0001
0010
0100
1000
0001
0100
0001
1000
0100
,
1000
0001
1000
0010
0100
0001
1000
0001
0010
0100
0010
0001
1000
0001
0100
0010
,
1000
0100
0010
0001
1000
0001
1000
0010
0100
0010
1000
0001
1000
0100
1000
0001
,
0010
0001
1000
0001
0100
0010
1000
0001
0010
0100
1000
0001
0100
0010
1000
0010
,
0100
0001
0010
0100
1000
0001
1000
0001
0100
0010
1000
0001
0010
0001
1000
0010
,
1000
0001
1000
0100
0010
0001
1000
0001
0100
0010
0100
0001
1000
0001
0010
0100
,
1000
0001
0100
0010
1000
0010
0100
0001
1000
0010
1000
0001
1000
0001
0010
0001
,
1000
0100
0010
0100
1000
0001
0010
0100
0010
0001
1000
0001
0100
0010
1000
0001
,
0100
0001
0010
0100
1000
0100
0010
0001
1000
0100
1000
0001
1000
0001
0100
0001
,
1000
0010
0100
0010
1000
0001
0100
0010
0100
0001
1000
0001
0010
0100
1000
0001
,
1000
0001
0010
0100
1000
0100
0010
0001
1000
0100
1000
0001
1000
0001
0100
0001
,
1000
0010
0100
0010
1000
0001
0100
0010
0100
0001
1000
0001
0010
0100
1000
0001
,
0010
0001
0100
0010
1000
0010
0100
0001
1000
0010
1000
0001
1000
0001
0010
0001
,
1000
0100
0010
0100
1000
0001
0010
0100
0010
0001
1000
0001
0100
0010
1000
0001
,
0010
0100
0010
0100
1000
0001
1000
0010
0100
0001
1000
0100
1000
0100
0010
0001
,
1000
0010
0100
0001
0100
0010
1000
0001
1000
0100
0010
0100
1000
0001
1000
0001
,
0100
0010
1000
0001
1000
0100
1000
0001
0010
0001
1000
0001
1000
0010
0100
0001
,
1000
0100
0010
0001
0010
0100
1000
0001
1000
0010
0100
0010
1000
0001
1000
0100
,
1000
0001
0100
0010
1000
0001
1000
0100
0010
0001
1000
0001
1000
0010
0100
0001
,
1000
0100
0010
0001
0010
0100
1000
0001
1000
0010
0100
0010
1000
0001
1000
0001
,
0010
0100
1000
0001
1000
0010
1000
0001
0100
0001
1000
0001
1000
0100
0010
0001
,
1000
0100
0010
0001
1000
0010
0100
0001
0100
0010
1000
0001
,
0100
0000
0010
0000
0100
0001
0010
0100
,
0000
0000
1000
0000
0100
0000
0010
0000
0001
0000
1000
0000
0010
0100
0001
0000
,
2000
0000
0000
3002
0000
0000
0023
0000
,
0000
0130
0010
0100
0000
1000
0001
0100
,
0020
0000
0000
2030
0000
0000
3002
0000
,
0000
0000
0000
0003
0000
0000
0010
0000
0100
0000
1000
0000
0001
0000
1000
0000
0010
0000
0100
0000
0001
0000
1000
0000
,
0010
0000
0100
0002
0000
2003
0000
3200
,
0000
0000
0000
0300
0000
0000
0010
0001
,
2000
0000
0000
0000
3010
0100
0002
0000
,
0000
0000
0103
0010
2000
0000
0000
0000
,
3001
0000
0010
0100
0000
1000
0000
0001
,
0000
0100
0000
0010
0000
1000
0000
0000
,
0002
0000
0000
0023
0000
0000
0230
0000
,
0000
1300
0001
0010
0001
0010
0001
0010
,
0001
1000
0010
0100
0001
1000
0100
1000
0001
0100
0010
0100
,
0001
1000
0010
0100
0001
1000
0100
1000
0001
0010
0001
1000
0010
0100
0001
1000
,
0100
0000
1000
0001
1000
0000
0001
0000
0100
0000
0010
0000
1000
0000
0001
0010
,
0100
0000
1000
0100
1000
0000
0001
0100
0010
0000
1000
0000
0001
0000
1000
0000
,
0001
0000
0000
0010
0000
0000
0100
0000
0000
0000
0000
0000
1000
0000
0000
0000
0000
0000
0001
0000
0000
0000
0000
0000
1000
0000
0000
0010
0000
0000
0100
0000
0000
0000
0000
0000
0001
0000
0000
0000
1000
0000
0000
0000
0001
0000
0000
0000
,
1000
0001
2000
3002
,
1003
0100
1000
0000
0001
0000
1000
0000
0001
0100
0001
0000
1000
0000
0001
0000
,
1000
0010
0100
0000
0001
0100
0010
0000
1000
0010
1000
0000
0001
0010
0001
0000
,
1000
0000
0000
0001
0000
0000
0010
0000
0000
0001
0000
0000
1000
0000
0000
0000
0001
0000
0000
0000
1000
0000
0000
0000
0001
0000
0000
0100
0000
0000
0010
0000
0000
0100
0000
0000
0001
0000
0000
0000
1000
0000
0000
0000
0010
0000
0000
0000
,
0200
0000
0000
0000
,
0300
0000
0000
0000
,
0000
0000
0000
0000
,
0000
0000
0000
0000
0000
0000
0000
0000
0000
0000
0000
0000
0000
0000
0000
0000
0000
0000
0000
0000
0000
0000
0000
0000
0000
0000
0000
0000
0000
0000
MMMM
0000
0000
MMMM
0000
0000
MMMM
0000
0000
MMMM
0000
0000
0000
0000
MMMM
0000
0000
0000
,
MMMM
0000
MMMM
0000
MMMM
0000
0000
MMMM
0000
0000
MMMM
0000
0000
0000
MMMM
0000
,
0000
0000
0000
0000
0000
0000
0000
0000
0000
MMMM
0000
0000
0000
0000
0000
0000
0000
0000
0000
0000
0000
0000
0000
0000
0000
MMMM
0000
0000
0000
0000
0000
0000
0000
0000
0000
0000
0000
0000
0000
0000
0000
0000
0000
0000
0000
0000
0000
0000
,
0001
0100
0010
0100
0001
0100
0010
0100
,
0001
1000
0001
0010
0001
1000
0001
0010
,
0100
1000
0100
0010
0100
1000
0100
0010
,
0001
0100
0001
1000
0001
0010
0100
1000
0001
1000
0010
1000
0001
1000
0100
0010
,
0001
1000
0100
1000
0001
1000
0100
1000
,
0001
0010
0100
0010
0001
0010
0100
0010
,
0001
1000
0010
1000
0100
1000
0010
1000
,
0001
0010
0001
1000
0001
0100
0010
1000
0001
1000
0100
1000
0001
1000
0010
0100
,
0001
0000
0000
0000
0010
0000
0000
0000
0100
0000
0000
0000
0010
0000
0000
0000
0002
0003
0000
0000
0010
0000
0000
0000
0100
0000
0000
0000
0020
0030
0000
0000
,
0001
0000
0000
0000
1000
0000
0000
0000
0002
0003
0000
0000
0100
0000
0000
0000
0001
0000
0000
0000
2000
3000
0000
0000
0001
0000
0000
0000
0100
0000
0000
0000
,
0020
0030
0000
0000
1000
0000
0000
0000
0020
0030
0000
0000
0200
0300
0000
0000
0010
0000
0000
0000
1000
0000
0000
0000
0010
0000
0000
0000
0100
0000
0000
0000
,
0001
0010
0001
1000
0001
0100
0010
1000
0001
1000
0100
1000
0001
1000
0010
0100
,
0002
0003
0000
0000
1000
0000
0000
0000
0020
0030
0000
0000
2000
3000
0000
0000
0001
0000
0000
0000
1000
0000
0000
0000
0010
0000
0000
0000
1000
0000
0000
0000
,
0001
0100
0010
0100
0001
0100
0010
0100
,
0001
0000
0100
0010
0000
0100
0010
0000
,
0100
0010
0000
0100
0010
0000
2000
0000
,
3001
0010
0100
1000
0001
1000
0001
0100
0010
0100
0001
1000
0001
0010
0001
1000
,
0100
1000
0001
1000
0010
0100
0001
1000
0100
0010
0001
1000
0010
0100
0001
0010
,
0100
1000
0100
0010
0001
1000
0001
1000
0010
0100
0001
1000
0100
1000
0001
0100
,
0001
1000
0001
0010
0100
1000
0001
1000
0010
0100
0010
1000
0001
1000
0100
0010
,
0001
0100
0010
1000
0001
1000
0001
0010
0100
0010
0001
1000
0001
0100
0001
1000
,
0010
1000
0001
1000
0100
0010
0001
1000
0010
0100
0001
1000
0100
0010
0001
0010
,
0100
1000
0010
0100
0001
1000
0001
1000
0100
0010
0001
1000
0010
1000
0001
0010
,
0001
1000
0001
0100
0010
1000
0001
1000
0100
0010
0100
1000
0001
1000
0010
0100
,
0001
0010
0100
1000
0001
1000
0001
0100
0010
0100
0001
1000
0001
0010
0001
1000
,
0100
1000
0001
1000
0010
0100
0001
1000
0100
0010
0001
1000
0010
0100
0001
0010
,
0100
1000
0100
0010
0001
1000
0001
1000
0010
0100
0001
1000
0100
1000
0001
0100
,
0001
1000
0001
0010
0100
1000
0001
1000
0010
0100
0010
1000
0001
1000
0100
0010
,
0001
0100
0010
1000
0001
1000
0001
0010
0100
0010
0001
1000
0001
0100
0001
1000
,
0010
1000
0001
1000
0100
0010
0001
1000
0010
0100
0001
1000
0100
0010
0001
0010
,
0100
1000
0010
0100
0001
1000
0001
1000
0100
0010
0001
1000
0010
1000
0001
0010
,
0001
1000
0001
0100
0010
1000
0001
1000
0100
0010
0100
1000
0001
1000
0010
0100
,
0001
1000
0010
1000
0001
0010
0001
1000
0010
1000
0001
0010
,
0001
1000
0100
1000
0001
0100
0001
1000
0100
1000
0001
0100
,
0001
0000
1000
0000
0001
0001
0010
0000
,
0100
1000
0001
1000
0001
0100
0010
1000
0001
1000
0001
0010
0100
1000
0001
1000
,
0001
0010
0001
1000
0010
1000
0001
0010
0001
1000
0010
1000
,
0001
0100
0001
1000
0100
1000
0001
0100
0001
1000
0100
1000
,
0001
0000
0100
0000
0010
0010
0100
0000
,
0001
0100
0010
1000
0001
1000
0001
0010
0100
1000
0001
1000
0001
0100
0010
1000
,
0001
0010
0001
1000
0010
1000
0001
0010
0001
1000
0010
1000
,
0001
0100
0001
1000
0100
1000
0001
0100
0001
1000
0100
1000
,
0001
0000
1000
0000
0001
0001
0100
0000
,
0010
0010
1000
0001
0001
0010
0100
0000
,
1000
0100
1000
0001
0100
0001
1000
0100
1000
0001
0100
0001
,
1000
0010
1000
0001
0010
0001
1000
0010
1000
0001
0010
0001
,
1000
0000
0010
0000
0100
0100
0001
0000
,
1000
0000
1000
0000
0100
0000
1000
0000
0001
0100
0001
1000
0001
0010
0100
1000
,
0001
0100
0001
1000
0100
1000
0001
0100
0001
1000
0100
4000
,
0000
0000
0000
0000
,
0000
0000
0000
0000
0000
3000
0000
0000
;

//---------------dance-single - Zaia - 15.8----------------
#NOTES:
     dance-single:
     Zaia - 15.8:
     Hard:
     15:
     1.000,1.000,0.000,0.644,1.000,1536.000,0.000,105.000,52.000,0.000:
0000
0000
0000
0000
,
0000
0000
0000
0000
,
0001
0010
0100
1000
0001
1000
0010
0100
0001
1000
0001
0010
,
0100
1000
0001
0100
0010
1000
0001
1000
0010
0100
0001
0010
,
0100
1000
0010
1000
0100
0010
0001
1000
0010
0100
0010
1000
,
0001
0010
0100
1000
0001
1000
0010
0100
0001
1000
0100
1000
,
0001
0010
0001
1000
0010
1000
0001
0100
0010
1000
0100
1000
0001
0010
0001
0100
,
0010
1000
0001
1000
0010
0100
0001
1000
0001
0100
0010
1000
0001
0010
0001
1000
,
0010
0100
0001
1000
0100
1000
0001
0010
0100
1000
0010
1000
0001
0100
0001
0010
,
0100
1000
0001
1000
0100
0010
0001
1000
0001
0010
0100
1000
0001
0100
0001
1000
,
0010
0100
0001
1000
0100
0010
0001
1000
,
0010
0100
0001
1000
0100
0010
0001
1000
,
0010
0100
0001
1000
0100
0010
0001
1000
,
0020
0030
0000
0000
0000
0000
0000
0000
0200
0300
0000
0000
0000
0000
0000
0000
0020
0030
0000
0000
0000
0000
0000
0000
2000
3000
0000
0000
0000
0000
0000
0000
0002
0000
0000
0000
0000
0000
0000
0000
2003
0000
0000
0000
0000
0000
0000
0000
3200
0000
0000
0000
0000
0000
0000
0000
2300
0000
0000
0000
0000
0000
0000
0000
,
3001
0010
0100
1000
0001
0100
0010
1000
,
0001
0010
0100
1000
0001
0100
0010
1000
,
0001
0010
0100
1000
0001
0100
0010
1000
,
0200
0300
0000
0000
0000
0000
0000
0000
0020
0030
0000
0000
0000
0000
0000
0000
0200
0300
0000
0000
0000
0000
0000
0000
2000
3000
0000
0000
0000
0000
0000
0000
0002
0000
0000
0000
0000
0000
0000
0000
0023
0000
0000
0000
0000
0000
0000
0000
0032
0000
0000
0000
0000
0000
0000
0000
2003
0000
0000
0000
0000
0000
0000
0000
,
3001
0100
0010
1000
0100
1000
0001
0100
,
0010
1000
0001
1000
0100
0010
0001
1000
,
0010
1000
0001
0010
0100
1000
0001
1000
,
0020
0030
0000
0000
0000
0000
0000
0000
0200
0300
0000
0000
0000
0000
0000
0000
0002
0003
0000
0000
0000
0000
0000
0000
0020
0030
0000
0000
0000
0000
0000
0000
0200
0000
0000
0000
0000
0000
0000
0000
2300
0000
0000
0000
0000
0000
0000
0000
3020
0000
0000
0000
0000
0000
0000
0000
2030
0000
0000
0000
0000
0000
0000
0000
,
3100
1000
0001
1000
0010
0100
0001
0010
,
0100
1000
0001
1000
0010
0100
0001
1000
,
0100
1000
0001
0100
0010
1000
0001
1000
,
0100
0010
0001
1000
0001
0100
0010
1000
0001
0010
0001
1000
0010
0100
0010
1000
,
0001
0000
0000
0000
0010
0000
0000
0000
0100
0000
0000
0000
1000
0000
0000
0000
0002
0003
0000
0000
0100
0000
0000
0000
0010
0000
0000
0000
2000
3000
0000
0000
,
0001
0000
0000
0000
0010
0000
0000
0000
0200
0300
0000
0000
1000
0000
0000
0000
0001
0000
0000
0000
0020
0030
0000
0000
0001
0000
0000
0000
1000
0000
0000
0000
,
0020
0030
0000
0000
0100
0000
0000
0000
0002
0003
0000
0000
2000
3000
0000
0000
0001
0000
0000
0000
0100
0000
0000
0000
0010
0000
0000
0000
1000
0000
0000
0000
,
0001
0100
0010
1000
0001
0100
0010
1000
0001
0010
0001
1000
0100
0010
0001
1000
,
0200
0300
0000
0000
0010
0000
0000
0000
0200
0300
0000
0000
2000
3000
0000
0000
0001
0000
0000
0000
0100
0000
0000
0000
0010
0000
0000
0000
1000
0000
0000
0000
,
0001
0000
0010
0000
0100
0000
1000
0000
0001
0000
0020
0030
0002
0003
2000
3000
,
0020
0030
0100
0000
0002
0003
2000
3000
0001
0000
0010
0000
0100
0000
1000
0000
,
0001
0010
0100
1000
0001
0010
0100
1000
0001
0100
0001
1000
0010
0100
0001
1000
,
0010
0000
0000
0000
1000
0000
0000
0000
0100
0000
0000
0000
0010
0000
0000
0000
0002
0003
0000
0000
0100
0000
0000
0000
0010
0000
0000
0000
2000
3000
0000
0000
,
0001
0000
0000
0000
0010
0000
0000
0000
0200
0300
0000
0000
1000
0000
0000
0000
0001
0000
0000
0000
0020
0030
0000
0000
0001
0000
0000
0000
1000
0000
0000
0000
,
0020
0030
0000
0000
0100
0000
0000
0000
0002
0003
0000
0000
2000
3000
0000
0000
0001
0000
0000
0000
0100
0000
0000
0000
0010
0000
0000
0000
1000
0000
0000
0000
,
0001
0100
0010
1000
0001
0100
0010
1000
0001
0010
0001
1000
0100
0010
0001
1000
,
0200
0300
0000
0000
0010
0000
0000
0000
0200
0300
0000
0000
2000
3000
0000
0000
0001
0000
0000
0000
0020
0030
0000
0000
0100
0000
0000
0000
2000
3000
0000
0000
,
0001
0000
0100
0000
0010
0000
1000
0000
0001
0000
0200
0300
0002
0003
2000
3000
,
0200
0300
0010
0000
0001
0000
1000
0001
0020
0030
0100
0000
0010
0000
0001
0000
,
1000
0010
0100
0001
1000
0010
0100
0001
1000
0100
1000
0001
0010
0100
1000
0001
,
1000
0010
0100
0001
1000
0001
1000
0100
0010
0100
1000
0001
1000
0010
1000
0001
,
0100
0001
1000
0001
0010
0100
1000
0001
0100
0010
1000
0001
0010
0100
1000
0010
,
0100
0001
0100
0010
1000
0001
1000
0001
0010
0100
1000
0001
0100
0001
1000
0100
,
1000
0001
1000
0010
0100
0001
1000
0001
0010
0100
0010
0001
1000
0001
0100
0010
,
1000
0100
0010
0001
1000
0001
1000
0010
0100
0010
1000
0001
1000
0100
1000
0001
,
0010
0001
1000
0001
0100
0010
1000
0001
0010
0100
1000
0001
0100
0010
1000
0010
,
0100
0001
0010
0100
1000
0001
1000
0001
0100
0010
1000
0001
0010
0001
1000
0010
,
1000
0001
1000
0100
0010
0001
1000
0001
0100
0010
0100
0001
1000
0001
0010
0100
,
2000
0000
0000
3200
0000
0000
0320
0000
,
0000
0000
0000
0000
0000
0000
0031
0100
,
0020
0000
1030
0002
0000
2003
0000
3020
,
0000
0230
0000
0302
0000
2003
0000
0000
,
3200
0000
0000
2300
0000
0000
3002
0000
,
0000
0000
0003
0000
,
0200
0000
0000
0302
0000
0000
2003
0000
,
0000
3200
0000
0000
0320
0000
0000
0030
,
0001
1000
0010
0100
0001
0100
0010
1000
0001
0100
0001
1000
0001
1000
0100
1000
,
0001
0010
0100
0010
0001
1000
0100
0010
0100
1000
0001
1000
0010
0100
0001
1000
,
0010
1000
0100
0010
0001
0010
0100
1000
0001
0010
0001
1000
0001
1000
0010
1000
,
0001
0100
0010
0100
0001
1000
0010
0100
0010
1000
0001
1000
0100
0010
0001
1000
,
0001
1000
0100
0010
0001
0010
0100
1000
0001
0010
0001
1000
0001
1000
0010
1000
,
0001
0100
0010
0100
0001
1000
0010
0100
0010
1000
0001
1000
0100
0010
0001
1000
,
0100
1000
0010
0100
0001
0100
0010
1000
0001
0100
0001
1000
0001
1000
0100
1000
,
0001
0010
0100
0010
0001
1000
0100
0010
0100
1000
0001
1000
0010
0100
0001
1000
,
0100
0010
0100
0010
0001
1000
0001
0100
0010
1000
0001
0010
0001
0010
0100
1000
,
0001
0100
0010
1000
0010
0100
0001
1000
0001
0010
0100
0010
0001
1000
0001
1000
,
0010
0100
0001
1000
0001
0010
0001
1000
0100
1000
0001
1000
0001
0100
0010
1000
,
0001
0010
0100
1000
0100
0010
0001
1000
0001
0100
0010
0100
0001
1000
0001
0010
,
0001
1000
0010
0100
0001
1000
0001
0010
0100
1000
0001
1000
0001
0100
0010
1000
,
0001
0010
0100
1000
0100
0010
0001
1000
0001
0100
0010
0100
0001
1000
0001
1000
,
0100
0010
0001
1000
0001
0100
0001
1000
0010
1000
0001
1000
0001
0010
0100
1000
,
0001
0010
0100
1000
0001
0100
0010
1000
0010
0100
0001
1000
,
0010
0000
0100
0000
0010
1000
0100
0010
,
0000
0000
0001
0000
0010
0000
0100
0000
1000
0000
0001
0000
0100
0010
1000
0000
,
0002
0000
0000
2003
0000
0000
3200
0000
,
0000
0310
0100
0010
0000
0001
1000
0010
,
0200
0000
0000
0302
0000
0000
2003
0000
,
0000
0000
0000
3000
0000
0000
0100
0000
0010
0000
0001
0000
1000
0000
0001
0000
0100
0000
0010
0000
1000
0000
0001
0000
,
0100
0000
0010
2000
0000
3002
0000
0023
,
0000
0000
0000
0030
0000
0000
0100
1000
,
0002
0000
0000
0000
0103
0010
2000
0000
,
0000
0000
3010
0100
0002
0000
0000
0000
,
1003
0000
0100
0010
0000
0001
0000
1000
,
0000
0010
0000
0100
0000
0001
0000
0000
,
2000
0000
0000
3200
0000
0000
0320
0000
,
0000
0031
1000
0100
1000
0100
1000
0100
,
1000
0001
0100
0010
1000
0001
0010
0001
1000
0010
0100
0010
,
1000
0001
0100
0010
1000
0001
0010
0001
1000
0100
1000
0001
0100
0010
1000
0001
,
0010
0000
0001
1000
0001
0000
1000
0000
0010
0000
0100
0000
0001
0000
1000
0100
,
0010
0000
0001
0010
0001
0000
1000
0010
0100
0000
0001
0000
1000
0000
0001
0000
,
1000
0000
0000
0100
0000
0000
0010
0000
0000
0000
0000
0000
0001
0000
0000
0000
0000
0000
1000
0000
0000
0000
0000
0000
0001
0000
0000
0100
0000
0000
0010
0000
0000
0000
0000
0000
1000
0000
0000
0000
0001
0000
0000
0000
1000
0000
0000
0000
,
0001
1000
0002
2003
,
3001
0010
0001
0000
1000
0000
0001
0000
1000
0010
1000
0000
0001
0000
1000
0000
,
0001
0100
0010
0000
1000
0010
0100
0000
0001
0100
0001
0000
1000
0100
1000
0000
,
0001
0000
0000
1000
0000
0000
0100
0000
0000
1000
0000
0000
0001
0000
0000
0000
1000
0000
0000
0000
0001
0000
0000
0000
1000
0000
0000
0010
0000
0000
0100
0000
0000
0010
0000
0000
1000
0000
0000
0000
0001
0000
0000
0000
0100
0000
0000
0000
,
0020
0000
0000
0000
,
0030
0000
0000
0000
,
0000
0000
0000
0000
,
0000
0000
0000
0000
0000
0000
0000
0000
0000
0000
0000
0000
0000
0000
0000
0000
0000
0000
0000
0000
0000
0000
0000
0000
0000
0000
0000
0000
0000
0000
MMMM
0000
0000
MMMM
0000
0000
MMMM
0000
0000
MMMM
0000
0000
0000
0000
MMMM
0000
0000
0000
,
MMMM
0000
MMMM
0000
MMMM
0000
0000
MMMM
0000
0000
MMMM
0000
0000
0000
MMMM
0000
,
0000
0000
0000
0000
0000
0000
0000
0000
0000
MMMM
0000
0000
0000
0000
0000
0000
0000
0000
0000
0000
0000
0000
0000
0000
0000
MMMM
0000
0000
0000
0000
0000
0000
0000
0000
0000
0000
0000
0000
0000
0000
0000
0000
0000
0000
0000
0000
0000
0000
,
1000
0010
0100
0010
1000
0010
0100
0010
,
1000
0001
1000
0100
1000
0001
1000
0100
,
0010
0001
0010
0100
0010
0001
0010
0100
,
1000
0010
1000
0001
1000
0100
0010
0001
1000
0001
0100
0001
1000
0001
0010
0100
,
1000
0001
0010
0001
1000
0001
0010
0001
,
1000
0100
0010
0100
1000
0100
0010
0100
,
1000
0001
0100
0001
0010
0001
0100
0001
,
1000
0100
1000
0001
1000
0010
0100
0001
1000
0001
0010
0001
1000
0001
0100
0010
,
1000
0000
0000
0000
0100
0000
0000
0000
0010
0000
0000
0000
0100
0000
0000
0000
2000
3000
0000
0000
0100
0000
0000
0000
0010
0000
0000
0000
0200
0300
0000
0000
,
1000
0000
0000
0000
0001
0000
0000
0000
2000
3000
0000
0000
0010
0000
0000
0000
1000
0000
0000
0000
0002
0003
0000
0000
1000
0000
0000
0000
0010
0000
0000
0000
,
0200
0300
0000
0000
0001
0000
0000
0000
0200
0300
0000
0000
0020
0030
0000
0000
0100
0000
0000
0000
0001
0000
0000
0000
0100
0000
0000
0000
0010
0000
0000
0000
,
1000
0100
1000
0001
1000
0010
0100
0001
1000
0001
0010
0001
1000
0001
0100
0010
,
1000
0001
0100
0001
1000
0001
0100
0001
,
1000
0010
0100
0010
1000
0010
0100
0010
,
1000
0000
0010
0100
0000
0010
0100
0000
,
0010
0100
0000
0010
0100
0000
0002
0000
,
1003
0010
1000
0010
1000
0001
1000
0001
1000
0100
1000
0001
0010
0001
1000
0010
,
0100
0001
1000
0001
0100
0010
1000
0001
0010
0100
1000
0001
0100
0010
1000
0001
,
0010
0100
0010
0100
1000
0001
1000
0001
1000
0010
0100
0001
1000
0100
0010
0001
,
1000
0010
1000
0001
0010
0001
1000
0001
0100
0010
0100
0001
1000
0001
0010
0001
,
1000
0100
1000
0100
1000
0001
1000
0001
1000
0010
0100
0001
1000
0100
0010
0001
,
1000
0001
1000
0100
0010
0100
1000
0001
0100
0010
1000
0001
0010
0100
1000
0100
,
0010
0001
0010
0001
1000
0001
1000
0001
0100
0010
0100
0001
1000
0010
0100
0001
,
2000
3002
2003
3002
,
1003
0100
0010
0001
1000
0001
1000
0010
0100
0010
1000
0001
1000
0100
1000
0001
,
0010
0001
1000
0001
0100
0010
1000
0001
0010
0100
1000
0001
0100
0010
1000
0100
,
1000
0001
1000
0000
0010
0000
0100
0000
0001
1000
0001
0000
0010
0000
0100
0000
,
1000
0001
1000
0100
0010
0001
1000
0001
0100
0010
0100
0001
1000
0001
0010
0100
,
1000
0010
0100
0001
1000
0001
1000
0100
0010
0100
1000
0001
1000
0010
1000
0001
,
0100
0001
1000
0001
0010
0100
1000
0001
0100
0010
1000
0001
0010
0100
1000
0001
,
1000
0010
0100
0001
1000
0010
0100
0001
0010
0100
1000
0001
,
0010
0100
1000
0001
0010
0100
1000
0001
1000
0001
0100
0010
1000
0001
0100
0010
,
1000
0001
0100
0001
1000
0100
1000
0001
0100
0001
1000
0100
,
1000
0001
0010
0001
1000
0010
1000
0001
0010
0001
1000
0010
,
1000
0000
0001
0000
1000
1000
0100
0000
,
0010
0001
1000
0001
1000
0010
0100
0001
1000
0001
1000
0100
0010
0001
1000
0001
,
1000
0100
1000
0001
0100
0001
1000
0100
1000
0001
0100
0001
,
1000
0010
1000
0001
0010
0001
1000
0010
1000
0001
0010
0001
,
1000
0000
0010
0000
0100
0100
0010
0000
,
1000
0010
0100
0001
1000
0001
1000
0100
0010
0001
1000
0001
1000
0010
0100
0001
,
1000
0100
1000
0001
0100
0001
1000
0100
1000
0001
0100
0001
,
1000
0010
1000
0001
0010
0001
1000
0010
1000
0001
0010
0001
,
1000
0000
0001
0000
1000
1000
0010
0000
,
0100
0100
0001
1000
1000
0100
0010
0000
,
0001
0010
0001
1000
0010
1000
0001
0010
0001
1000
0010
1000
,
0001
0100
0001
1000
0100
1000
0001
0100
0001
1000
0100
1000
,
0001
0000
0100
0000
0010
0010
1000
0000
,
0001
0000
0001
0000
0010
0000
0001
0000
1000
0010
1000
0001
1000
0100
0010
0001
,
1000
0010
1000
0001
0010
0001
1000
0010
1000
0001
0010
0001
,
4000
0000
0000
0000
,
0000
0000
0000
3000
;
