#TITLE:Awesome My New Kick!;
#SUBTITLE:;
#ARTIST:USAO;
#TITLETRANSLIT:;
#SUBTITLETRANSLIT:;
#ARTISTTRANSLIT:;
#CREDIT:Fraxtil;
#BANNER:Awesome My New Kick! - bn.png;
#BACKGROUND:Awesome My New Kick! - bg.png;
#LYRICSPATH:;
#CDTITLE:;
#MUSIC:Awesome My New Kick!.ogg;
#OFFSET:0.009;
#SAMPLESTART:69.076;
#SAMPLELENGTH:14.049;
#SELECTABLE:YES;
#DISPLAYBPM:205.000;
#BPMS:0.000=205.000,76.000=410.000,76.750=82.000,77.000=410.000,77.750=82.000,78.000=410.000,78.750=82.000,79.000=410.000,79.750=82.000,80.000=410.000,80.750=82.000,81.000=410.000,81.750=82.000,82.000=410.000,82.750=82.000,83.000=410.000,83.750=82.000,84.000=205.000;
#STOPS:;
#BGCHANGES:;
// cache tags:
#FIRSTBEAT:24.000;
#LASTBEAT:479.750;
#SONGFILENAME:Songs/SPEEEDCOOOORE 4/Awesome My New Kick! - [Fraxtil]/Awesome My New Kick!.sm;
#HASMUSIC:1;
#HASBANNER:1;
#MUSICLENGTH:143.999;
// end cache tags

//---------------dance-single - Fraxtil----------------
#NOTES:
     dance-single:
     Fraxtil:
     Challenge:
     15:
     1.000,1.000,0.375,0.299,1.000,1069.000,54.000,43.000,44.000,0.000:
0000
0000
0000
0000
,
0000
0000
0000
0000
,
0000
0000
0000
0000
,
0000
0000
0000
0000
,
0000
0000
0000
0000
,
0000
0000
0000
0000
,
2001
3000
0002
0003
,
0020
0000
0030
0000
0200
0000
0000
0300
,
2000
0000
3002
0000
,
0203
0000
0000
0000
0320
0000
0000
0000
2030
0000
0000
0000
3200
0000
0000
0300
,
0220
0000
0000
0000
,
0000
0000
0000
0000
0000
0000
000M
000M
000M
000M
000M
000M
,
033M
0000
000M
0000
000M
0000
000M
0000
000M
0000
000M
0000
000M
0000
0000
M000
0000
0000
0000
0000
0000
00M0
0000
0000
,
0000
0000
0M00
0000
0000
0000
0000
0000
0000
M000
0000
0000
0000
0000
0000
00M0
0000
0000
0000
0000
0000
0M00
0000
0000
,
0000
0000
0000
000M
0000
0000
00M0
0000
0000
0000
0000
0000
0000
0000
0000
0000
0000
0000
0000
0000
0000
0000
0M00
0000
,
0000
0000
0000
0000
0000
0000
0000
0000
0000
0000
0000
0000
0000
0000
0000
0000
M000
0000
0000
0000
0000
0000
0000
0000
0000
0000
0000
0000
0000
0000
0000
0000
0000
0000
0000
0000
0000
0000
0000
0000
0000
0000
0000
0000
0000
0000
0000
0000
0000
0000
0000
0000
0000
0000
0000
0000
0000
0000
0000
0000
0000
0000
0000
0000
0000
0000
0000
0000
0000
0000
0000
0000
0000
0000
0000
0000
0000
0000
0000
0000
0000
0000
0000
0000
0000
0000
0000
0000
0000
0000
0000
0000
0000
0000
0000
0000
0000
0000
0000
0000
0000
0000
0000
0000
0000
0000
0000
0001
0000
0000
0000
0000
0000
0000
0000
0000
0000
0000
0000
0000
0000
0000
0000
0000
0000
0000
0000
0000
0000
0000
0000
0000
0000
0000
0000
0000
0000
0000
0000
0000
0000
0000
0000
0000
0000
0000
0000
0010
0000
0000
0000
0000
0000
0000
0000
0000
0000
0000
0000
0000
0000
0000
0000
0000
0000
0000
0000
0001
0000
0000
0000
0000
0000
0000
0000
0000
0000
0000
0000
0000
0000
0000
0000
0000
0000
0000
0000
1000
0000
0000
0000
0000
,
0000
0000
0000
0000
0000
0000
0000
0000
0000
0000
0000
0000
0000
0000
0000
0000
0000
0000
0000
0000
0000
0000
0000
0000
0000
0000
0000
0000
0000
0000
0000
0000
0000
0000
0010
0000
0000
0000
0000
0000
0000
0000
0000
0000
0000
0000
0000
0000
0000
0000
0000
0000
0000
0000
0000
0000
0000
0000
0000
0000
0000
0000
0000
0000
0000
0000
0000
0000
0000
0000
0000
0000
0000
0000
0200
0000
0000
0000
0000
0000
0000
0000
0000
0000
0000
0000
0000
0000
0000
0000
0000
0000
0000
0000
0000
0000
0000
0000
0000
0000
0000
0000
0000
0000
0000
0000
0000
0000
0000
0000
0000
0000
0000
0000
0000
0301
0000
0000
0000
0000
0000
0000
0000
0000
0000
0000
0000
0000
0000
0000
0000
0000
0000
0000
1000
0000
0000
0000
0000
0000
0000
0000
0000
0000
0000
0000
0000
0000
0000
0000
0000
0000
0000
0000
0000
0000
0000
0000
0000
0000
0000
0000
0000
0000
0000
0000
0000
0000
0000
0000
0000
0000
0000
0000
0000
0000
0000
0000
0000
0000
0000
0000
0000
0000
0000
0000
0000
0000
0000
0000
0000
0000
,
0000
0100
0000
0000
0000
0000
0000
0000
0000
0000
0000
0000
0000
0000
0000
0000
0000
0000
0000
0000
0000
0010
0000
0000
0000
0000
0000
0000
0000
0000
0000
0000
0000
0000
0000
0000
0000
0000
0000
0000
0000
0000
0000
0000
0000
0000
0000
0000
000M
0000
0000
0000
0000
0000
0000
0000
0000
0000
0000
0000
0000
0000
0000
0000
0000
0000
0000
0000
0000
0000
0000
0000
0000
0000
0000
0000
0000
0000
0000
0000
0000
0000
0000
0000
0000
0000
0000
0000
0000
0000
0000
0000
0000
0000
0000
0000
M000
0000
0000
0000
0000
0000
0000
0000
0000
0000
0000
0000
0000
0000
0000
0000
0000
0000
0000
0000
0000
0000
0000
0000
0000
0000
0000
0000
0000
0000
0000
0000
0000
0000
0000
0000
0000
0000
0000
0000
0000
0000
0000
0000
0000
0000
0000
0000
0000
0000
0000
0000
0000
0000
0000
0000
0000
0000
0000
0000
0000
0000
0000
0000
0000
0000
0000
0000
0000
0000
0000
0000
0000
0000
0000
0000
0000
0000
0000
0000
00M0
0000
0000
0000
0000
0000
0000
0000
0000
0000
0000
0000
0000
0000
0000
0000
,
0000
0M00
0000
0000
0000
000M
0000
0000
0000
0000
0000
0000
,
2001
0000
0000
3000
0002
0000
0000
0003
0020
0000
0000
0030
0200
0000
0000
0300
,
2000
0000
0000
3000
0020
0000
0000
0030
0200
0000
0000
0300
0002
0000
0000
0003
,
1001
0000
1000
0000
0001
0000
0001
0000
0100
0000
0010
0100
0010
4000
3001
0000
,
0010
0000
0000
0010
0000
0000
0100
0000
0000
0100
0000
0000
M00M
0000
0000
0000
,
1000
0000
0010
0000
1000
0000
0001
0000
0100
0000
0001
0000
0040
0000
0000
0130
0000
0000
4000
0000
0000
3100
0000
0000
,
0010
0002
2003
3010
0000
0200
0301
0001
,
1001
0000
1000
0000
0100
0000
0100
0000
0010
0000
0100
1000
0001
0400
0301
0000
,
1000
0100
1000
0001
0010
0001
1000
0010
1000
0000
0001
0000
1001
0000
0000
0000
,
1000
0100
0010
0001
0100
0001
1000
0001
0100
0010
0100
0001
0010
0100
1000
0001
,
1000
0100
0010
0001
0100
0010
1000
0001
0100
0010
0100
0001
0010
0001
0100
0010
,
1000
0001
0010
0001
0100
0010
1000
0001
0100
0010
0100
0001
0010
0100
1000
0001
,
1000
0100
0010
0001
0100
0010
0100
0001
0010
0001
0100
0001
0010
0100
1000
0010
,
1000
0001
0100
0001
0010
0100
1000
0001
0010
0100
0010
0001
0100
0010
1000
0001
,
0100
0010
0100
0001
0010
0100
0010
0001
1000
0100
0010
0001
0100
0001
0010
0001
,
1000
0010
0100
0001
0010
0001
1000
0100
0010
0001
0100
0001
0010
0100
1000
0001
,
0100
0010
1000
0100
0010
0001
0100
0001
1000
0010
1000
0010
0100
0001
0010
0001
,
1000
0010
0100
0001
0010
0001
1000
0001
0010
0100
0010
0001
0100
0010
1000
0001
,
1000
0010
0100
0001
0010
0100
1000
0001
0010
0100
0010
0001
0100
0001
0010
0100
,
1000
0001
0100
0001
0010
0100
1000
0001
0010
0001
0100
0001
0010
0100
1000
0001
,
0100
0010
1000
0100
1000
0001
1000
0100
0010
0001
1000
0001
0100
0001
0010
0100
,
1000
0001
0010
0001
0100
0010
1000
0001
0100
0010
0100
0001
0010
0100
1000
0001
,
0010
0100
0010
0001
0100
0010
0100
0001
1000
0010
0100
0001
0010
0001
0100
0001
,
1000
0100
0010
0001
0100
0010
1000
0001
0100
0010
0100
0001
0010
0100
1000
0001
,
1000
0000
0100
0010
0001
0000
2000
0000
0000
0000
3010
0100
0001
0000
1000
0000
,
0001
0010
0100
1000
0010
1000
0001
1000
0010
0100
0010
1000
0100
0010
0001
1000
,
0001
0010
0100
1000
0010
0100
0001
1000
0010
0100
0010
1000
0100
1000
0010
0100
,
0001
1000
0100
1000
0010
0100
0001
1000
0010
0100
0010
1000
0100
0010
0001
1000
,
0001
0010
0100
1000
0010
0100
0010
1000
0100
1000
0010
1000
0100
0010
0001
0100
,
0001
1000
0010
1000
0100
0010
0001
1000
0100
0010
0100
1000
0010
0100
0001
1000
,
0010
0100
0010
1000
0100
0010
0100
1000
0001
0010
0100
1000
0010
1000
0100
1000
,
0001
0100
0010
1000
0100
1000
0001
0010
0001
1000
0100
1000
0010
0100
0001
1000
,
0010
0100
0001
0100
0010
0100
0001
1000
,
0001
0100
0010
1000
0100
1000
0001
1000
0100
0010
0100
1000
0010
0100
0001
1000
,
0001
0100
0010
1000
0100
0010
0001
1000
0100
0010
0100
1000
0010
1000
0100
0010
,
0001
1000
0010
1000
0100
0010
0001
1000
0100
0010
0100
1000
0010
0100
0001
1000
,
0010
0100
0001
0010
0001
1000
0001
0010
0100
1000
0001
1000
0010
1000
0100
0010
,
0001
1000
0001
1000
0010
0100
0010
0100
0001
0010
0001
0010
0100
1000
0010
1000
,
0100
0010
0100
0010
0001
0100
0001
0100
0010
1000
0100
1000
0010
1000
0100
0010
,
0001
1000
0001
1000
0010
0100
0010
0100
0001
0010
0001
0010
0100
1000
0100
1000
,
0010
0100
0001
1000
0100
0010
0001
1000
0010
0100
0001
0000
2000
0000
0000
0000
,
3001
0010
0100
0010
0001
0100
0010
1000
,
0100
0000
0000
0000
1000
0000
0000
0000
0010
0000
0000
0000
0100
0000
0000
0000
0001
0000
0000
0000
0001
0000
0000
0000
1000
0000
0000
0001
0000
0000
1000
0000
,
0001
0010
0100
0010
0001
0100
0010
1000
,
1100
0000
0000
0000
1100
0000
0000
0000
0100
0000
0010
0000
0100
0000
0010
0001
,
1000
0010
0100
0010
1000
0100
0010
0001
,
1000
0000
0000
0000
0010
0000
0000
0000
0100
0000
0000
0000
0010
0000
0000
0000
1000
0000
0000
0000
1000
0000
0000
0000
0001
0000
0000
1000
0000
0000
0001
0000
,
1000
0100
0010
0100
1000
0010
0100
0001
,
2000
0000
3001
0200
0000
0310
M00M
0000
,
1000
0100
0010
0001
0100
0001
0010
0100
,
1000
0000
0000
0000
0010
0000
0000
0000
0100
0000
0000
0000
0010
0000
0000
0000
1000
0000
0000
0000
1000
0000
0000
0000
0001
0000
0000
1000
0000
0000
0001
0000
,
1000
0100
0010
0001
0100
0010
0100
0001
,
0101
0000
0101
0000
0100
0100
0001
0001
,
1000
0001
0100
0010
1000
0100
0010
0100
,
1000
0000
0000
0000
0010
0000
0000
0000
0100
0000
0000
0000
0001
0000
0000
0000
1000
0000
0000
0000
1000
0000
0000
0000
0001
0000
0000
1000
0000
0000
0001
0000
,
1000
0100
0010
0001
0100
0001
0010
0100
,
2000
3010
0100
0002
0013
0100
M00M
0000
,
1000
0001
0100
0010
0100
0001
0010
0100
,
1000
0010
0100
0010
1000
1000
0001
0000
,
0011
0000
0001
1001
0000
1000
1010
0000
,
0020
0000
0130
0002
0000
1003
0001
0001
,
1000
0100
0010
0001
0100
0001
0010
0100
,
1000
0010
0100
0010
1000
1000
0001
0000
,
1001
0000
1000
1100
0000
0100
0110
0000
,
0010
0000
0001
1000
0010
0000
0200
0000
0000
0000
0310
0000
M00M
0000
0000
0000
,
1000
0100
0010
0100
1000
0010
0100
0001
,
0010
0001
0100
0010
1000
1000
0001
0000
,
0101
0000
0000
0101
0000
0000
1001
0000
0000
1001
0000
0000
1100
0000
1100
0000
,
0200
0000
0000
0000
0300
0000
0200
0000
0000
0000
0300
0000
0020
0000
0000
0000
0030
0000
0020
0000
0000
0000
0030
0000
0002
0000
0000
0003
0002
0000
0000
0003
,
1000
0010
0100
0001
0010
0001
0100
0010
,
1000
0100
0010
0100
1000
1000
0000
0000
,
1001
0000
0001
0101
0000
0100
0110
0000
,
0020
0130
0001
0020
0130
1000
0001
0001
,
1001
0000
1000
1010
0000
1000
1001
0000
,
1001
0000
0001
0011
0000
0001
1000
1000
,
1010
0000
0010
0110
0000
0010
1010
0000
,
1001
0000
0000
0000
0011
0000
0000
0000
0110
0000
0100
1000
0001
0000
1000
0000
,
1001
0000
0001
0101
0000
0001
1001
0000
,
1001
0000
1000
1100
0000
1000
0001
0001
,
0011
0110
1100
1001
,
0101
0000
0000
0101
0000
0000
0101
0000
00M0
0000
0000
0000
M001
0000
0000
0000
,
1000
0010
1000
0001
0010
0100
1000
0001
1000
0010
1000
0001
0010
0100
0010
0001
,
0100
0010
0100
0001
0010
0100
0010
0001
0100
0001
1000
0100
0010
0100
1000
0001
,
1000
0010
0100
0001
1000
0100
0010
0100
1000
0010
0100
0010
1000
0100
0010
0001
,
0100
0001
1000
0010
1000
0100
0010
0001
0100
0001
0010
0100
0010
0001
0100
0001
,
1000
0100
1000
0001
0100
0010
1000
0001
1000
0100
1000
0001
0100
0010
0100
0001
,
0010
0100
0010
0001
0100
0010
0100
0001
0010
0001
1000
0010
0100
0010
1000
0001
,
1000
0100
0010
0001
1000
0010
0100
0010
1000
0100
0010
0100
1000
0010
0100
0001
,
0010
0001
1000
0010
1000
0001
0010
0100
,
1000
0010
1000
0001
0010
0100
1000
0001
1000
0010
1000
0001
0010
0100
0010
0001
,
0100
0010
0100
0001
0010
0100
0010
0001
0100
0001
1000
0100
0010
0100
1000
0001
,
1000
0010
0100
0001
1000
0100
0010
0100
1000
0010
0100
0010
1000
0100
0010
0001
,
0100
0001
1000
0010
1000
0100
0010
0001
0100
0001
0010
0100
0010
0001
0100
0001
,
1000
0100
1000
0001
0100
0010
1000
0001
1000
0100
1000
0001
0100
0010
0100
0001
,
0010
0100
0010
0001
0100
0010
0100
0001
0010
0001
1000
0010
0100
0010
1000
0001
,
0010
0001
0100
0010
1000
1000
0001
0001
,
1001
0M00
0000
00M0
0000
0000
0010
0000
,
2MM2
0000
0000
0000
,
0000
0000
0000
0000
,
0000
0000
0000
0000
,
3003
0000
0000
0000
,
M14M
0000
0000
0000
0000
0000
0000
0000
0000
0000
0000
0000
0000
0000
0000
0030
;

//---------------dance-single - Fraxtil----------------
#NOTES:
     dance-single:
     Fraxtil:
     Hard:
     15:
     1.000,1.000,0.375,0.535,1.000,986.000,54.000,77.000,44.000,0.000:
0000
0000
0000
0000
,
0000
0000
0000
0000
,
0000
0000
0000
0000
,
0000
0000
0000
0000
,
0000
0000
0000
0000
,
0000
0000
0000
0000
,
2001
3000
0002
0003
,
0020
0000
0030
0000
0200
0000
0000
0300
,
2000
0000
3002
0000
,
0203
0000
0000
0000
0320
0000
0000
0000
2030
0000
0000
0000
3200
0000
0000
0300
,
0220
0000
0000
0000
,
0000
0000
0000
0000
0000
0000
000M
000M
000M
000M
000M
000M
,
033M
0000
000M
0000
000M
0000
000M
0000
000M
0000
000M
0000
000M
0000
0000
M000
0000
0000
0000
0000
0000
00M0
0000
0000
,
0000
0000
0M00
0000
0000
0000
0000
0000
0000
M000
0000
0000
0000
0000
0000
00M0
0000
0000
0000
0000
0000
0M00
0000
0000
,
0000
0000
0000
000M
0000
0000
00M0
0000
0000
0000
0000
0000
0000
0000
0000
0000
0000
0000
0000
0000
0000
0000
0M00
0000
,
0000
0000
0000
0000
0000
0000
0000
0000
0000
0000
0000
0000
0000
0000
0000
0000
M000
0000
0000
0000
0000
0000
0000
0000
0000
0000
0000
0000
0000
0000
0000
0000
0000
0000
0000
0000
0000
0000
0000
0000
0000
0000
0000
0000
0000
0000
0000
0000
0000
0000
0000
0000
0000
0000
0000
0000
0000
0000
0000
0000
0000
0000
0000
0000
0000
0000
0000
0000
0000
0000
0000
0000
0000
0000
0000
0000
0000
0000
0000
0000
0000
0000
0000
0000
0000
0000
0000
0000
0000
0000
0000
0000
0000
0000
0000
0000
0000
0000
0000
0000
0000
0000
0000
0000
0000
0000
0000
0001
0000
0000
0000
0000
0000
0000
0000
0000
0000
0000
0000
0000
0000
0000
0000
0000
0000
0000
0000
0000
0000
0000
0000
0000
0000
0000
0000
0000
0000
0000
0000
0000
0000
0000
0000
0000
0000
0000
0000
0010
0000
0000
0000
0000
0000
0000
0000
0000
0000
0000
0000
0000
0000
0000
0000
0000
0000
0000
0000
0001
0000
0000
0000
0000
0000
0000
0000
0000
0000
0000
0000
0000
0000
0000
0000
0000
0000
0000
0000
1000
0000
0000
0000
0000
,
0000
0000
0000
0000
0000
0000
0000
0000
0000
0000
0000
0000
0000
0000
0000
0000
0000
0000
0000
0000
0000
0000
0000
0000
0000
0000
0000
0000
0000
0000
0000
0000
0000
0000
0010
0000
0000
0000
0000
0000
0000
0000
0000
0000
0000
0000
0000
0000
0000
0000
0000
0000
0000
0000
0000
0000
0000
0000
0000
0000
0000
0000
0000
0000
0000
0000
0000
0000
0000
0000
0000
0000
0000
0000
0200
0000
0000
0000
0000
0000
0000
0000
0000
0000
0000
0000
0000
0000
0000
0000
0000
0000
0000
0000
0000
0000
0000
0000
0000
0000
0000
0000
0000
0000
0000
0000
0000
0000
0000
0000
0000
0000
0000
0000
0000
0301
0000
0000
0000
0000
0000
0000
0000
0000
0000
0000
0000
0000
0000
0000
0000
0000
0000
0000
1000
0000
0000
0000
0000
0000
0000
0000
0000
0000
0000
0000
0000
0000
0000
0000
0000
0000
0000
0000
0000
0000
0000
0000
0000
0000
0000
0000
0000
0000
0000
0000
0000
0000
0000
0000
0000
0000
0000
0000
0000
0000
0000
0000
0000
0000
0000
0000
0000
0000
0000
0000
0000
0000
0000
0000
0000
0000
,
0000
0100
0000
0000
0000
0000
0000
0000
0000
0000
0000
0000
0000
0000
0000
0000
0000
0000
0000
0000
0000
0010
0000
0000
0000
0000
0000
0000
0000
0000
0000
0000
0000
0000
0000
0000
0000
0000
0000
0000
0000
0000
0000
0000
0000
0000
0000
0000
000M
0000
0000
0000
0000
0000
0000
0000
0000
0000
0000
0000
0000
0000
0000
0000
0000
0000
0000
0000
0000
0000
0000
0000
0000
0000
0000
0000
0000
0000
0000
0000
0000
0000
0000
0000
0000
0000
0000
0000
0000
0000
0000
0000
0000
0000
0000
0000
M000
0000
0000
0000
0000
0000
0000
0000
0000
0000
0000
0000
0000
0000
0000
0000
0000
0000
0000
0000
0000
0000
0000
0000
0000
0000
0000
0000
0000
0000
0000
0000
0000
0000
0000
0000
0000
0000
0000
0000
0000
0000
0000
0000
0000
0000
0000
0000
0000
0000
0000
0000
0000
0000
0000
0000
0000
0000
0000
0000
0000
0000
0000
0000
0000
0000
0000
0000
0000
0000
0000
0000
0000
0000
0000
0000
0000
0000
0000
0000
00M0
0000
0000
0000
0000
0000
0000
0000
0000
0000
0000
0000
0000
0000
0000
0000
,
0000
0M00
0000
0000
0000
000M
0000
0000
0000
0000
0000
0000
,
2001
0000
0000
3000
0002
0000
0000
0003
0020
0000
0000
0030
0200
0000
0000
0300
,
2000
0000
0000
3000
0020
0000
0000
0030
0200
0000
0000
0300
0002
0000
0000
0003
,
1001
0000
1000
0000
0001
0000
0001
0000
0100
0000
0010
0100
0010
4000
3001
0000
,
0010
0000
0000
0010
0000
0000
0100
0000
0000
0100
0000
0000
M00M
0000
0000
0000
,
1000
0000
0010
0000
1000
0000
0001
0000
0100
0000
0001
0000
0040
0000
0000
0130
0000
0000
4000
0000
0000
3100
0000
0000
,
0010
0002
2003
3010
0000
0200
0301
0001
,
1001
0000
1000
0000
0100
0000
0100
0000
0010
0000
0100
1000
0001
0400
0301
0000
,
1000
0100
1000
0001
0010
0001
1000
0010
1000
0000
0001
0000
1001
0000
0000
0000
,
1000
0100
0010
0001
0100
0001
1000
0001
0100
0010
0100
0001
0010
0100
1000
0001
,
1000
0100
0010
0001
0100
0010
1000
0001
0100
0010
0100
0001
0010
0001
0100
0010
,
1000
0001
0010
0001
0100
0010
1000
0001
0100
0010
0100
0001
0010
0100
1000
0001
,
1000
0100
0010
0001
0100
0010
0100
0001
0010
0001
0100
0001
0010
0100
1000
0010
,
1000
0001
0100
0001
0010
0100
1000
0001
0010
0100
0010
0001
0100
0010
1000
0001
,
0100
0010
0100
0001
0010
0100
0010
0001
1000
0100
0010
0001
0100
0001
0010
0001
,
1000
0010
0100
0001
0010
0001
1000
0100
0010
0001
0100
0001
0010
0100
1000
0001
,
0100
0010
1000
0100
0010
0001
0100
0001
1000
0010
1000
0010
0100
0001
0010
0001
,
1000
0010
0100
0001
0010
0001
1000
0001
0010
0100
0010
0001
0100
0010
1000
0001
,
1000
0010
0100
0001
0010
0100
1000
0001
0010
0100
0010
0001
0100
0001
0010
0100
,
1000
0001
0100
0001
0010
0100
1000
0001
0010
0001
0100
0001
0010
0100
1000
0001
,
0100
0010
1000
0100
1000
0001
1000
0100
0010
0001
1000
0001
0100
0001
0010
0100
,
1000
0001
0010
0001
0100
0010
1000
0001
0100
0010
0100
0001
0010
0100
1000
0001
,
0010
0100
0010
0001
0100
0010
0100
0001
1000
0010
0100
0001
0010
0001
0100
0001
,
1000
0100
0010
0001
0100
0010
1000
0001
0100
0010
0100
0001
0010
0100
1000
0001
,
1000
0000
0100
0010
0001
0000
2000
0000
0000
0000
3010
0100
0001
0000
1000
0000
,
0001
0010
0100
1000
0010
1000
0001
1000
0010
0100
0010
1000
0100
0010
0001
1000
,
0001
0010
0100
1000
0010
0100
0001
1000
0010
0100
0010
1000
0100
1000
0010
0100
,
0001
1000
0100
1000
0010
0100
0001
1000
0010
0100
0010
1000
0100
0010
0001
1000
,
0001
0010
0100
1000
0010
0100
0010
1000
0100
1000
0010
1000
0100
0010
0001
0100
,
0001
1000
0010
1000
0100
0010
0001
1000
0100
0010
0100
1000
0010
0100
0001
1000
,
0010
0100
0010
1000
0100
0010
0100
1000
0001
0010
0100
1000
0010
1000
0100
1000
,
0001
0100
0010
1000
0100
1000
0001
0010
0001
1000
0100
1000
0010
0100
0001
1000
,
0010
0100
0001
0100
0010
0100
0001
1000
,
0001
0100
0010
1000
0100
1000
0001
1000
0100
0010
0100
1000
0010
0100
0001
1000
,
0001
0100
0010
1000
0100
0010
0001
1000
0100
0010
0100
1000
0010
1000
0100
0010
,
0001
1000
0010
1000
0100
0010
0001
1000
0100
0010
0100
1000
0010
0100
0001
1000
,
0010
0100
0001
0010
0001
1000
0001
0010
0100
1000
0001
1000
0010
1000
0100
0010
,
0001
1000
0001
1000
0010
0100
0010
0100
0001
0010
0001
0010
0100
1000
0010
1000
,
0100
0010
0100
0010
0001
0100
0001
0100
0010
1000
0100
1000
0010
1000
0100
0010
,
0001
1000
0001
1000
0010
0100
0010
0100
0001
0010
0001
0010
0100
1000
0100
1000
,
0010
0100
0001
1000
0100
0010
0001
1000
0010
0100
0001
0000
2000
0000
0000
0000
,
3001
0010
0100
0010
0001
0100
0010
1000
,
0100
0000
0000
0000
1000
0000
0000
0000
0010
0000
0000
0000
0100
0000
0000
0000
0001
0000
0000
0000
0001
0000
0000
0000
1000
0000
0000
0001
0000
0000
1000
0000
,
0001
0010
0100
0010
0001
0100
0010
1000
,
1100
0000
0000
0000
1100
0000
0000
0000
0100
0000
0010
0000
0100
0000
0010
0001
,
1000
0010
0100
0010
1000
0100
0010
0001
,
1000
0000
0000
0000
0010
0000
0000
0000
0100
0000
0000
0000
0010
0000
0000
0000
1000
0000
0000
0000
1000
0000
0000
0000
0001
0000
0000
1000
0000
0000
0001
0000
,
1000
0100
0010
0100
1000
0010
0100
0001
,
2000
0000
3001
0200
0000
0310
M00M
0000
,
1000
0100
0010
0001
0100
0001
0010
0100
,
1000
0000
0000
0000
0010
0000
0000
0000
0100
0000
0000
0000
0010
0000
0000
0000
1000
0000
0000
0000
1000
0000
0000
0000
0001
0000
0000
1000
0000
0000
0001
0000
,
1000
0100
0010
0001
0100
0010
0100
0001
,
0101
0000
0101
0000
0100
0100
0001
0001
,
1000
0001
0100
0010
1000
0100
0010
0100
,
1000
0000
0000
0000
0010
0000
0000
0000
0100
0000
0000
0000
0001
0000
0000
0000
1000
0000
0000
0000
1000
0000
0000
0000
0001
0000
0000
1000
0000
0000
0001
0000
,
1000
0100
0010
0001
0100
0001
0010
0100
,
2000
3010
0100
0002
0013
0100
M00M
0000
,
1000
0001
0100
0010
0100
0001
0010
0100
,
1000
0010
0100
0010
1000
1000
0001
0000
,
0011
0000
0001
1001
0000
1000
1010
0000
,
0020
0000
0130
0002
0000
1003
0001
0001
,
1000
0100
0010
0001
0100
0001
0010
0100
,
1000
0010
0100
0010
1000
1000
0001
0000
,
1001
0000
1000
1100
0000
0100
0110
0000
,
0010
0000
0001
1000
0010
0000
0200
0000
0000
0000
0310
0000
M00M
0000
0000
0000
,
1000
0100
0010
0100
1000
0010
0100
0001
,
0010
0001
0100
0010
1000
1000
0001
0000
,
0101
0000
0000
0101
0000
0000
1001
0000
0000
1001
0000
0000
1100
0000
1100
0000
,
0200
0000
0000
0000
0300
0000
0200
0000
0000
0000
0300
0000
0020
0000
0000
0000
0030
0000
0020
0000
0000
0000
0030
0000
0002
0000
0000
0003
0002
0000
0000
0003
,
1000
0010
0100
0001
0010
0001
0100
0010
,
1000
0100
0010
0100
1000
1000
0000
0000
,
1001
0000
0001
0101
0000
0100
0110
0000
,
0020
0130
0001
0020
0130
1000
0001
0001
,
1001
0000
1000
1010
0000
1000
1001
0000
,
1001
0000
0001
0011
0000
0001
1000
1000
,
1010
0000
0010
0110
0000
0010
1010
0000
,
1001
0000
0000
0000
0011
0000
0000
0000
0110
0000
0100
1000
0001
0000
1000
0000
,
1001
0000
0001
0101
0000
0001
1001
0000
,
1001
0000
1000
1100
0000
1000
0001
0001
,
0011
0110
1100
1001
,
0101
0000
0000
0101
0000
0000
0101
0000
00M0
0000
0000
0000
M001
0000
0000
0000
,
1000
0000
0100
0000
0010
0000
0100
1000
0001
0000
0100
0000
0010
0000
0100
0001
,
0020
0030
0000
0000
0001
0000
0000
0000
0200
0300
0000
0000
0010
0000
1000
0000
0200
0300
0000
0000
0010
0000
0002
0003
0200
0300
0000
0000
0002
0003
0000
0000
,
1000
0000
0100
0000
0010
0000
0001
0100
0002
0000
0013
0000
0002
0000
0103
0001
,
0020
0030
0000
0000
0100
0000
0000
0000
2000
0000
0000
0000
3010
0000
1000
0000
0200
0300
0000
0000
0000
0000
0020
0030
0000
0000
0000
0000
0002
0003
0000
0000
,
1000
0000
0010
0000
0100
0000
0010
1000
0001
0000
0010
0000
0100
0000
0010
0001
,
0200
0300
0000
0000
0001
0000
0000
0000
0020
0030
0000
0000
0100
0000
1000
0000
0020
0030
0000
0000
0100
0000
0001
0000
0010
0000
0000
0000
0001
0000
0000
0000
,
1000
0000
0010
0000
0100
0000
0001
0010
0002
0000
0103
0000
0002
0000
0013
0000
,
0100
1000
0100
0010
0001
0100
0010
1000
,
0001
0000
0010
0000
0100
0000
0010
0001
1000
0000
0010
0000
0100
0000
0010
1000
,
0200
0300
0000
0000
1000
0000
0000
0000
0020
0030
0000
0000
0100
0000
0001
0000
0020
0030
0000
0000
0100
0000
2000
3000
0020
0030
0000
0000
2000
3000
0000
0000
,
0001
0000
0010
0000
0100
0000
1000
0010
2000
0000
3100
0000
2000
0000
3010
1000
,
0200
0300
0000
0000
0010
0000
0000
0000
0002
0000
0000
0000
0103
0000
0001
0000
0020
0030
0000
0000
0000
0000
0200
0300
0000
0000
0000
0000
2000
3000
0000
0000
,
0001
0000
0100
0000
0010
0000
0100
0001
1000
0000
0100
0000
0010
0000
0100
1000
,
0020
0030
0000
0000
1000
0000
0000
0000
0200
0300
0000
0000
0010
0000
0001
0000
0200
0300
0000
0000
0010
0000
1000
0000
0100
0000
0000
0000
1000
0000
0000
0000
,
0010
1000
0100
0010
0001
0001
1000
1000
,
1001
00M0
0000
0M00
0000
0000
0010
0000
,
2MM2
0000
0000
0000
,
0000
0000
0000
0000
,
0000
0000
0000
0000
,
3003
0000
0000
0000
,
M14M
0000
0000
0000
0000
0000
0000
0000
0000
0000
0000
0000
0000
0000
0000
0030
;
