#TITLE:The Light That Blinds;
#SUBTITLE:The War Within (2004);
#ARTIST:Shadows Fall;
#TITLETRANSLIT:;
#SUBTITLETRANSLIT:;
#ARTISTTRANSLIT:;
#CREDIT:Kevin (Sloqx);
#BANNER:TLTB bn.jpg;
#BACKGROUND:TLTB bg.jpg;
#LYRICSPATH:;
#CDTITLE:!cdtitle.png;
#MUSIC:Shadows Fall - The Light that Blinds.mp3;
#OFFSET:2.460;
#SAMPLESTART:68.640;
#SAMPLELENGTH:12.000;
#SELECTABLE:YES;
#BPMS:0.000=91.000,56.000=182.000;
#STOPS:;
#BGCHANGES:;
// cache tags:
#FIRSTBEAT:4.000;
#LASTBEAT:852.500;
#SONGFILENAME:Songs/Astronomic Metal Collection/The Light that Blinds - Sloqx/Shadows Fall - The Light That Blinds - Sloqx.sm;
#HASMUSIC:1;
#HASBANNER:1;
#MUSICLENGTH:298.506;
// end cache tags

//---------------dance-single - ----------------
#NOTES:
     dance-single:
     :
     Challenge:
     10:
     0.960,1.000,0.975,0.549,0.695,1550.000,291.000,164.000,0.000,0.000:
0000
0000
0000
0000
,
1001
0001
0010
0100
1001
1000
0100
0010
,
1100
0001
0100
0000
0010
0000
1000
0000
0011
0000
0010
0000
0100
0000
1000
0000
,
0101
0100
0010
1000
0011
1000
0100
0010
,
1100
0001
0100
0000
0010
0000
1000
0000
0101
0000
0001
0000
1000
0000
0100
0000
,
0010
0002
0000
0000
0000
0000
0000
0000
0000
0000
0003
0000
1000
0000
0000
0000
0200
0000
0000
0000
0000
0000
0300
0000
1000
0000
0001
0000
0100
0000
0000
0000
,
0020
0000
0000
0000
0000
0000
0000
0000
0000
0000
0000
0000
0030
0000
0000
0000
0100
0001
0000
0000
1000
0000
0000
0000
0010
0000
0000
0000
1000
0000
0000
0000
,
0001
0020
0000
0000
0000
0000
0000
0000
0000
0000
0030
0000
0100
0000
0000
0000
2000
0000
0000
0000
0000
0000
3000
0000
0010
0000
0100
0000
0001
0000
0000
0000
,
0200
0000
0000
0000
0000
0000
0000
0000
0000
0000
0000
0000
0300
0000
0000
0000
0001
0010
0000
0000
0100
0000
0000
0000
1000
0000
0000
0000
0010
0000
0000
0000
,
0202
0000
0000
0000
0303
0000
1010
0000
1100
0000
0000
0000
0011
1100
0011
0000
,
0202
0000
0000
0303
1001
1100
0011
1100
,
0202
0000
0000
0000
0303
0000
1001
0000
1010
0000
0000
0000
1001
0011
1100
0000
,
0022
0000
0000
0033
1001
0101
1010
1001
,
0022
0000
0000
0000
0000
0000
0000
0033
,
1000
0100
0010
0001
1000
0100
0010
0001
0100
0010
1000
0100
0010
0001
0010
0100
,
1000
0001
0100
0001
1000
0100
0010
0100
1000
0001
0010
0100
1000
0001
0100
0001
,
1000
0010
0100
0010
1000
0001
0010
0001
0100
0010
1000
0100
0010
0001
0010
0100
,
1000
0001
0010
0100
1000
0001
0100
0001
1000
0000
0000
0000
0101
0000
0000
0000
,
0001
0100
0010
1000
0100
0010
0100
1000
0001
0010
0100
1000
0001
0100
0010
0100
,
0001
1000
0100
0010
0001
1000
0010
0100
0001
0010
0100
1000
0001
0100
0010
1000
,
0100
1000
0010
0100
0001
0010
0001
0100
0010
0100
0001
1000
0100
0010
0001
0010
,
0100
1000
0010
0100
0001
1000
0010
1000
0001
0000
0000
0000
1100
0000
0000
0000
,
0001
0010
0001
0010
0100
1000
0100
1000
0001
0100
0001
0100
0001
1000
0001
1000
,
0010
0100
0010
0100
0001
1000
0001
1000
0100
0010
0100
0010
0100
1000
0100
1000
,
0001
0010
0001
0010
0001
0100
0001
0100
0001
0100
0001
0100
0010
1000
0010
1000
,
0001
0010
0001
0010
0100
1000
0100
1000
0001
0100
0001
0100
0010
1000
0010
1000
,
0100
0010
0100
0010
0001
1000
0001
1000
0100
0010
0100
0010
0100
1000
0100
1000
,
0001
0010
0001
0010
0001
1000
0001
1000
0010
0100
0010
0100
0001
1000
0001
1000
,
0100
0010
0100
0010
0001
1000
0001
1000
0001
1000
0001
1000
0010
0100
0010
0100
,
0001
1000
0001
1000
0010
1000
0010
1000
0001
0010
0001
0010
0100
1000
0100
1000
,
0001
0100
0001
0100
0001
1000
0001
1000
0100
0010
0100
0010
0001
1000
0001
1000
,
0001
0010
0001
0010
0100
1000
0100
1000
0001
0100
0001
0100
0001
1000
0001
1000
,
0010
1000
0010
1000
0001
0100
0001
0100
0001
0100
0001
0100
0001
1000
0001
1000
,
0010
0100
0010
0100
0001
0100
0001
0100
0010
1000
0010
1000
0001
1000
0001
1000
,
0100
0010
0100
0010
0100
1000
0100
1000
0001
0100
0001
0100
0010
1000
0010
1000
,
0100
0010
0100
0010
0001
1000
0001
1000
0010
0100
0010
0100
0001
1000
0001
1000
,
0100
0010
0100
0010
0100
1000
0100
1000
0100
1000
0100
1000
0001
0010
0001
0010
,
0001
0100
0001
0100
0010
1000
0010
1000
0100
0010
0100
0010
0001
1000
0001
1000
,
1100
0000
0011
0011
1100
0000
1001
1001
,
0110
0000
1001
1100
0000
0011
0000
0000
,
1000
0100
0010
0001
0010
0100
1000
0001
0100
0010
0100
0001
1000
0100
0010
0100
,
1000
0001
0010
0001
0010
0001
1000
0010
0100
0010
0100
0010
1000
0100
0010
0001
,
1000
0000
0100
0010
0100
0000
1000
0000
0001
0010
0100
0000
0010
0000
0001
0000
,
0100
0000
0001
0000
1000
0000
0100
0000
0010
0000
0010
0000
0001
0100
0001
0000
,
1000
0001
0100
0010
1000
0001
0010
0100
0010
0001
1000
0100
0010
0001
0010
0100
,
1000
0001
0100
0010
1000
0100
0010
0100
0010
0000
0001
0010
0100
1000
0100
0000
,
1001
1001
0101
0000
1010
1100
0000
0011
,
0000
1001
0000
1010
0000
0101
1010
0000
,
0001
0010
0100
1000
0010
0100
0001
0010
0100
1000
0010
0100
0010
1000
0100
0010
,
0001
1000
0100
1000
0001
0100
0010
0100
0001
1000
0100
0010
0100
1000
0010
0100
,
0001
0000
1000
0100
0010
0000
0100
0000
0010
0001
0010
0000
0100
0000
1000
0000
,
0001
0000
0100
0000
0001
0000
1000
0000
0010
0000
0010
0000
1000
0001
0010
0000
,
0100
1000
0001
0100
0001
1000
0010
0100
0001
1000
0100
1000
0001
0010
0100
1000
,
0100
0010
0001
0010
0100
1000
0001
0100
0001
0000
1000
0100
0010
0001
0010
0000
,
1100
1001
0101
0000
1010
0101
0000
1001
,
0000
1010
0000
0011
0000
1100
0101
0000
,
1001
1010
0101
0000
1001
1100
0000
0011
,
0000
1100
0000
1001
0000
0101
1010
0000
,
1001
1100
1001
0000
0101
1010
0000
1001
,
0000
0011
0000
1100
0000
0022
0000
0033
,
0101
1001
1100
0000
0011
1100
0000
1001
,
0000
0101
0000
1010
0000
1100
1001
0000
,
0101
0101
1010
0000
1001
0011
0000
1100
,
0000
0011
0000
0101
0000
0000
0000
0000
,
1010
0000
1001
0022
0000
0000
0000
0000
,
0000
0000
0000
0033
,
1100
0000
1001
0202
0000
0000
0000
0000
,
0000
0000
0000
0303
,
0010
1000
0001
0020
0000
0230
0000
2300
,
0000
3001
0010
0200
0000
0320
0000
0032
,
0000
0000
0000
0003
,
1000
0100
0010
0100
1000
0001
0010
0100
,
1001
0000
1100
0022
0000
0000
0000
0000
,
0000
0000
0033
0000
1100
1100
1100
1100
,
0101
0000
1010
2002
0000
0000
0000
0000
,
0000
0000
0000
3003
,
0001
1000
0001
0200
0000
0320
0000
2030
,
0000
3100
0010
0002
0000
0203
0000
0320
,
0000
0000
0000
0000
0030
0000
1100
1100
,
0101
1000
0010
0202
0000
0000
0303
0000
,
1000
0001
0010
0100
0010
0001
1000
0100
0010
0100
1000
0001
0010
0100
1000
0001
,
0100
0010
1000
0100
1000
0001
0100
0001
1000
0010
1000
0001
0010
0100
1000
0100
,
0010
0000
0001
0010
0100
0000
0010
0000
0001
1000
0100
0000
0010
0000
0001
0000
,
1000
0000
0010
0000
1000
0000
0001
0000
0100
0000
0100
0000
0010
1000
0100
0000
,
0010
0001
0010
0100
1000
0001
0010
0001
1000
0100
0010
0100
1000
0001
0100
0010
,
1000
0100
0010
0001
1000
0010
1000
0001
0100
0000
0010
1000
0001
0010
0100
0000
,
1100
0011
0101
0000
1010
0101
0000
1001
,
0000
1100
0000
0011
0000
1001
1100
0000
,
0001
0100
0001
1000
0010
0100
0001
1000
0100
0010
0100
1000
0100
0010
0001
1000
,
0010
1000
0001
0010
0100
1000
0001
0100
0001
1000
0010
0100
0001
1000
0100
0010
,
0100
0000
1000
0100
0010
0000
0001
0000
0010
0100
0010
0000
0001
0000
1000
0000
,
0010
0000
0100
0000
0001
0000
0010
0000
0100
0000
0100
0000
1000
0100
0010
0000
,
0001
1000
0100
0010
0001
0010
0100
1000
0001
0010
0100
1000
0001
0100
0010
1000
,
0100
0010
0001
1000
0100
0010
0100
1000
0001
0000
0010
0001
1000
0010
1000
0000
,
0101
1001
0110
0000
1001
1100
0000
0011
,
0000
1100
0000
1001
0000
0101
1010
0000
,
1001
0011
1100
0000
1001
0011
0000
1100
,
0000
0110
0000
1001
0000
1010
0101
0000
,
1001
1010
0101
0000
1001
1100
0000
0011
,
0000
1100
0000
0011
0000
0202
0000
0303
,
1001
0110
1001
0000
1100
0011
0000
1001
,
0000
1010
0000
0101
0000
1001
1100
0000
,
0011
1100
1001
0000
1010
0101
0000
1001
,
0000
0011
0000
1100
0000
0000
0000
0000
,
1001
0000
0101
2020
0000
0000
0000
0000
,
0000
0000
0000
3030
,
1001
0000
0011
2200
0000
0000
0000
0000
,
0000
0000
0000
3300
,
1000
0001
0010
0200
0000
0320
0000
0032
,
0000
1003
0100
0020
0000
0230
0000
2300
,
0000
0000
0000
3000
,
0001
0010
0100
1000
0010
0100
0001
0010
,
1100
0000
1001
0202
0000
0000
0000
0000
,
0000
0000
0303
0000
1010
1010
1010
1010
,
0101
0000
1001
2200
0000
0000
0000
0000
,
0000
0000
0000
3300
,
0001
0100
0001
2000
0000
3020
0000
0230
,
0000
0301
1000
0020
0000
0230
0000
0302
,
0000
0000
0000
0003
,
1001
0110
1001
0011
1100
0011
0000
0000
,
1001
0000
0000
0000
0011
0000
0000
0000
0001
0100
0010
0100
0001
1000
0100
0010
,
1100
0000
0000
0000
1001
0000
0000
0000
1000
0100
1000
0001
0010
0100
1000
0100
,
0011
0000
0000
0000
1100
0000
0000
0000
0001
0010
0100
1000
0001
0100
0001
1000
,
0202
0303
2020
3030
,
0011
0000
0000
0000
1100
0000
0000
0000
0001
1000
0100
0010
0001
0010
0100
1000
,
0101
0000
0000
0000
1001
0000
0000
0000
1000
0010
1000
0001
0010
0001
1000
0010
,
0101
0000
0000
0000
1100
0000
0000
0000
0001
0010
0100
1000
0001
0100
0010
0100
,
2002
3003
2200
3300
,
1001
0000
0000
0000
1010
0000
0000
0000
0001
0100
0001
1000
0010
0100
0001
1000
,
1100
0000
0000
0000
0011
0000
0000
0000
0010
0100
1000
0001
0010
0100
1000
0001
,
0101
0000
0000
0000
1001
0000
0000
0000
1000
0100
0010
0100
1000
0100
0010
0001
,
2200
3300
2002
3003
,
0011
0000
0000
0000
1100
0000
0000
0000
0001
0010
0001
1000
0010
0100
0001
1000
,
0011
0000
0000
0000
1100
0000
0000
0000
0001
0010
0100
1000
0010
0100
0010
1000
,
0011
0000
0000
0000
1100
0000
0000
0000
0001
1000
0100
0010
0001
1000
0100
0010
,
2200
3300
0022
0033
,
0202
0000
0000
0000
0303
0000
1000
0001
,
0010
0100
0000
0010
0100
1000
0001
0202
,
0000
0000
0000
0303
,
0010
2000
0000
3000
0101
1010
0000
2002
,
0000
0000
0000
0000
3003
0000
1000
0100
,
0010
0001
0000
0010
0100
1000
0001
0022
,
0000
0000
0000
0000
0000
0033
0000
0202
,
0000
0000
0000
0000
0000
0303
0000
1000
,
0200
0000
0000
0300
,
0020
0000
0000
0030
,
0001
0000
0100
0000
0010
1000
0100
0000
1000
0000
0100
0000
,
0020
0000
0000
0000
0000
0000
0030
0000
0000
0000
0100
0000
0000
0000
1000
0100
,
0010
0000
0001
1000
0000
0001
0100
0001
,
0100
0010
0100
0002
0000
0003
0000
1000
,
0001
0020
0000
0030
0100
1000
0000
0200
,
0000
0000
0000
0000
0300
0000
1000
0100
,
0011
0000
0011
0000
0011
0000
1000
0202
,
0000
0303
1010
0000
1010
0000
1000
0011
,
0000
0000
0001
0000
0010
0100
1000
0000
0001
0000
0100
0000
0010
0000
1000
0000
,
0100
0000
0010
0000
0002
0000
0000
0000
0000
0000
0003
0000
1000
0100
0010
0001
,
1000
0100
0010
0001
1000
0100
0010
0001
1000
0100
0010
0100
1000
0001
0010
0100
,
0010
0001
1000
0100
0010
0100
1000
0001
0010
0001
1000
0100
0010
0001
0010
0100
,
1000
0001
0010
0001
1000
0010
0100
0001
0100
0010
1000
0100
0020
0000
0000
0000
,
0032
0000
0000
0003
0020
0000
0030
0200
,
0000
0000
1300
0000
0100
0000
0010
0000
0001
0010
0100
0000
0010
0000
0002
0000
,
0000
0000
1003
0000
0100
0000
0010
0000
0001
0010
0100
0000
1000
0000
0002
0000
,
0000
0000
0103
0000
0010
0000
1000
0000
0100
0010
0001
0000
0010
0000
0200
0000
,
0000
2300
0000
3002
0000
0203
0000
0320
,
0000
0000
1030
0000
0001
0000
0010
0000
0100
0010
0001
0000
1000
0000
0020
0000
,
0000
0000
0130
0000
0001
0000
1000
0000
0010
1000
0100
0000
0010
0000
0000
0000
,
0001
0010
0100
0000
0000
0000
0010
0000
0100
0000
1000
0000
0010
0000
0100
0000
,
0001
1000
0010
0100
0002
0000
0003
0000
,
2200
0000
3300
0000
0001
0001
1100
0000
,
1000
1000
0101
0000
0100
0100
1001
0000
,
0022
0000
0033
0000
1000
0100
1000
0001
,
0100
0010
0100
0001
1000
0000
0100
0000
0010
0000
0100
0000
1000
0000
0001
0000
,
0022
0000
0033
0000
0001
0001
1010
0000
,
1000
1000
0101
0000
1000
1000
0011
0000
,
2200
0000
3300
0000
0001
0100
0001
1000
,
0100
0010
0100
1000
0001
0020
0000
0030
,
2200
0000
3300
0000
0001
0001
1100
0000
,
0100
0100
1001
0000
1000
1000
0101
0000
,
2020
0000
3030
0000
0001
0010
0001
1000
,
0100
0010
0001
0010
0100
0000
1000
0000
0001
0000
0200
0000
0000
0000
0300
0000
,
2020
0000
3030
0000
1000
1000
0011
0000
,
0010
0010
1001
0000
0001
0001
1100
0000
,
2002
0000
3003
0000
0001
0100
0001
1000
,
0100
0010
0001
0010
0100
0020
0000
0130
,
1000
0001
0100
0010
1000
0100
1000
0001
,
0010
0100
1000
0001
0100
0002
0000
1003
,
0100
0010
0001
1000
0100
1000
0001
0020
,
0000
0030
2200
0000
3300
0022
0000
0033
,
2200
0000
3300
0000
,
1001
0000
0101
2020
0000
0000
0000
0000
,
0000
0000
0000
3030
,
0101
0000
1001
2200
0000
0000
0000
0000
,
0000
0000
0000
3300
,
1000
0010
0100
0002
0000
2003
0000
3020
,
0000
1030
0001
0020
0000
0032
0000
2003
,
0000
0000
0000
3000
,
0100
1000
0010
0100
0010
1000
0001
0100
,
0101
0000
1010
2002
0000
0000
0000
0000
,
0000
0000
3003
0000
0101
0101
0101
0101
,
1010
0000
1100
0022
0000
0000
0000
0000
,
0000
0000
0000
0033
,
1000
0100
0010
0002
0000
0023
0000
0230
,
0000
0310
0100
2000
0000
3200
0000
0320
,
0000
0000
0000
0030
,
0011
1100
0011
1100
1001
0101
0000
1000
,
0010
1000
0001
0010
0100
2000
0000
3100
,
0010
0001
1000
0010
0100
0001
0100
0010
,
0100
0001
1000
0100
0010
0200
0000
1300
,
0001
0010
0100
0010
0001
1000
0010
0100
,
0010
1000
0100
0010
0001
0020
0000
0130
,
1000
0001
0010
0100
1000
0010
0100
0001
,
1000
0100
1000
0001
0100
0020
0000
0130
,
0001
1000
0100
1000
0001
0010
0100
2002
,
0000
3003
0000
0000
0000
0000
0000
0000
;
