#TITLE:Cry of the Brave;
#SUBTITLE:;
#ARTIST:Dragonforce;
#TITLETRANSLIT:;
#SUBTITLETRANSLIT:;
#ARTISTTRANSLIT:;
#CREDIT:;
#BANNER:cryofthebrave-bn.png;
#BACKGROUND:cryofthebrave-bg.png;
#LYRICSPATH:;
#CDTITLE:OMEGAspike.PNG;
#MUSIC:Dragonforce - Cry of the Brave.mp3;
#OFFSET:-2.995;
#SAMPLESTART:6.960;
#SAMPLELENGTH:14.960;
#SELECTABLE:YES;
#BPMS:0.000=215.000,68.000=107.500,72.000=215.000,370.000=107.500,374.000=215.000,608.000=107.500,672.000=215.000;
#STOPS:1128.000=0.500
;
#BGCHANGES:;
// cache tags:
#FIRSTBEAT:4.000;
#LASTBEAT:1154.500;
#SONGFILENAME:Songs/keyboard/(OMEGAspike)Cry of the Brave/Cry of the Brave.sm;
#HASMUSIC:1;
#HASBANNER:1;
#MUSICLENGTH:346.070;
// end cache tags

//---------------dance-single - ----------------
#NOTES:
     dance-single:
     :
     Hard:
     14:
     1.000,1.000,0.728,0.350,1.000,3428.000,252.000,121.000,0.000,18.000:
0000
0000
0000
0000
,
1001
1000
0001
0001
0010
0010
0100
0100
,
1000
0100
0010
0001
0010
0100
2020
3030
,
0101
0010
0100
1000
0100
0010
0001
0010
,
0100
1000
0001
0100
0010
0001
2200
3300
,
0011
0100
1000
0100
0010
0010
0001
0001
,
0100
0100
0010
0010
1000
0100
0022
0033
,
1010
0100
0001
0100
0001
1000
0100
1000
,
0100
0001
0010
0100
1000
0100
2020
3030
,
0001
1000
0001
1000
0001
0010
0100
0010
0001
0010
0100
0010
0001
1000
0100
0010
,
0100
1000
0001
0010
0100
0010
0001
1000
0001
0010
0100
1000
0001
0010
0100
1000
,
0001
1000
0001
1000
0010
0100
0010
0100
0001
0010
0100
1000
0001
1000
0100
0010
,
0001
1000
0001
0010
0100
1000
0100
0010
0100
1000
0001
0010
0100
0010
0001
1000
,
0001
0010
0100
0010
0001
1000
0001
1000
0001
0010
0100
1000
0001
1000
0100
0010
,
0001
1000
0001
0010
0100
1000
0100
0010
0100
1000
0001
0010
0100
0010
0001
1000
,
0100
0010
0001
0100
0010
0100
0001
0010
0100
1000
0001
1000
0100
0010
0001
0100
,
0010
0100
0001
0010
0100
0010
0001
1000
0220
0000
0000
0000
0000
0000
0330
0000
,
0001
0010
0100
1000
0100
0010
0001
0010
0100
1000
0100
0010
0001
0010
0100
1000
0100
0010
1001
0000
0000
0000
0000
0000
,
0001
0100
0010
1000
0001
1000
0010
0100
0001
1000
0001
0010
0100
1000
0001
1000
,
0100
0010
0001
1000
0001
0010
0100
0010
0001
1000
0100
0010
0100
1000
0001
0010
,
0100
0010
0001
1000
0100
0010
0001
1000
0001
0010
0100
1000
0010
0100
0010
1000
,
0001
0100
0010
0100
0001
0010
0100
0010
0001
1000
0100
0010
0100
1000
0001
0010
,
0100
1000
0001
1000
0100
0010
0001
0010
0100
1000
0001
1000
0100
0010
0001
1000
,
0001
0010
0100
1000
0100
0010
0001
1000
0001
0010
0100
1000
0100
0010
0001
0010
,
2200
0000
0000
0000
0022
0000
0000
3333
,
0001
0010
0100
1000
0001
1000
0100
0010
0100
1000
0001
1000
,
0001
1000
0001
1000
0010
0100
0001
1000
0001
1000
0010
0100
0001
0010
0100
1000
,
0001
1000
0100
0010
0001
1000
0001
0010
0100
0010
0001
1000
0100
0010
0100
1000
,
0001
1000
0001
1000
0010
0100
0001
1000
0001
1000
0001
0010
0100
0010
0001
1000
,
0100
0010
0001
1000
0001
0010
0100
1000
0001
0010
0100
0010
0001
1000
0100
0010
,
0100
1000
0001
1000
0001
1000
0010
0100
0001
1000
0001
1000
0010
0100
0001
0010
,
0100
0010
0001
1000
0100
0010
0100
1000
0001
0010
0100
1000
0001
0010
0100
1000
,
0202
0000
0000
0000
2020
0000
0000
3333
,
0001
1000
0001
1000
0010
0100
0001
1000
0001
1000
0010
1000
,
0110
0100
0011
1000
0101
0010
1001
0100
,
0011
1000
0101
0010
0220
0000
0000
0330
,
1100
0010
0101
0010
1100
0010
1010
0100
,
0011
1000
0101
0100
0110
0000
0000
0000
,
1010
0100
0101
0010
1001
0100
0110
0001
,
1100
0010
0101
0100
2020
0000
0000
3030
,
0101
0101
1010
1010
0011
0011
1100
1100
,
2002
0000
0000
0000
0000
0000
0000
3003
,
1000
0100
0010
0001
1000
0001
0010
0100
1000
0001
1000
0100
0010
0001
1000
0001
,
0010
0100
1000
0100
0010
0100
1000
0100
0010
0100
1000
0001
0010
0100
0010
0001
,
0010
0100
0010
0001
1000
0010
0100
0001
1000
0001
0100
0010
1000
0001
1000
0010
,
0100
0001
1000
0001
0100
0010
1000
0001
0010
0100
1000
0001
1000
0100
0010
0001
,
1000
0100
0010
0100
1000
0001
0010
0100
0010
0001
1000
0001
1000
0001
0010
0100
,
0001
1000
0001
1000
0100
0010
0001
0010
0100
1000
0001
1000
0100
0010
0001
1000
,
0001
0010
0100
1000
0001
1000
0100
0010
0100
1000
0001
0010
0100
0010
0001
1000
,
0001
0010
0100
1000
0001
0010
0100
1000
0001
0010
0100
1000
,
0001
0100
0010
1000
0001
0010
0100
1000
0001
0100
0010
1000
0001
0010
0100
1000
,
0001
1000
0100
0010
0001
1000
0100
0010
0100
1000
0100
0010
0100
1000
0001
0010
,
0100
0010
0001
0010
0100
0010
0001
1000
0100
0010
0001
1000
0001
0010
0100
1000
,
0001
1000
0001
1000
0010
0100
0001
1000
0001
1000
0100
0010
0001
0010
0100
1000
,
0001
1000
0100
0010
0001
1000
0001
0010
0100
1000
0010
0100
0001
0010
0100
1000
,
0001
1000
0100
0010
0001
0010
0100
0010
0001
1000
0100
0010
0001
1000
0001
0010
,
0001
0010
0100
1000
0001
0010
0100
1000
0010
0100
0001
0010
,
0100
1000
0100
0010
0001
1000
0100
0010
0001
0100
0010
1000
,
0001
0010
0100
1000
0001
1000
0100
0010
0001
1000
0001
0010
0100
1000
0100
0010
,
0100
1000
0001
1000
0100
0010
0100
1000
0001
0010
0100
0010
0001
1000
0001
0010
,
0100
0010
0001
1000
0001
0010
0100
1000
0001
1000
0100
0010
0001
1000
0001
0010
,
0100
1000
0001
1000
0001
1000
0010
0100
0001
1000
0001
1000
0010
0100
0001
0010
,
0100
1000
0100
0010
0100
1000
0100
0010
0100
1000
0001
0010
0100
0010
0001
0010
,
0100
0010
0001
1000
0100
0010
0001
1000
0001
0010
0100
1000
0001
1000
0100
0010
,
0001
1000
0001
1000
0010
0100
0001
1000
0001
1000
0100
0010
0100
1000
0100
0010
,
0001
1000
0001
1000
0010
0100
0001
1000
0001
1000
0010
0100
,
0001
0100
0001
0100
0010
1000
0010
1000
0001
1000
0001
1000
0010
0100
0001
0010
,
0100
1000
0001
1000
0100
0010
0001
1000
0001
0010
0100
0010
0001
1000
0100
0010
,
0100
1000
0001
1000
0001
1000
0010
0100
0001
0010
0100
1000
0010
0100
0001
0010
,
0100
1000
0001
1000
0100
0010
0001
1000
0001
0010
0100
1000
0001
0010
0100
0010
,
0001
1000
0100
0010
0100
1000
0001
0010
0100
0010
0001
1000
0100
0010
0100
1000
,
0001
0010
0100
1000
0001
1000
0100
0010
0001
1000
0001
1000
0001
0010
0100
1000
,
0001
1000
0001
1000
0100
0010
0001
0100
0010
1000
0100
0010
0001
0100
0010
0100
,
1000
0010
0100
0001
1000
0010
0100
0001
0010
0100
0010
0001
,
1000
0100
0010
0001
1000
0001
0010
0100
1000
0100
0010
0100
1000
0001
0010
0100
,
0010
0001
1000
0001
0010
0100
1000
0100
1011
0000
0000
0000
0000
0000
0000
0000
,
1101
0000
0000
0000
1010
0100
0001
0100
,
0001
1000
0010
1000
0010
0100
0010
0001
,
0010
0100
2020
3030
0101
0010
1000
0100
,
0010
0001
0100
1000
0100
0010
0001
0100
,
1000
0100
0022
0033
1100
0010
0001
0001
,
0010
0100
1000
1000
0100
0010
0001
0001
,
0010
0100
2020
3030
0101
0010
0001
0010
,
0100
1000
0100
0010
0001
1000
0001
1000
,
0010
0000
0100
0000
2002
0000
3003
0000
0001
0010
0100
1000
0001
1000
0100
0010
,
0001
1000
0001
1000
0010
0100
0001
1000
0001
1000
0001
0010
0100
0010
0001
1000
,
0100
0010
0100
1000
0001
1000
0100
0010
0100
1000
0001
0010
0100
0010
0001
1000
,
0001
0010
0100
0010
0001
1000
0100
0010
0001
1000
0001
0010
0100
1000
0001
1000
,
0100
0010
0001
1000
0001
1000
0001
0100
0010
1000
0001
1000
0001
0010
0100
1000
,
0001
1000
0100
0010
0001
1000
0001
0010
0100
0010
0001
1000
0100
0010
0100
1000
,
0001
1000
0001
0010
0100
1000
0100
0010
0001
0010
0100
1000
0100
0010
0001
0010
,
0100
1000
0100
0010
0001
0010
0100
1000
0100
0010
0001
0010
0100
1000
0100
0010
,
0001
0000
0000
0010
0000
0000
0100
0000
0000
1000
0000
0000
0100
0000
0000
0010
0000
0000
0001
0000
0000
0010
0000
0000
1100
0000
0010
0000
0001
0000
1000
0000
0100
0000
0010
0000
0001
0000
0100
0000
0010
0000
1000
0000
0100
0000
0010
0000
,
0001
0000
0100
0000
0010
0000
1000
0000
0100
0000
0010
0000
1001
0000
0000
0000
0000
0000
0000
0000
0000
0000
0000
0000
0001
0000
0000
0010
0000
0000
0100
0000
0000
1000
0000
0000
0001
0000
0000
1000
0000
0000
0100
0000
0000
0010
0000
0000
,
0001
1000
0001
0010
0100
1000
0001
1000
0001
1000
0010
0100
0001
1000
0001
1000
,
0010
0100
1000
0100
0010
0001
0010
0100
0010
0001
1000
0100
0010
0100
1000
0001
,
1000
0100
0010
0100
1000
0001
0010
0100
0010
0001
1000
0001
0010
0100
0010
0001
,
1000
0001
1000
0001
0100
0010
1000
0001
1000
0001
0010
0100
1000
0100
0010
0100
,
1000
0001
0010
0100
0010
0001
1000
0100
0010
0001
1000
0001
0010
0100
1000
0001
,
1000
0100
0010
0001
1000
0001
0010
0001
2200
0000
0000
0000
0000
0000
0000
0000
,
0022
0000
0000
0000
0000
0000
0000
0000
0000
3333
0000
0000
0001
0000
0010
0000
0100
0000
1000
0000
0010
0000
0100
0000
,
0001
0000
0000
0000
0010
0000
0000
0000
0100
0000
0000
0000
1000
0000
0000
0000
0010
0000
0000
0000
0100
0000
0000
0000
0001
0000
0000
0100
0000
0000
0010
0000
0000
1000
0000
0000
0001
0000
0000
0100
0000
0000
0010
0000
0000
1000
0000
0000
,
0001
0010
0100
1000
0001
0010
0100
1000
0001
1000
0001
1000
0010
0100
0001
1000
,
0001
1000
0001
0010
0100
1000
0001
1000
0100
0010
0001
1000
0001
0010
0100
0010
,
0001
1000
0100
0010
0100
1000
0001
0010
0100
0010
0001
0010
0100
0010
0001
1000
,
0100
0010
0100
1000
0100
0010
0100
1000
0001
0010
0100
1000
0001
1000
0100
0010
,
0001
1000
0001
0010
0100
1000
0001
1000
0001
1000
0001
0010
0100
1000
0001
1000
,
0001
0100
0010
1000
0100
0010
0001
0010
2002
0000
0000
0000
0000
0000
0000
0000
,
0220
0000
0000
0000
0000
0000
0000
0000
0000
3333
0000
0000
1000
0000
0001
0000
1000
0000
0001
0000
1000
0000
0001
0000
,
0010
0000
0100
0000
0010
0000
0100
0000
0010
0000
0100
0000
1010
0000
0000
0100
0000
0000
0011
0000
0000
1000
0000
0000
,
0110
0001
0011
0100
1001
0100
0011
0100
,
0220
0000
0000
0330
0101
0010
1010
0100
,
0011
0100
1001
0100
0011
0100
1010
0100
,
1010
0000
0000
0000
1100
0100
0110
0010
,
0011
0100
1010
0100
0101
0010
1010
0100
,
0022
0000
0000
0033
1010
0101
1010
0101
,
0110
1001
0110
1001
2002
0000
0000
0000
,
0000
0000
0000
0000
3003
0000
0000
0000
0010
0100
0010
0100
0001
1000
0001
1000
,
0001
0010
0100
1000
0001
1000
0100
0010
0001
1000
0001
0010
0100
1000
0001
0010
,
0100
0010
0001
1000
0100
0010
0100
1000
0001
0010
0100
0010
0100
1000
0100
0010
,
0100
0010
0001
0010
0100
0010
0100
1000
0100
0010
0001
1000
0001
0010
0100
1000
,
0001
1000
0100
0010
0100
0010
0001
0010
0100
0010
0100
1000
0001
1000
0100
0010
,
0001
1000
0001
0010
0100
1000
0001
0010
0100
0010
0001
1000
0100
0010
0100
1000
,
0001
1000
0001
0010
0100
0010
0100
0001
0010
0100
1000
0001
1000
0001
0010
0100
,
1000
0000
0000
0001
0000
0000
1000
0000
0000
0001
0000
0000
0010
0000
0000
0100
0000
0000
0010
0000
0000
0100
0000
0000
1000
0000
0000
0000
0100
0000
0000
0000
0010
0000
0000
0000
0100
0000
0000
0000
0010
0000
0000
0000
0001
0000
0000
0000
,
0010
0000
0000
0000
0100
0000
0000
0000
0010
0000
0000
0000
0100
0000
0000
0000
1000
0000
0000
0000
0100
0000
0000
0000
0010
0000
0000
0100
0000
0000
0010
0000
0000
0100
0000
0000
0001
0000
0000
1000
0000
0000
0001
0000
0000
1000
0000
0000
,
0001
0010
0100
1000
0001
1000
0100
0010
0001
1000
0001
0010
0100
0010
0100
1000
,
0001
1000
0100
0010
0100
0010
0001
1000
0001
0010
0100
1000
0001
1000
0100
0010
,
0100
1000
0001
0010
0100
0010
0001
1000
0001
1000
0001
0010
0100
0010
0100
0001
,
0010
0100
1000
0100
0010
0100
0010
0001
0010
0100
0010
0100
1000
0100
0010
0001
,
1000
0001
0010
0100
1000
0001
0010
0100
0010
0001
1000
0100
0010
0100
1000
0001
,
1000
0000
0000
0001
0000
0000
1000
0000
0000
0010
0000
0000
0100
0000
0000
0010
0000
0000
0100
0000
0000
0010
0000
0000
0001
0000
0000
0000
0010
0000
0000
0000
0100
0000
0000
0000
0010
0000
0000
0000
0100
0000
0000
0000
1000
0000
0000
0000
,
0100
0010
0100
0010
0100
0001
0010
0100
1000
0001
1000
0100
,
0010
0000
0000
0000
0001
0000
0000
0000
0010
0000
0000
0000
0100
0000
0000
0000
1000
0000
0000
0000
0100
0000
0000
0000
0001
0000
0000
0010
0000
0000
0001
0000
0000
0010
0000
0000
0100
0000
0000
1000
0000
0000
0100
0000
0000
1000
0000
0000
,
0001
0010
0100
1000
0001
1000
0100
0010
0001
0010
0100
0010
0100
1000
0100
0010
,
0100
0010
0001
0010
0100
1000
0001
1000
0100
0010
0001
1000
0001
0010
0100
0010
,
0001
1000
0100
0010
0100
1000
0001
1000
0100
0010
0100
1000
0001
0010
0100
0010
,
0001
1000
0001
0010
0100
0010
0001
1000
0100
0010
0001
1000
0100
0010
0001
1000
,
0001
0010
0100
1000
0001
0010
0100
1000
0001
0100
0001
0100
0010
1000
0010
1000
,
0001
1000
0001
1000
0010
0100
0010
0100
0001
1000
0001
1000
0001
0010
0100
1000
,
0001
0000
0000
0010
0000
0000
0100
0000
0000
1000
0000
0000
0001
0000
0000
1000
0000
0000
0100
0000
0000
0010
0000
0000
0001
0000
0000
0000
1000
0000
0000
0000
0001
0000
0000
0000
1000
0000
0000
0000
0010
0000
0000
0000
0100
0000
0000
0000
,
0001
0000
0000
0000
1000
0000
0000
0000
0001
0000
0000
0000
1000
0000
0000
0000
0010
0000
0000
0000
0100
0000
0000
0000
0001
0000
0000
0100
0000
0000
0010
0000
0000
1000
0000
0000
0001
0000
0000
1000
0000
0000
0010
0000
0000
0100
0000
0000
,
0001
1000
0001
1000
0010
0100
0010
0100
0001
1000
0001
1000
0001
0010
0100
1000
,
0001
1000
0100
0010
0001
1000
0001
0010
0100
0010
0001
1000
0100
0010
0100
1000
,
0001
0010
0100
0010
0100
1000
0100
0010
0100
0010
0001
0010
0100
1000
0001
1000
,
0100
0010
0001
1000
0001
0010
0100
1000
0001
1000
0100
0010
0001
0010
0100
0010
,
0100
1000
0100
0010
0100
0010
0001
0010
0100
1000
0001
1000
0100
0010
0001
1000
,
0001
0010
0100
0010
0001
1000
0100
0010
0100
1000
0001
0010
0100
1000
0001
0010
,
0100
0000
0000
1000
0000
0000
0100
0000
0000
0010
0000
0000
0001
0000
0000
0000
0100
0000
0000
0000
0010
0000
0000
0000
1000
0000
0000
0000
0010
0000
0000
0000
0100
0000
0000
0000
0001
0000
0000
0000
0010
0000
0000
0000
0100
0000
0000
0000
,
1000
0000
0000
0000
0001
0000
0000
0000
1000
0000
0000
0000
0100
0000
0000
0000
0010
0000
0000
0000
0100
0000
0000
0000
1000
0000
0000
0100
0000
0000
0010
0000
0000
0100
0000
0000
1000
0000
0000
0100
0000
0000
1000
0000
0000
0100
0000
0000
,
0010
0001
1000
0001
0010
0100
1000
0001
0010
0100
0010
0001
0010
0100
0010
0100
,
1011
0000
0111
0000
,
2000
0000
0000
0000
,
0000
0000
0000
0000
,
0200
0000
0000
0000
,
0000
0000
0000
0000
,
0020
0000
0000
0000
,
0000
0000
0000
0000
,
0002
0000
0000
0000
0000
0000
0000
3333
,
1001
0000
1100
1010
0000
1010
1100
0000
1001
0000
0011
0101
0000
0101
0011
0000
,
1000
0100
0010
0001
1000
0100
0010
0001
1000
0100
0010
0001
1000
0100
0010
0001
,
1000
0100
1000
0100
1000
0100
1000
0100
0010
0001
0010
0001
0010
0001
0010
0001
,
1100
0000
0000
0000
0000
0000
1000
1000
1000
0000
0100
0100
0100
0000
0010
0010
,
0010
0000
0001
0001
0001
0000
0110
0110
0110
0000
1001
1001
1001
0000
0110
1001
,
0110
1000
0001
0100
0010
1000
0001
0100
0001
0010
0100
1000
0001
0010
0100
1000
,
0010
0100
0010
0100
0001
1000
0001
1000
0001
0010
0001
0010
0100
1000
0100
1000
,
0110
0000
0010
0010
0010
0000
0100
0000
0000
0001
0100
0000
1010
0000
0011
0011
,
0011
0000
1100
0110
0011
0000
0110
0000
0000
0000
0010
0100
0010
0100
0010
0100
,
0020
0000
0000
0000
0000
0030
1100
1100
,
0022
0000
0033
2200
0000
3300
0220
0330
,
0001
0010
0100
1000
0100
0010
0001
0010
0100
1000
0100
0010
0001
0010
0000
0100
,
0000
0020
0000
0000
0000
0000
0000
0000
0000
0000
0000
0000
0000
0000
0030
0000
,
1100
0000
1010
0000
1100
0000
1010
0000
0000
0110
0000
0000
0000
1001
0000
0000
,
0011
0000
0101
0000
0011
0000
0101
0000
0000
0000
1010
0000
0000
0000
0011
0100
,
1000
0100
0010
0001
0010
0100
1000
0100
0010
0001
0010
0100
1000
0100
0010
0001
,
0010
0100
1000
0100
0010
0001
0010
0100
1000
0100
0010
0001
0010
0100
2000
3000
,
0001
0010
0100
0010
0100
1000
0100
0010
0100
0010
0001
0010
0100
0010
0100
1000
,
0100
0010
0100
0010
0001
0010
0100
1000
0001
1000
0100
0010
0001
1000
0001
0010
,
0100
1000
0001
1000
0100
0010
0001
1000
0001
0010
0100
0010
0001
1000
0100
0010
,
0100
1000
0001
1000
0001
1000
0001
0010
0100
0010
0100
1000
0001
1000
0001
1000
,
0100
0010
0001
1000
0001
0010
0100
1000
0001
1000
0100
0010
0100
1000
0001
0010
,
0100
0010
0001
1000
0001
1000
0001
0010
0100
1000
0001
1000
0001
0010
0100
1000
,
0100
0010
0001
1000
0001
0010
0100
1000
0001
1000
0100
0010
0100
1000
0001
0010
,
0100
0010
0001
0010
0100
0010
0100
1000
0100
0010
0100
0010
0001
0010
0100
1000
,
0101
0101
1010
1010
0110
0110
1001
1001
,
1100
1100
0011
0011
0110
0110
1001
1001
,
0001
0010
0100
0010
0100
0010
1000
0100
0010
0100
0010
0100
0001
0010
0100
1000
,
0001
1100
0011
0220
0000
0000
0000
0330
,
1001
0110
0110
1001
0000
0110
0110
0110
,
1001
1010
0101
1010
0000
1100
0011
1001
,
0001
0010
0100
1000
0001
1000
0100
0010
0001
1000
0001
0010
0100
0010
0001
1000
,
0100
0010
0100
1000
0100
0010
0200
0000
0000
0000
0000
0000
0000
0000
0300
0000
,
1000
0100
0010
0001
0000
0110
1001
0000
,
0100
0010
0001
1000
0000
1100
0101
0000
,
1010
0101
1010
0101
0000
1000
0100
0010
,
0001
0010
0100
1000
0100
0010
0001
2200
0000
0000
0000
3311
0000
0000
0000
0000
,
1000
0100
1000
0001
1000
0010
1000
0100
1000
0001
1000
0010
1000
0100
1000
0001
,
0100
0010
1000
0010
0100
0010
1000
0010
0100
0010
1000
0010
0100
0010
1000
0100
,
0010
0100
0010
0100
0001
0010
0100
0010
0100
1000
0100
0010
0001
0010
0100
1000
,
0001
1000
0100
0010
0001
1000
0001
0010
0100
1000
0100
0010
0100
0010
0001
0010
,
0100
1000
0100
0010
0100
1000
0001
0010
0100
0010
0001
1000
0100
0010
0100
0010
,
0001
0010
0100
0010
0100
1000
0100
0010
0001
1000
0001
0010
0100
1000
0001
0010
,
0100
0010
0001
1000
0100
0010
0100
1000
0001
0010
0100
1000
0100
0010
0001
0010
,
2200
0000
0000
0000
0022
0000
0000
3333
,
1000
0100
0010
0001
1000
0100
0010
0001
1000
0100
0010
0001
1000
0100
0010
0001
,
1000
0001
0010
0100
1000
0001
1000
0100
0010
0001
1000
0001
0010
0100
1000
0100
,
0010
0001
0010
0100
0010
0001
1000
0100
0010
0100
1000
0001
1000
0001
1000
0001
,
0220
0000
0330
2000
3200
0000
0320
0030
,
0202
0000
0000
0000
0000
0303
1010
1001
,
0202
0000
0000
0000
0303
0000
2020
0000
0000
0000
3030
0000
0022
0000
0000
0033
,
1000
0100
0020
0000
0030
0000
2200
0000
0000
0000
3300
0000
2002
0000
0000
0000
,
0020
0000
0000
0000
0000
0000
0000
3033
,
0001
0010
0100
1000
0001
0010
0100
1000
0001
0100
0010
1000
0001
0100
0010
1000
,
0001
0010
0100
0010
0100
1000
0100
0010
0100
0010
0001
0010
0100
0010
0100
1000
,
0001
0010
0100
0010
0001
1000
0100
0010
0100
1000
0001
1000
0001
1000
0010
0100
,
0001
1000
0001
1000
0100
0010
0001
1000
0001
0010
0100
1000
0001
1000
0100
0010
,
2200
0000
0000
0000
0000
3300
0010
0110
,
0200
0000
0300
2020
0000
3030
0022
0033
,
1000
0100
0020
0000
0030
0000
0202
0000
0000
0000
0303
0000
2020
0000
0000
0000
,
0202
0000
0000
0000
0000
0000
0000
3333
,
1100
1010
1001
1010
0000
0110
0011
1010
,
2200
0000
3300
0220
0000
0330
2002
3003
,
0001
1000
0001
1000
0001
1000
0001
1000
0001
1000
0001
1000
0001
1000
0001
1000
,
0001
1000
0001
0010
0100
1000
0100
0010
0001
0010
0100
1000
0100
0010
0001
0010
,
1100
0100
0010
0010
0001
0001
1000
1000
,
0110
0100
0010
0010
0001
0001
0100
0100
,
0011
0010
1000
1000
0100
0100
0010
0010
,
1001
0001
0010
0010
1000
0100
0010
0001
,
1010
1000
0100
0100
0010
0010
1000
1000
,
0101
0001
1000
1000
0010
0010
0100
0100
,
2002
0000
0000
0000
0220
0000
0000
3333
,
0001
0010
0100
1000
0100
0010
0001
0010
0100
1000
0100
0010
,
0001
0010
0100
1000
0001
1000
0100
0010
0001
1000
0001
0010
0100
1000
0001
1000
,
0100
0010
0001
1000
0100
0010
0001
1000
0001
0010
0100
0010
0001
1000
0100
0010
,
0100
1000
0001
0010
0100
0010
0100
1000
0100
0010
0100
0010
0001
1000
0001
1000
,
0001
0010
0100
1000
0001
1000
0001
0100
0010
1000
0001
0010
0100
1000
0001
1000
,
0100
0010
0001
1000
0001
0010
0100
1000
0001
0010
0100
0010
0001
1000
0100
0010
,
0100
1000
0001
1000
0001
1000
0100
0010
0001
1000
0001
1000
0100
0010
0001
1000
,
0220
0000
0000
0000
2002
0000
0000
3333
,
0001
0010
0001
0010
0001
0010
0100
1000
0100
1000
0100
1000
,
0011
0100
0101
1000
0110
0001
1010
0100
,
0011
0000
0000
1000
0000
0000
0101
0000
0000
1000
0000
0000
0220
0000
0000
0000
0000
0000
0000
0000
0000
0000
0330
0000
,
0101
0010
1100
0010
1010
0100
0101
0010
,
1100
0010
0011
0100
0011
0000
0000
0000
,
1010
0010
0011
0010
0110
0010
1010
0100
,
1100
0100
0101
0100
0110
0000
0000
0000
,
1001
0110
0101
1010
0110
1100
0101
0110
,
2002
0000
0000
0000
0000
0000
0000
3003
,
0001
0010
0100
1000
0001
0010
0100
1000
0001
0100
0010
1000
0001
0100
0010
1000
,
0001
0010
0100
1000
0001
1000
0100
0010
0001
1000
0001
0010
0100
1000
0001
1000
,
0100
0010
0100
1000
0001
0010
0100
0010
0001
1000
0100
0010
0100
0010
0001
0010
,
0100
0010
0100
1000
0001
0010
0100
1000
0001
1000
0100
0010
0001
1000
0001
0010
,
0100
0010
0001
1000
0100
0010
0100
1000
0001
0010
0100
0010
0100
1000
0100
0010
,
0100
0010
0001
1000
0100
0010
0001
1000
0001
0010
0100
1000
0001
1000
0001
1000
,
0100
0010
0001
1000
0001
1000
0010
0100
0001
1000
0001
0010
0100
1000
0100
0010
,
0001
0100
0010
1000
0100
0010
0001
0010
0100
1000
0100
0010
,
0001
0100
0001
0100
0010
1000
0010
1000
0100
0010
0100
0010
0001
0010
0100
0010
,
0100
1000
0100
0010
0001
1000
0001
0010
0100
1000
0001
1000
0100
0010
0001
1000
,
0001
1000
0100
0010
0001
1000
0001
1000
0001
0010
0100
1000
0001
1000
0100
0010
,
0001
1000
0001
0010
0100
1000
0100
0010
0100
1000
0001
0010
0100
0010
0001
1000
,
0100
0010
0100
1000
0001
0010
0100
0010
0001
1000
0001
1000
0001
0010
0100
0010
,
0100
0001
0010
0100
1000
0010
0100
0001
0010
0100
1000
0010
0100
0001
0010
0100
,
1000
0100
0010
0100
0010
0001
0010
0100
0010
0100
1000
0100
,
0010
0001
0010
0100
1000
0100
0010
0001
0010
0100
1000
0001
,
1000
0100
0010
0001
1000
0001
0010
0100
1000
0001
1000
0100
0010
0100
1000
0001
,
0010
0100
0010
0001
1000
0100
0010
0001
1000
0100
0010
0001
1000
0001
1000
0001
,
0010
0100
1000
0001
1000
0100
0010
0001
1000
0001
0010
0100
1000
0001
1000
0001
,
0010
0100
1000
0001
1000
0100
0010
0001
1000
0100
0010
0100
1000
0001
0010
0100
,
0010
0001
1000
0010
0100
0010
0100
0010
0001
0010
0100
0010
0100
1000
0100
0010
,
0001
0010
0100
1000
0001
1000
0100
0010
0001
1000
0001
0010
0100
1000
0100
0010
,
0100
0010
0001
0010
0100
0010
0100
1000
0100
0010
0001
1000
0001
1000
0100
0010
,
0001
0100
0001
0100
0001
0100
0001
1000
0001
1000
0001
1000
,
0001
0010
0001
0010
0100
1000
0100
1000
0001
0100
0001
0100
0010
1000
0010
1000
,
0001
0010
0100
1000
0001
1000
0100
0010
0001
1000
0001
0010
0100
1000
0010
0100
,
0001
0010
0100
0010
0100
1000
0100
0010
0100
0010
0001
0010
0100
0010
0100
1000
,
0001
0010
0100
0010
0001
1000
0100
0010
0100
1000
0001
1000
0001
0010
0100
0010
,
0001
1000
0001
1000
0100
0010
0100
1000
0001
0010
0100
0010
0001
1000
0001
1000
,
0001
0010
0100
1000
0001
1000
0100
0010
0001
1000
0001
0010
0100
1000
0001
0010
,
0100
0010
0100
1000
0100
0010
0100
0010
0001
0010
0100
1000
0100
0010
0001
0010
,
0001
0010
0100
1000
0010
0100
0001
0010
0100
1000
0010
0100
,
0001
1000
0001
1000
0100
0010
0001
1000
0001
1000
0100
0010
0001
0010
0100
1000
,
0001
0010
0100
1000
0100
0010
0001
1000
0111
0000
0000
0000
0000
0000
0000
0000
,
1110
2002
0000
0000
0000
0000
0000
0000
0000
0000
0000
0000
0000
0000
0000
0000
,
0000
0000
0000
0000
,
0000
0000
0000
0000
,
0000
0000
0000
0000
,
0000
0000
0000
0000
,
0000
0000
0000
0000
,
0000
0000
0000
0000
0000
3003
0000
0000
;
