#TITLE:Blue Planet;
#SUBTITLE:;
#ARTIST:Izayoi Sak;
#TITLETRANSLIT:;
#SUBTITLETRANSLIT:;
#ARTISTTRANSLIT:;
#CREDIT:;
#BANNER:../fthescorept1bn.png;
#BACKGROUND:../fthescorept1bg.png;
#LYRICSPATH:;
#CDTITLE:;
#MUSIC:blue planet.ogg;
#OFFSET:0.879;
#SAMPLESTART:106.860;
#SAMPLELENGTH:13.010;
#SELECTABLE:YES;
#BPMS:0.000=294.000;
#STOPS:;
#BGCHANGES:;
// cache tags:
#FIRSTBEAT:8.000;
#LASTBEAT:734.000;
#SONGFILENAME:Songs/Fuck The Score Part I/Blue Planet [Dossar]/blue planet.sm;
#HASMUSIC:1;
#HASBANNER:1;
#MUSICLENGTH:149.446;
// end cache tags

//---------------dance-single - ----------------
#NOTES:
     dance-single:
     :
     Challenge:
     18:
     1.000,1.000,0.174,0.000,1.000,1726.000,26.000,0.000,0.000,0.000:
0000
0000
0000
0000
,
0000
0000
0000
0000
,
0001
0000
0100
0000
0010
1000
0001
0010
0100
0000
1000
0000
0010
0100
0001
0010
,
0100
0000
1000
0000
0010
1000
0100
0010
0001
0000
0100
0000
0010
1000
0100
0010
,
0001
0000
1000
0000
0100
0010
0001
1000
0010
0000
1000
0000
0001
0010
0100
1000
,
0010
0000
1000
0000
0100
0010
0001
0100
0010
0000
1000
0000
0100
0010
0001
1000
,
0010
0000
0100
0000
0001
0010
0100
1000
0010
0000
0100
0000
0010
1000
0100
0010
,
0001
0000
1000
0000
0010
0100
0001
0010
0100
0000
1000
0000
0010
0100
0001
0010
,
0100
0000
1000
0000
0100
0010
0001
0100
0010
0000
1000
0000
0100
0010
0001
1000
,
0010
0000
0100
0000
0001
0010
0100
1000
0010
0000
0100
0000
0010
0100
0001
0010
,
0100
0000
1000
0000
0010
0100
0001
0010
0001
0000
0100
0000
0010
1000
0100
0010
,
0100
0000
1000
0000
0010
0100
0010
1000
0100
0000
0010
0000
0001
0100
0001
0010
,
0100
0000
1000
0000
0100
0010
0001
0100
0010
0000
1000
0000
0100
0010
0100
1000
,
0010
0000
0100
0000
0001
0010
0001
0100
0010
0000
1000
0000
0100
0010
0001
0100
,
0010
0000
1000
0000
0001
0100
0010
1000
0100
0000
0010
0000
0100
1000
0010
0100
,
0001
0000
0100
0000
0010
1000
0100
1000
0010
0000
0100
0000
0001
0010
0100
0010
,
0001
1000
0000
1000
0100
0000
0100
0010
,
0001
1000
0010
0100
0001
0000
0100
0001
,
1000
0000
0010
0000
0100
0001
0010
0100
1000
0000
0001
0000
0100
0010
1000
0100
,
0010
0000
0001
0000
0100
0010
1000
0100
1000
0000
0001
0000
0100
0001
0010
0001
,
1000
0000
0100
0000
0010
0001
0100
0010
1000
0000
0100
0000
0010
0001
0100
0010
,
1000
0000
0001
0000
0010
0100
1000
0010
0100
0000
0001
0000
1000
0010
0100
0001
,
0010
0000
0100
0000
1000
0010
0100
0010
1000
0000
0001
0000
0010
0100
1000
0001
,
0100
0000
0010
0000
1000
0100
0010
0001
0100
0000
0001
0000
0010
0100
1000
0010
,
1000
0000
0001
0000
0100
0010
1000
0100
1000
0000
0001
0000
0100
0001
0010
0100
,
1000
0000
0001
0000
1000
0010
0100
0001
0010
0000
0001
0000
1000
0100
0010
0001
,
0100
0000
0001
0000
1000
0100
0010
0001
0100
0000
0001
0000
1000
0010
1000
0100
,
1000
0000
0001
0000
0100
0010
1000
0100
0010
0000
0001
0000
0010
0001
0100
0001
,
0010
0000
0100
0000
1000
0100
1000
0010
1000
0000
0001
0000
0100
0010
1000
0100
,
0010
0000
0001
0000
0100
0010
0100
0001
0010
0000
0100
0000
0010
0001
0100
0010
,
0100
0000
0001
0000
1000
0100
0010
0001
0100
0000
0010
0000
1000
0001
1000
0100
,
0010
0000
0001
0000
0100
0010
1000
0100
0010
0000
0001
0000
1000
0100
0010
0001
,
0100
0001
0000
0001
0010
0000
0010
0100
,
1000
0001
0100
0010
1000
0000
0010
1000
,
0001
0000
0100
0000
0010
1000
0001
0010
0100
0000
1000
0000
0010
0100
0001
0010
,
0001
0000
0100
0000
0010
1000
0100
0010
0001
0000
1000
0000
0100
0010
0001
0100
,
0010
0000
1000
0000
0001
0100
0010
1000
0100
0000
0010
0000
0001
0010
0100
1000
,
0010
0000
0100
0000
0010
1000
0001
0010
0100
0000
1000
0000
0001
0100
0001
0010
,
0001
0000
1000
0000
0100
0010
0001
0100
0010
0000
1000
0000
0001
0010
0001
0100
,
0001
0000
1000
0000
0010
1000
0100
0010
0001
0000
0100
0000
0010
1000
0100
1000
,
0001
0000
0010
0000
0100
1000
0010
1000
0100
0000
0010
0000
0001
0010
0100
1000
,
0010
0000
0100
0000
0010
1000
0100
0010
0100
0000
1000
0000
0100
0010
0001
1000
,
0001
0000
0010
0000
0100
1000
0010
0100
0001
0000
0100
0000
0010
1000
0100
0010
,
0001
0000
1000
0000
0010
0100
0001
0010
0100
0000
1000
0000
0010
0100
0001
1000
,
0100
0000
0010
0000
0001
1000
0010
1000
0100
0000
0010
0000
0100
1000
0010
1000
,
0001
0000
0100
0000
0010
1000
0100
0010
0001
0000
1000
0000
0001
1000
0100
1000
,
0010
0000
0100
0000
0001
0010
0100
0010
0001
0000
1000
0000
0010
0100
0001
0010
,
0100
0000
1000
0000
0010
1000
0100
1000
0010
0000
0100
0000
0010
1000
0100
0010
,
0001
1000
0100
0010
0001
0100
0010
1000
,
0100
0010
0001
0100
0010
1000
0100
0010
,
0001
0000
0000
0001
0000
0000
0001
0000
,
0001
0000
0000
1000
0100
0000
1000
0000
,
0100
1000
0010
1000
0100
1000
0010
1000
,
0100
1000
0010
1000
0100
1000
0010
1000
,
0100
1000
0001
1000
0100
1000
0001
1000
,
0100
0000
1000
0000
0001
0010
0100
1000
0010
0000
1000
0000
0001
0100
0010
1000
,
0100
1000
0001
1000
0100
1000
0001
1000
,
0100
1000
0001
1000
0100
1000
0001
1000
,
0100
1000
0010
1000
0100
1000
0010
1000
,
0100
0000
1000
0000
0001
0010
0100
1000
0010
0000
0100
0000
0010
1000
0100
0010
,
0100
1000
0010
1000
0100
1000
0010
1000
,
0100
1000
0010
1000
0100
1000
0010
1000
,
0100
1000
0001
1000
0100
1000
0001
1000
,
0100
0000
1000
0000
0001
0010
0100
1000
0010
0000
0100
0000
0001
0010
0001
1000
,
0100
1000
0001
1000
0100
1000
0001
1000
,
0100
1000
0001
1000
0100
1000
0001
1000
,
0010
0100
0000
0100
0010
0000
1000
0001
,
0000
0001
1000
0000
0100
0000
0010
0000
,
0100
1000
0010
1000
0100
1000
0010
1000
,
0100
1000
0010
1000
0100
1000
0010
1000
,
0100
1000
0001
1000
0100
1000
0001
1000
,
0100
0000
1000
0000
0001
0100
0010
1000
0100
0000
0010
0000
0001
0100
0010
1000
,
0100
1000
0001
1000
0100
1000
0001
1000
,
0100
1000
0001
1000
0100
1000
0001
1000
,
0100
1000
0010
1000
0100
1000
0010
1000
,
0100
0000
1000
0000
0001
0010
0100
1000
0010
0000
0100
0000
0010
1000
0100
0010
,
0100
1000
0010
1000
0100
1000
0010
1000
,
0100
1000
0010
1000
0100
1000
0010
1000
,
0100
1000
0001
1000
0100
1000
0001
1000
,
0100
0000
1000
0000
0001
0100
0010
1000
0100
0000
0010
0000
0100
1000
0010
1000
,
0100
1000
0001
1000
0100
1000
0001
1000
,
0100
1000
0001
1000
0100
1000
0001
1000
,
0010
0100
0000
0100
0010
0000
1000
0100
,
0000
0100
1000
0000
0100
0000
0010
0000
,
0001
0010
0001
0010
0001
0010
0001
0010
,
0100
0010
0100
0010
0100
0010
0100
0010
,
0100
1000
0100
1000
0100
1000
0100
1000
,
0001
0000
1000
0000
0001
0100
0010
1000
0100
0000
0010
0000
0100
1000
0010
0100
,
0001
1000
0001
1000
0001
1000
0001
1000
,
0010
0100
0010
0100
0010
0100
0010
0100
,
0001
0100
0001
0100
0001
0100
0001
0100
,
0001
0000
1000
0000
0100
1000
0010
0100
0001
0000
1000
0000
0100
1000
0010
0100
,
0001
0010
0001
0010
0001
0010
0001
0010
,
0100
0010
0100
0010
0100
0010
0100
0010
,
0100
1000
0100
1000
0100
1000
0100
1000
,
0001
0000
1000
0000
0001
0100
0010
1000
0100
0000
0010
0000
0100
1000
0010
0100
,
0001
1000
0001
1000
0001
1000
0001
1000
,
0010
0100
0010
0100
0010
0100
0010
0100
,
0001
1000
0000
1000
0100
0000
0100
0010
,
0000
0010
0001
0000
0100
0000
0010
0000
,
1000
0100
1000
0100
1000
0100
1000
0100
,
0010
0100
0010
0100
0010
0100
0010
0100
,
0010
0001
0010
0001
0010
0001
0010
0001
,
1000
0000
0001
0000
1000
0010
0100
0001
0010
0000
0100
0000
0010
0001
0100
0010
,
1000
0001
1000
0001
1000
0001
1000
0001
,
0100
0010
0100
0010
0100
0010
0100
0010
,
1000
0010
1000
0010
1000
0010
1000
0010
,
1000
0000
0001
0000
0010
0001
0100
0001
0010
0000
0100
0000
0010
0001
0100
0010
,
1000
0100
1000
0100
1000
0100
1000
0100
,
0010
0100
0010
0100
0010
0100
0010
0100
,
0010
0001
0010
0001
0010
0001
0010
0001
,
1000
0000
0001
0000
1000
0010
0100
0001
0010
0000
0100
0000
0010
0001
0100
0001
,
1000
0001
1000
0001
1000
0001
1000
0001
,
0100
0010
0100
0010
0100
0010
0100
0010
,
1000
0001
0000
0001
0010
0000
0010
0100
,
0000
0100
1000
0000
0010
0000
0100
0000
,
1001
0000
0000
0011
,
0000
0000
1100
0000
,
1000
1010
0000
0000
,
0110
0000
0101
0010
,
1001
0000
0000
1100
,
0000
0000
0000
0000
0110
0010
0000
0000
,
0010
1001
0000
0000
,
1100
0000
0011
0110
,
1100
0000
0000
1001
,
0100
0000
0011
1000
,
0101
0000
0110
0000
0000
1000
0000
0000
,
1001
0000
0011
1000
,
0101
0000
0100
1010
,
1001
0000
0101
0000
,
1001
0001
1001
1000
,
0001
0100
0001
0000
1000
0000
0010
0000
0100
0001
0100
0000
0010
0000
1000
0000
,
0001
0000
0100
0000
0010
1000
0100
0010
0001
0000
1000
0000
0010
0100
0001
0010
,
0100
0000
1000
0000
0010
0100
0001
0010
0001
0000
1000
0000
0010
1000
0100
1000
,
0001
0000
0010
0000
0100
1000
0010
0100
0001
0000
0010
0000
0100
1000
0010
0100
,
0001
0000
1000
0000
0100
0010
0001
0100
0010
0000
1000
0000
0001
0100
0010
1000
,
0100
0000
0010
0000
0001
0100
0010
0100
0001
0000
1000
0000
0100
0010
0001
1000
,
0010
0000
0100
0000
0001
0010
0100
1000
0010
0000
1000
0000
0100
0010
0001
0100
,
0001
0000
1000
0000
0010
0100
0001
0010
0001
0000
1000
0000
0010
1000
0100
0010
,
0001
0000
1000
0000
0001
0100
0010
1000
0100
0000
1000
0000
0001
0010
0100
1000
,
0010
0000
1000
0000
0001
0010
0100
1000
0010
0000
1000
0000
0001
0100
0001
0010
,
0001
0000
1000
0000
0010
0100
0001
0010
0100
0000
1000
0000
0100
1000
0010
1000
,
0100
0000
0010
0000
0001
0010
0001
0100
0001
0000
1000
0000
0010
0100
0001
0010
,
0100
0000
1000
0000
0010
0100
0010
1000
0100
0000
0010
0000
0100
1000
0010
0100
,
0010
0000
1000
0000
0001
0010
0100
1000
0010
0000
0100
0000
0001
1000
0001
0010
,
0100
0000
1000
0000
0010
0100
0001
0010
0100
0000
1000
0000
0001
0010
0100
1000
,
0010
0000
0100
0000
0001
1000
0100
0010
0001
0000
0100
0000
0010
1000
0100
0010
,
0100
0000
1000
0000
0010
0100
0001
0010
0100
0000
1000
0000
0100
0010
0001
0100
,
0010
0000
0000
0000
0000
0000
0000
0000
1000
0000
0010
0000
0100
0001
0010
0100
,
1000
0000
0001
0000
0100
0010
1000
0100
0010
0000
0001
0000
0100
0010
1000
0100
,
1000
0000
0001
0000
0100
0001
0010
0001
1000
0000
0100
0000
0010
0001
0100
0010
,
1000
0000
0100
0000
0010
0001
0100
0010
1000
0000
0001
0000
0010
0100
1000
0010
,
0100
0000
0001
0000
1000
0010
0100
0001
0010
0000
0100
0000
1000
0010
0100
0010
,
1000
0000
0001
0000
0010
0100
1000
0001
0100
0000
0010
0000
1000
0100
0010
0001
,
0100
0000
0001
0000
0010
0100
1000
0010
1000
0000
0001
0000
0100
0010
1000
0100
,
1000
0000
0001
0000
0100
0001
0010
0100
1000
0000
0001
0000
1000
0010
0100
0001
,
0010
0000
0001
0000
1000
0100
0010
0001
0100
0000
0001
0000
1000
0100
0010
0001
,
0100
0000
0001
0000
1000
0010
1000
0100
1000
0000
0001
0000
0100
0010
1000
0100
,
0010
0000
0001
0000
0010
0001
0100
0001
0010
0000
0100
0000
1000
0100
1000
0010
,
1000
0000
0001
0000
0100
0010
1000
0100
0010
0000
0001
0000
0100
0010
0100
0001
,
0010
0000
0100
0000
0010
0001
0100
0010
0100
0000
0001
0000
1000
0100
0010
0001
,
0100
0000
0010
0000
1000
0001
1000
0100
0010
0000
0001
0000
0100
0010
1000
0100
,
0010
0000
0001
0000
1000
0100
0010
0001
0100
0000
0010
0000
1000
0001
0010
0100
,
1000
0000
0010
0000
0100
0001
0010
0100
0010
0000
0001
0000
0100
0010
1000
0100
,
0010
0000
0001
0000
0010
0100
1000
0010
1000
0000
0010
0000
0100
0001
0010
0100
,
1000
0000
0001
0000
0100
0010
1000
0100
0010
0000
0001
0000
0100
0010
1000
0100
,
1000
0000
0001
0000
0100
0001
0010
0001
1000
0000
0100
0000
0010
0001
0100
0010
,
1000
0000
0100
0000
0010
0001
0100
0010
1000
0000
0001
0000
0010
0100
1000
0010
,
0100
0000
0001
0000
1000
0010
0100
0001
0010
0000
0100
0000
1000
0010
0100
0010
,
1000
0000
0001
0000
0010
0100
1000
0001
0100
0000
0010
0000
1000
0100
0010
0001
,
0100
0000
0001
0000
0010
0100
1000
0010
1000
0000
0001
0000
0100
0010
1000
0100
,
1000
0000
0001
0000
0100
0001
0010
0100
1000
0000
0001
0000
1000
0010
0100
0001
,
0010
0000
0001
0000
1000
0100
0010
0001
0100
0000
0001
0000
1000
0100
0010
0001
,
0100
0000
0001
0000
1000
0010
1000
0100
1000
0000
0001
0000
0100
0010
1000
0100
,
0010
0000
0001
0000
0010
0001
0100
0001
0010
0000
0100
0000
1000
0100
1000
0010
,
1000
0000
0001
0000
0100
0010
1000
0100
0010
0000
0001
0000
0100
0010
0100
0001
,
0010
0000
0100
0000
0010
0001
0100
0010
0100
0000
0001
0000
1000
0100
0010
0001
,
0100
0000
0010
0000
1000
0001
1000
0100
0010
0000
0001
0000
0100
0010
1000
0100
,
0010
0000
0001
0000
1000
0100
0010
0001
0100
0000
0010
0000
1000
0001
0010
0100
,
1000
0000
0010
0000
0100
0001
0010
0100
0010
0000
0001
0000
0100
0010
1000
0100
,
0010
0001
0100
0010
,
1000
0100
0010
0001
,
0100
0000
0010
1000
0000
0100
0010
0000
,
0001
0100
0010
0000
1000
0000
0100
0000
0010
0000
0000
0000
0000
0000
0000
0000
;

//---------------dance-single - ----------------
#NOTES:
     dance-single:
     :
     Hard:
     17:
     1.000,1.000,0.174,0.000,1.000,1726.000,26.000,0.000,0.000,0.000:
0000
0000
0000
0000
,
0000
0000
0000
0000
,
0001
0000
0100
0000
0010
1000
0010
0100
0001
0000
1000
0000
0010
0100
0001
1000
,
0001
0000
0100
0000
0010
1000
0001
0100
0001
0000
1000
0000
0001
0100
0010
1000
,
0001
0000
1000
0000
0100
1000
0100
0010
0001
0000
1000
0000
0001
0010
0100
1000
,
0001
0000
1000
0000
0100
0010
0001
0010
0100
0000
1000
0000
0100
1000
0100
0010
,
0001
0000
1000
0000
0001
0100
0010
0100
0001
0000
0100
0000
0001
1000
0010
1000
,
0001
0000
0100
0000
0010
1000
0001
0100
0001
0000
1000
0000
0010
0100
0001
1000
,
0001
0000
1000
0000
0100
0010
0001
0010
0100
0000
1000
0000
0100
1000
0100
0010
,
0001
0000
1000
0000
0001
0010
0100
1000
0100
0000
0010
0000
0001
1000
0100
0010
,
0001
0000
1000
0000
0010
0100
0001
1000
0001
0000
0100
0000
0010
1000
0001
0010
,
0001
0000
1000
0000
0010
0100
0001
1000
0010
0000
0100
0000
0001
1000
0010
0100
,
0001
0000
1000
0000
0100
0010
0001
0010
0100
0000
1000
0000
0001
0010
0100
1000
,
0001
0000
0010
0000
0100
1000
0100
0010
0001
0000
1000
0000
0001
0010
0100
1000
,
0001
0000
0100
0000
0010
1000
0010
0100
0001
0000
1000
0000
0001
0100
0010
1000
,
0001
0000
0100
0000
0010
1000
0001
1000
0010
0000
0100
0000
0001
1000
0010
0100
,
0001
1000
0000
1000
0100
0000
0100
0010
,
0001
1000
0010
0100
0001
0000
0100
0001
,
1000
0000
0010
0000
0100
0001
0100
0010
1000
0000
0001
0000
0100
0010
1000
0001
,
1000
0000
0010
0000
0100
0001
1000
0010
1000
0000
0001
0000
1000
0010
0100
0001
,
1000
0000
0001
0000
0010
0001
0010
0100
1000
0000
0001
0000
1000
0100
0010
0001
,
1000
0000
0001
0000
0010
0100
1000
0100
0010
0000
0001
0000
0010
0001
0010
0100
,
1000
0000
0001
0000
1000
0010
0100
0010
1000
0000
0010
0000
1000
0001
0100
0001
,
1000
0000
0010
0000
0100
0001
1000
0010
1000
0000
0001
0000
0100
0010
1000
0001
,
1000
0000
0001
0000
0010
0100
1000
0100
0010
0000
0001
0000
0010
0001
0010
0100
,
1000
0000
0001
0000
1000
0100
0010
0001
0010
0000
0100
0000
1000
0001
0010
0100
,
1000
0000
0001
0000
0100
0010
1000
0001
1000
0000
0010
0000
0100
0001
1000
0100
,
1000
0000
0001
0000
0100
0010
1000
0001
0100
0000
0010
0000
1000
0001
0100
0010
,
1000
0000
0001
0000
0010
0100
1000
0100
0010
0000
0001
0000
1000
0100
0010
0001
,
1000
0000
0100
0000
0010
0001
0010
0100
1000
0000
0001
0000
1000
0100
0010
0001
,
1000
0000
0010
0000
0100
0001
0100
0010
1000
0000
0001
0000
1000
0010
0100
0001
,
1000
0000
0010
0000
0100
0001
1000
0001
0100
0000
0010
0000
1000
0001
0100
0010
,
1000
0001
0000
0001
0010
0000
0010
0100
,
1000
0001
0100
0010
1000
0000
0010
1000
,
0001
0000
0100
0000
0010
1000
0010
0100
0001
0000
1000
0000
0010
0100
0001
1000
,
0001
0000
0100
0000
0010
1000
0001
0100
0001
0000
1000
0000
0001
0100
0010
1000
,
0001
0000
1000
0000
0100
1000
0100
0010
0001
0000
1000
0000
0001
0010
0100
1000
,
0001
0000
1000
0000
0100
0010
0001
0010
0100
0000
1000
0000
0100
1000
0100
0010
,
0001
0000
1000
0000
0001
0100
0010
0100
0001
0000
0100
0000
0001
1000
0010
1000
,
0001
0000
0100
0000
0010
1000
0001
0100
0001
0000
1000
0000
0010
0100
0001
1000
,
0001
0000
1000
0000
0100
0010
0001
0010
0100
0000
1000
0000
0100
1000
0100
0010
,
0001
0000
1000
0000
0001
0010
0100
1000
0100
0000
0010
0000
0001
1000
0100
0010
,
0001
0000
1000
0000
0010
0100
0001
1000
0001
0000
0100
0000
0010
1000
0001
0010
,
0001
0000
1000
0000
0010
0100
0001
1000
0010
0000
0100
0000
0001
1000
0010
0100
,
0001
0000
1000
0000
0100
0010
0001
0010
0100
0000
1000
0000
0001
0010
0100
1000
,
0001
0000
0010
0000
0100
1000
0100
0010
0001
0000
1000
0000
0001
0010
0100
1000
,
0001
0000
0100
0000
0010
1000
0010
0100
0001
0000
1000
0000
0001
0100
0010
1000
,
0001
0000
0100
0000
0010
1000
0001
1000
0010
0000
0100
0000
0001
1000
0010
0100
,
0001
1000
0100
0010
0001
0100
0010
1000
,
0100
0010
0001
0100
0010
1000
0100
0010
,
0001
0000
0000
0001
0000
0000
0001
0000
,
0001
0000
0000
1000
0100
0000
1000
0000
,
0100
1000
0010
1000
0100
1000
0010
1000
,
0100
1000
0010
1000
0100
1000
0010
1000
,
0100
1000
0001
1000
0100
1000
0001
1000
,
0100
0000
1000
0000
0001
0010
0100
1000
0100
0000
1000
0000
0100
0010
0001
0010
,
0100
1000
0001
1000
0100
1000
0001
1000
,
0100
1000
0001
1000
0100
1000
0001
1000
,
0100
1000
0010
1000
0100
1000
0010
1000
,
0100
0000
1000
0000
0001
0010
0100
1000
0100
0000
0010
0000
0001
1000
0100
0010
,
0100
1000
0010
1000
0100
1000
0010
1000
,
0100
1000
0010
1000
0100
1000
0010
1000
,
0100
1000
0001
1000
0100
1000
0001
1000
,
0100
0000
1000
0000
0001
0010
0100
0010
0001
0000
1000
0000
0100
0010
0001
0010
,
0100
1000
0001
1000
0100
1000
0001
1000
,
0100
1000
0001
1000
0100
1000
0001
1000
,
0010
0100
0000
0100
0010
0000
1000
0001
,
0000
0001
1000
0000
0100
0000
0010
0000
,
0100
1000
0010
1000
0100
1000
0010
1000
,
0100
1000
0010
1000
0100
1000
0010
1000
,
0100
1000
0001
1000
0100
1000
0001
1000
,
0100
0000
1000
0000
0001
0010
0100
1000
0100
0000
1000
0000
0100
0010
0001
0010
,
0100
1000
0001
1000
0100
1000
0001
1000
,
0100
1000
0001
1000
0100
1000
0001
1000
,
0100
1000
0010
1000
0100
1000
0010
1000
,
0100
0000
1000
0000
0001
0010
0100
1000
0100
0000
0010
0000
0001
1000
0100
0010
,
0100
1000
0010
1000
0100
1000
0010
1000
,
0100
1000
0010
1000
0100
1000
0010
1000
,
0100
1000
0001
1000
0100
1000
0001
1000
,
0100
0000
1000
0000
0001
0010
0100
0010
0001
0000
1000
0000
0100
0010
0001
0010
,
0100
1000
0001
1000
0100
1000
0001
1000
,
0100
1000
0001
1000
0100
1000
0001
1000
,
0010
0100
0000
0100
0010
0000
1000
0100
,
0000
0100
1000
0000
0100
0000
0010
0000
,
0001
0010
0001
0010
0001
0010
0001
0010
,
0100
0010
0100
0010
0100
0010
0100
0010
,
0100
1000
0100
1000
0100
1000
0100
1000
,
0001
0000
1000
0000
0001
0100
0010
1000
0001
0000
0100
0000
0010
1000
0001
0100
,
0001
1000
0001
1000
0001
1000
0001
1000
,
0010
0100
0010
0100
0010
0100
0010
0100
,
0001
0100
0001
0100
0001
0100
0001
0100
,
0001
0000
1000
0000
0100
1000
0100
0010
0001
0000
1000
0000
0001
0010
0100
1000
,
0001
0010
0001
0010
0001
0010
0001
0010
,
0100
0010
0100
0010
0100
0010
0100
0010
,
0100
1000
0100
1000
0100
1000
0100
1000
,
0001
0000
1000
0000
0001
0100
0010
1000
0001
0000
0100
0000
0010
1000
0010
0100
,
0001
1000
0001
1000
0001
1000
0001
1000
,
0010
0100
0010
0100
0010
0100
0010
0100
,
0001
1000
0000
1000
0100
0000
0100
0010
,
0000
0010
0001
0000
0100
0000
0010
0000
,
1000
0100
1000
0100
1000
0100
1000
0100
,
0010
0100
0010
0100
0010
0100
0010
0100
,
0010
0001
0010
0001
0010
0001
0010
0001
,
1000
0000
0001
0000
1000
0010
0100
0001
1000
0000
0010
0000
0100
0001
1000
0010
,
1000
0001
1000
0001
1000
0001
1000
0001
,
0100
0010
0100
0010
0100
0010
0100
0010
,
1000
0010
1000
0010
1000
0010
1000
0010
,
1000
0000
0001
0000
0010
0001
0010
0100
1000
0000
0001
0000
1000
0100
0010
0001
,
1000
0100
1000
0100
1000
0100
1000
0100
,
0010
0100
0010
0100
0010
0100
0010
0100
,
0010
0001
0010
0001
0010
0001
0010
0001
,
1000
0000
0001
0000
1000
0010
0100
0001
1000
0000
0010
0000
0100
0001
0100
0010
,
1000
0001
1000
0001
1000
0001
1000
0001
,
0100
0010
0100
0010
0100
0010
0100
0010
,
1000
0001
0000
0001
0010
0000
0010
0100
,
0000
0100
1000
0000
0010
0000
0100
0000
,
1001
0000
0000
0011
,
0000
0000
1100
0000
,
1000
1010
0000
0000
,
0110
0000
0101
0010
,
1001
0000
0000
1100
,
0000
0000
0000
0000
0110
0010
0000
0000
,
0010
1001
0000
0000
,
1100
0000
0011
0110
,
1100
0000
0000
1001
,
0100
0000
0011
1000
,
0101
0000
0110
0000
0000
1000
0000
0000
,
1001
0000
0011
1000
,
0101
0000
0100
1010
,
1001
0000
0101
0000
,
1001
0001
1001
1000
,
0001
0100
0001
0000
1000
0000
0010
0000
0100
0001
0100
0000
0010
0000
1000
0000
,
0001
0000
0100
0000
0010
1000
0010
0100
0001
0000
1000
0000
0010
0100
0001
1000
,
0001
0000
0100
0000
0010
1000
0001
0100
0001
0000
1000
0000
0001
0100
0010
1000
,
0001
0000
1000
0000
0100
1000
0100
0010
0001
0000
1000
0000
0001
0010
0100
1000
,
0001
0000
1000
0000
0100
0010
0001
0010
0100
0000
1000
0000
0100
1000
0100
0010
,
0001
0000
1000
0000
0001
0100
0010
0100
0001
0000
0100
0000
0001
1000
0010
1000
,
0001
0000
0100
0000
0010
1000
0001
0100
0001
0000
1000
0000
0010
0100
0001
1000
,
0001
0000
1000
0000
0100
0010
0001
0010
0100
0000
1000
0000
0100
1000
0100
0010
,
0001
0000
1000
0000
0001
0010
0100
1000
0100
0000
0010
0000
0001
1000
0100
0010
,
0001
0000
1000
0000
0010
0100
0001
1000
0001
0000
0100
0000
0010
1000
0001
0010
,
0001
0000
1000
0000
0010
0100
0001
1000
0010
0000
0100
0000
0001
1000
0010
0100
,
0001
0000
1000
0000
0100
0010
0001
0010
0100
0000
1000
0000
0001
0010
0100
1000
,
0001
0000
0010
0000
0100
1000
0100
0010
0001
0000
1000
0000
0001
0010
0100
1000
,
0001
0000
0100
0000
0010
1000
0010
0100
0001
0000
1000
0000
0001
0100
0010
1000
,
0001
0000
0100
0000
0010
1000
0001
1000
0010
0000
0100
0000
0001
1000
0010
0100
,
0001
0000
1000
0000
0100
0010
0100
1000
0001
0000
1000
0000
0001
0010
0100
0010
,
0001
0000
1000
0000
0100
0010
0001
0010
0100
0000
1000
0000
0001
0010
0100
1000
,
0001
0000
0000
0000
0000
0000
0000
0000
0001
0000
0100
0000
0010
1000
0010
0100
,
0001
0000
1000
0000
0010
0100
0001
1000
0001
0000
0100
0000
0010
1000
0001
0100
,
0001
0000
1000
0000
0001
0100
0010
1000
0001
0000
1000
0000
0100
1000
0100
0010
,
0001
0000
1000
0000
0001
0010
0100
1000
0001
0000
1000
0000
0100
0010
0001
0010
,
0100
0000
1000
0000
0100
1000
0100
0010
0001
0000
1000
0000
0001
0100
0010
0100
,
0001
0000
0100
0000
0001
1000
0010
1000
0001
0000
0100
0000
0010
1000
0001
0100
,
0001
0000
1000
0000
0010
0100
0001
1000
0001
0000
1000
0000
0100
0010
0001
0010
,
0100
0000
1000
0000
0100
1000
0100
0010
0001
0000
1000
0000
0001
0010
0100
1000
,
0100
0000
0010
0000
0001
1000
0100
0010
0001
0000
1000
0000
0010
0100
0001
1000
,
0001
0000
0100
0000
0010
1000
0001
0010
0001
0000
1000
0000
0010
0100
0001
1000
,
0010
0000
0100
0000
0001
1000
0010
0100
0001
0000
1000
0000
0100
0010
0001
0010
,
0100
0000
1000
0000
0001
0010
0100
1000
0001
0000
0010
0000
0100
1000
0100
0010
,
0001
0000
1000
0000
0001
0010
0100
1000
0001
0000
0100
0000
0010
1000
0010
0100
,
0001
0000
1000
0000
0001
0100
0010
1000
0001
0000
0100
0000
0010
1000
0001
1000
,
0010
0000
0100
0000
0001
1000
0010
0100
0001
0000
1000
0000
0001
0010
0100
1000
,
0100
0000
0010
0000
0001
1000
0100
1000
0001
0000
0010
0000
0100
1000
0100
0010
,
0001
0000
1000
0000
0010
1000
0010
0100
0001
0000
1000
0000
0010
0100
0001
1000
,
0001
0000
0100
0000
0010
1000
0001
0100
0001
0000
1000
0000
0001
0100
0010
1000
,
0001
0000
1000
0000
0100
1000
0100
0010
0001
0000
1000
0000
0001
0010
0100
1000
,
0001
0000
1000
0000
0100
0010
0001
0010
0100
0000
1000
0000
0100
1000
0100
0010
,
0001
0000
1000
0000
0001
0100
0010
0100
0001
0000
0100
0000
0001
1000
0010
1000
,
0001
0000
0100
0000
0010
1000
0001
0100
0001
0000
1000
0000
0010
0100
0001
1000
,
0001
0000
1000
0000
0100
0010
0001
0010
0100
0000
1000
0000
0100
1000
0100
0010
,
0001
0000
1000
0000
0001
0010
0100
1000
0100
0000
0010
0000
0001
1000
0100
0010
,
0001
0000
1000
0000
0010
0100
0001
1000
0001
0000
0100
0000
0010
1000
0001
0010
,
0001
0000
1000
0000
0010
0100
0001
1000
0010
0000
0100
0000
0001
1000
0010
0100
,
0001
0000
1000
0000
0100
0010
0001
0010
0100
0000
1000
0000
0001
0010
0100
1000
,
0001
0000
0010
0000
0100
1000
0100
0010
0001
0000
1000
0000
0001
0010
0100
1000
,
0001
0000
0100
0000
0010
1000
0010
0100
0001
0000
1000
0000
0001
0100
0010
1000
,
0001
0000
0100
0000
0010
1000
0001
1000
0010
0000
0100
0000
0001
1000
0010
0100
,
0001
0000
1000
0000
0001
0010
0100
1000
0100
0000
0010
0000
0001
1000
0100
1000
,
0001
0000
0010
0000
0100
1000
0100
0010
0001
0000
1000
0000
0001
0010
0100
1000
,
0001
0100
0010
1000
,
0100
0010
0001
0100
,
0010
0000
1000
0100
0000
0010
0001
0000
,
1000
0010
0100
0000
0001
0000
1000
0000
0100
0000
0000
0000
0000
0000
0000
0000
;
