#TITLE:Crossroad of Sadness;
#SUBTITLE:Ys I (1987);
#ARTIST:S.S.H.;
#TITLETRANSLIT:;
#SUBTITLETRANSLIT:;
#ARTISTTRANSLIT:;
#CREDIT:;
#BANNER:Crossroad of Sadness.png;
#BACKGROUND:Crossroad of Sadness-bg.png;
#LYRICSPATH:;
#CDTITLE:!dondon151.png;
#MUSIC:Crossroad of Sadness.mp3;
#OFFSET:-0.183;
#SAMPLESTART:16.620;
#SAMPLELENGTH:15.500;
#SELECTABLE:YES;
#BPMS:0.000=248.000;
#STOPS:;
#BGCHANGES:;
// cache tags:
#FIRSTBEAT:0.000;
#LASTBEAT:567.000;
#SONGFILENAME:Songs/VGMP 3/Crossroad of Sadness (dondon151)/Crossroad of Sadness.sm;
#HASMUSIC:1;
#HASBANNER:1;
#MUSICLENGTH:140.591;
// end cache tags

//---------------dance-single - ----------------
#NOTES:
     dance-single:
     :
     Hard:
     12:
     1.000,1.000,1.000,0.782,1.000,1124.000,246.000,110.000,0.000,0.000:
0001
0000
0010
0000
0100
0000
1000
0000
0010
0000
0100
0000
0010
0000
1000
0000
0001
0000
0100
0000
0010
0000
0100
0000
0002
0000
0000
0003
0010
0000
0100
0000
,
1000
1000
0011
0000
0101
0010
1001
1000
,
0011
0000
1000
0110
1000
0000
1100
0000
,
1010
1000
0011
0000
0101
0010
1001
1000
,
0011
1000
0010
0000
0000
0000
0110
1000
0100
0000
0000
0000
1100
0000
0000
0000
,
1000
1000
0010
0000
0101
0010
1001
1000
,
0011
0000
1000
0110
1000
0000
1100
0000
,
1010
1000
0110
0000
0101
0010
1001
1000
,
0101
0100
0100
1010
1000
1000
0101
0001
,
1000
1000
0011
1000
0101
0011
1100
1000
,
0101
0000
1000
0000
0100
0000
0010
0000
1000
0100
1000
0000
0101
0000
0000
0000
,
1000
1000
0011
1000
0101
0011
1100
1000
,
0101
0000
1000
0000
0100
0000
0010
0000
1000
0100
1000
0000
0101
0000
0000
0000
,
1000
1000
0011
1000
0101
0011
1100
1000
,
0101
0000
1000
0000
0100
0000
0010
0000
1000
0100
1000
0000
0101
0000
0000
0000
,
1000
1000
0011
1000
0101
0011
1100
1000
,
0101
0000
0000
0000
0100
0000
1010
0000
0000
0000
0001
0000
1000
0010
0100
0010
,
1001
0000
1010
1100
0001
0001
0001
0001
,
1010
0000
0110
0010
1100
0100
0110
0100
,
0011
0000
0000
0000
1000
0000
1000
0000
0010
0000
0010
0000
0010
0000
0010
1000
,
0101
0000
0010
0110
1000
1000
0011
0100
,
1010
0000
1001
1100
0010
0010
0010
0010
,
1001
0000
0101
0001
1010
1000
1001
1000
,
0011
0000
0100
0101
0010
0010
0110
0010
,
0101
0000
0001
1001
0100
0100
0100
0100
,
0012
0000
0000
0000
0000
0000
0000
0000
0010
0000
0000
0000
0000
0000
0000
0000
1000
0000
0000
0000
1000
0000
0003
0000
0012
0000
0000
0000
0000
0000
0000
0003
,
2100
0000
0000
0000
0000
0000
0000
0000
0001
0000
0000
3000
0020
0000
0000
0000
1000
0000
0000
0000
1000
0000
0000
0030
0201
0000
0000
0000
0000
0000
0000
0300
,
0021
0000
0000
0000
0000
0000
0000
0000
0001
0000
0000
0000
0000
0000
0000
0000
0100
0000
0000
0000
0100
0000
0030
0000
0021
0000
0000
0000
0000
0000
0000
0030
,
2100
0000
0000
0000
0000
0000
0000
0000
0001
0000
0000
3000
0020
0000
0000
0000
0100
0000
0000
0000
0100
0000
0000
0030
2001
0000
0000
0000
0000
0000
0000
3000
,
0201
0000
0000
0000
0000
0000
0000
0000
0001
0000
0000
0000
0000
0000
0000
0000
1000
0000
0000
0000
1000
0000
0300
0000
0201
0000
0000
0000
0000
0000
0000
0300
,
1002
0000
0000
0000
0000
0000
0000
0000
0100
0000
0000
0003
0020
0000
0000
0000
1000
0000
0000
0000
1000
0000
0000
0030
0102
0000
0000
0000
0000
0000
0000
0003
,
2010
0000
0000
0000
0010
0000
0000
0000
0010
0000
0000
0000
0000
0000
0000
0000
0010
0000
0000
0000
0010
0000
0000
3000
0200
0000
0000
0000
1000
0000
0000
0300
,
1020
0000
0000
0000
0000
0000
0000
0000
1000
0000
0000
0000
1000
0000
0000
0000
0000
0000
0000
0000
1000
0000
0000
0030
1000
0000
0100
0000
0010
0000
0100
0000
,
0012
0000
0000
0000
0000
0000
0000
0000
0010
0000
0000
0000
0000
0000
0000
0000
1000
0000
0000
0000
1000
0000
0003
0000
0012
0000
0000
0000
0000
0000
0000
0003
,
2100
0000
0000
0000
0000
0000
0000
0000
0001
0000
0000
3000
0020
0000
0000
0000
1000
0000
0000
0000
1000
0000
0000
0030
0201
0000
0000
0000
0000
0000
0000
0300
,
0021
0000
0000
0000
0000
0000
0000
0000
0001
0000
0000
0000
0000
0000
0000
0000
0100
0000
0000
0000
0100
0000
0030
0000
0021
0000
0000
0000
0000
0000
0000
0030
,
2100
0000
0000
0000
0000
0000
0000
0000
0001
0000
0000
3000
0020
0000
0000
0000
0100
0000
0000
0000
0100
0000
0000
0030
2001
0000
0000
0000
0000
0000
0000
3000
,
0201
0000
0000
0000
0000
0000
0000
0000
0001
0000
0000
0000
0000
0000
0000
0000
1000
0000
0000
0000
1000
0000
0300
0000
0201
0000
0000
0000
0000
0000
0000
0300
,
2001
0000
0000
0000
0000
0000
0000
0000
0100
0000
0000
0000
0000
0000
3000
0000
1002
0000
0000
0000
1000
0000
0000
0003
0120
0000
0000
0000
0000
0000
0030
0000
,
0021
0000
0000
0000
0001
0000
0000
0000
0001
0000
0000
0030
0200
0000
0000
0000
0001
0000
0000
0000
0001
0000
0000
0000
0000
0000
0000
0000
0001
0000
0000
0300
,
0001
1000
0001
0000
0010
0000
0010
1000
0100
0000
0100
0000
0010
0100
1000
0100
,
0021
0000
0000
0000
0000
0000
0000
0000
0000
0000
0000
0000
0000
0000
0000
0000
0001
0000
0000
0000
0000
0000
0000
0000
0000
0000
0000
0000
0000
0000
0000
0030
,
0101
0010
0100
1000
0011
0100
0010
0100
,
2001
0000
0000
0000
0000
0000
0000
0000
0001
0000
0000
0000
0000
0000
0000
3000
,
1001
0100
0010
0001
1100
0010
0101
0010
,
0021
0000
0000
0000
0000
0000
0000
0000
0000
0000
0000
0000
0000
0000
0000
0000
0001
0000
0000
0000
0000
0000
0000
0000
0000
0000
0000
0000
0000
0000
0000
0030
,
0101
0010
0100
1000
0011
0100
0010
0100
,
1001
0010
1000
0100
0011
0100
0010
1000
,
0101
0010
0001
0010
0101
1100
0011
0110
,
2001
0000
0000
0000
0001
0000
0000
0000
0001
0000
0000
0000
0000
0000
0000
3000
0201
0000
0000
0000
0001
0000
0000
0000
0000
0000
0000
0000
0001
0000
0000
0300
,
0021
0000
0000
0000
0000
0000
0000
0000
0100
0000
0000
0000
0100
0000
0000
0030
0002
0000
0000
0000
0100
0000
0000
0000
0100
0000
0000
0000
0000
0000
0000
0003
,
2010
0000
0000
0000
0010
0000
0000
0000
0010
0000
0000
0000
0000
0000
0000
3000
0210
0000
0000
0000
0010
0000
0000
0000
0000
0000
0000
0000
0010
0000
0000
0300
,
1020
0000
0000
0000
0000
0000
0000
0000
0000
0000
0000
0000
1000
0000
0000
0030
0002
0000
0000
0000
0000
0000
0000
0000
1000
0000
0000
0000
0000
0000
0003
0000
,
0012
0000
0000
0003
1001
0000
1000
0000
0110
0000
1100
0000
0001
0000
0011
0000
,
0000
1000
0101
0000
1010
1100
0001
0011
,
0000
1000
0101
0000
0110
1100
0001
1000
,
0101
0000
1010
0000
0101
0000
1100
0000
0000
0000
0100
0010
0101
0000
0001
0000
,
1010
0000
1001
1000
0110
1100
0001
0011
,
0000
1000
0101
0000
0110
1100
0001
0101
,
0000
0001
0110
0000
0110
0101
0001
1000
,
0110
0000
1100
0000
0011
0000
0110
0000
0000
0000
0100
0010
1000
0100
0010
0001
,
0120
0000
0000
0000
0000
0000
0000
0000
0001
0000
0000
0000
0000
0000
0000
0030
1000
0000
0000
0000
0100
0000
0000
0000
0011
0000
0000
0000
0100
0000
0000
0000
,
0010
1000
0101
1000
0010
0100
1001
0020
,
0000
0000
0000
0030
0100
0000
0000
0000
1001
0000
0000
0000
0010
0000
0000
0000
0100
0000
0000
0000
0010
0000
0000
0000
1001
0000
0000
0000
0010
0000
0000
0000
,
0100
0010
1001
0010
0100
1000
0101
1000
,
0020
0000
0000
0000
0000
0000
0000
0000
1000
0000
0000
0030
0200
0000
0000
0000
0000
0000
0000
0000
0000
0000
0000
0300
1002
0000
0000
0000
0000
0000
0000
0003
,
0020
0000
0000
0000
0000
0000
0000
0000
1000
0000
0000
0030
0200
0000
0000
0000
0000
0000
0000
0000
0000
0000
0000
0300
1020
0000
0000
0000
0000
0000
0000
0030
,
2000
0000
0000
0000
0000
0000
0000
0000
0001
0000
0000
3000
0020
0000
0000
0000
0000
0000
0000
0000
0000
0000
0000
0030
0201
0000
0000
0000
0000
0000
0000
0300
,
1002
0000
0000
0000
0000
0000
0000
0000
0000
0000
0000
0000
1000
0000
0000
0000
0000
0000
0000
0000
0000
0000
0000
0003
1000
0000
0010
0000
0100
0000
0010
0000
,
1001
0010
1100
0001
0010
1000
0011
0100
,
1000
0010
0101
1000
0100
1000
0110
1000
,
0001
0010
0101
0010
0100
1000
0110
1000
,
0001
1000
0011
0100
0010
1000
0011
0100
,
0001
0010
1100
0010
0100
0001
0110
1000
,
0010
1000
0011
0100
0010
1000
0110
1000
,
0001
0100
1001
0010
1000
0001
1100
0001
,
0110
0000
1000
0000
0010
0000
0101
0000
0010
0000
1000
0000
0011
0100
1000
0100
,
0010
0000
0000
0000
0001
0000
0000
0000
0002
0000
0000
0000
0000
0000
0000
0003
0010
0000
0100
0000
1000
0000
0001
0000
0010
0000
0100
0000
0010
0000
0100
0000
,
1000
0001
0010
0100
1000
0001
0100
0001
0010
0100
1000
0001
0010
0100
0010
0100
,
1000
0100
0010
0100
0010
0001
0010
0001
1000
0001
1000
0100
,
0010
0100
0010
1000
0001
0010
0001
1000
0010
0100
0010
1000
0100
0010
0100
1000
,
0100
0000
0010
0100
0010
0100
0001
0010
0100
1000
0010
0100
0001
0010
0100
1000
,
0100
0010
0001
0010
0100
1000
0010
0100
0010
1000
0100
0010
0001
0010
0001
1000
,
0100
0000
0000
0010
0000
0000
0100
0000
0000
0010
0000
0000
0001
0000
0000
0010
0000
0000
0001
0000
0000
1000
0000
0000
0001
0000
0000
1000
0000
0000
0100
0000
0000
1000
0000
0000
0100
0000
0000
0000
0010
0000
0000
0000
0001
0000
0000
0000
,
0020
0000
0000
0000
0000
0000
0000
0000
0000
0000
0000
0000
0000
0000
0000
0000
0000
0000
0000
0000
0000
0000
0000
0000
0000
0000
0000
0000
0000
0000
0000
0000
0000
0000
0000
0000
0000
0000
0000
0000
0000
0000
0030
0000
0000
0000
0000
0000
0100
0000
0000
0000
0000
0000
0000
0000
0000
0000
0000
0000
0000
0000
0000
0000
0000
0000
0000
0000
0000
0000
0000
0000
0002
0000
0000
0000
0000
0000
0000
0000
0000
0000
0000
0000
0000
0000
0000
0000
0000
0000
0000
0000
0000
0000
0000
0000
0000
0000
0000
0000
0000
0000
0000
0000
0000
0000
0000
0000
0000
0000
0000
0000
0000
0000
0000
0000
0000
0000
0000
0000
0000
0000
0000
0000
0000
0000
0000
0000
0000
0000
0000
0000
0000
0000
0000
0000
0000
0000
0003
0000
0000
0000
0000
0000
1000
0000
0000
0000
0000
0000
0000
0000
0000
0000
0000
0000
0000
0000
0000
0000
0010
0000
0000
0000
0000
0000
0000
0000
0000
0000
0000
0000
0000
0000
0000
0000
0100
0000
0000
0000
0000
0000
0000
0000
0000
0000
0000
0000
0000
0000
0000
0000
,
0010
0100
1000
0010
0100
1000
0010
0100
1000
0010
0100
1000
,
0001
0010
0100
0001
0010
0100
0001
0010
0100
0001
0010
0100
,
1000
0100
0010
1000
0100
0010
1000
0100
0010
1000
0100
0010
,
0001
0010
1000
0001
0010
1000
0001
0010
1000
0001
0010
1000
,
0001
0100
1000
0001
0100
1000
0001
0100
1000
0001
0100
1000
,
0001
0010
0100
0001
0010
0100
0001
0010
0100
0001
0010
0100
,
0001
0000
0000
0010
0000
0000
0100
0000
0001
0000
0010
0000
0100
0000
1000
0000
0001
0000
1000
0000
0001
0000
0010
0000
,
0001
0000
0000
0000
0010
0000
0000
0000
0100
0000
0000
0000
1000
0000
0000
0001
0000
0000
0010
0000
0000
0100
0000
0000
0010
0000
0000
0100
0000
0000
1000
0000
0000
0000
0000
0000
1000
0000
0000
0000
0010
0000
0000
0000
0100
0000
0000
0000
,
0010
0100
1000
0010
0100
1000
0010
0100
1000
0010
0100
1000
,
0001
0010
0100
0001
0010
0100
0001
0010
0100
0001
0010
0100
,
1000
0100
0010
1000
0100
0010
1000
0100
0010
1000
0100
0010
,
0001
0010
1000
0001
0010
1000
0001
0010
1000
0001
0010
1000
,
0001
0100
1000
0001
0100
1000
0001
0100
1000
0001
0100
1000
,
0001
0010
0100
0001
0010
0100
0001
0010
0100
0001
0010
0100
,
0010
0100
1000
0001
0010
0100
0001
0100
0010
1000
0010
0100
,
0001
0010
0100
0000
1000
0000
0100
0010
0001
0000
0100
0000
0010
0100
1000
0100
,
0021
0000
0000
0000
0000
0000
0000
0000
0000
0000
0000
0000
0000
0000
0000
0000
0001
0000
0000
0000
0000
0000
0000
0000
0000
0000
0000
0000
0000
0000
0000
0030
,
0101
0010
0100
1000
0011
0100
0010
0100
,
2001
0000
0000
0000
0000
0000
0000
0000
0001
0000
0000
0000
0000
0000
0000
3000
,
1001
0100
0010
0001
1100
0010
0101
0010
,
0021
0000
0000
0000
0000
0000
0000
0000
0000
0000
0000
0000
0000
0000
0000
0000
0001
0000
0000
0000
0000
0000
0000
0000
0000
0000
0000
0000
0000
0000
0000
0030
,
0101
0010
0100
1000
0011
0100
0010
0100
,
1001
0010
1000
0100
0011
0100
0010
1000
,
0101
0010
0001
0010
0101
1100
0011
0110
,
2001
0000
0000
0000
0001
0000
0000
0000
0001
0000
0000
0000
0000
0000
0000
3000
0201
0000
0000
0000
0001
0000
0000
0000
0000
0000
0000
0000
0001
0000
0000
0300
,
0021
0000
0000
0000
0000
0000
0000
0000
0100
0000
0000
0000
0100
0000
0000
0030
0002
0000
0000
0000
0100
0000
0000
0000
0100
0000
0000
0000
0000
0000
0000
0003
,
2010
0000
0000
0000
0010
0000
0000
0000
0010
0000
0000
0000
0000
0000
0000
3000
0210
0000
0000
0000
0010
0000
0000
0000
0000
0000
0000
0000
0010
0000
0000
0300
,
1020
0000
0000
0000
0000
0000
0000
0000
0000
0000
0000
0000
0000
0000
0000
0000
0000
0000
0000
0000
0000
0000
0000
0000
0000
0000
0000
0000
0000
0000
0000
0000
0000
0000
0000
0000
0000
0000
0000
0000
0000
0000
0000
0000
0000
0000
0000
0000
0000
0000
0000
0000
0000
0000
0000
0000
0000
0000
0000
0000
0000
0000
0000
0000
0000
0000
0000
0000
0000
0000
0000
0000
1000
0000
0000
0000
0000
0000
0000
0000
0000
0000
0000
0000
0000
0000
0000
0000
0000
0000
0030
0000
0000
0000
0000
0000
0200
0000
0000
0000
0000
0000
0000
0000
0000
0000
0000
0000
0000
0000
0000
0000
0000
0000
0000
0000
0000
0000
0000
0000
0000
0000
0000
0000
0000
0000
0000
0000
0000
0000
0000
0000
0000
0000
0000
0000
0000
0000
0300
0000
0000
0000
0000
0000
1000
0000
0000
0000
0000
0000
0000
0000
0000
0000
0000
0000
0000
0000
0000
0000
0010
0000
0000
0000
0000
0000
0000
0000
0000
0000
0000
0000
0000
0000
0000
0000
1000
0000
0000
0000
0000
0000
0000
0000
0000
0000
0000
0000
0000
0000
0000
0000
,
0012
0000
0000
0000
0000
0000
0000
0000
0100
0000
0000
0000
0000
0000
0000
0000
0100
0000
0000
0000
0000
0000
0003
0000
0102
0000
0000
0000
0000
0000
0000
0003
,
2100
0000
0000
0000
0000
0000
0000
0000
0001
0000
0000
3000
0120
0000
0000
0000
0001
0000
0000
0000
0000
0000
0000
0030
0201
0000
0000
0000
0000
0000
0000
0300
,
0021
0000
0000
0000
0000
0000
0000
0000
0100
0000
0000
0000
0000
0000
0000
0000
0100
0000
0000
0000
0000
0000
0030
0000
0021
0000
0000
0000
0001
0000
0000
0030
,
2100
0000
0000
0000
0010
0000
0000
0000
0100
0000
0000
3000
0021
0000
0000
0000
0100
0000
0000
0000
0000
0000
0000
0030
2100
0000
0000
0000
0000
0000
0000
3000
,
0210
0000
0000
0000
0000
0000
0000
0000
0010
0000
0000
0000
0000
0000
0000
0000
0010
0000
0000
0000
0000
0000
0300
0000
0220
0030
0000
0000
0000
0000
0000
0300
,
1002
0000
0000
0000
0000
0000
0000
0000
0000
0000
0000
0000
0000
0000
0000
0000
0000
0000
0000
0000
0000
0000
0000
0000
0000
0000
0000
0000
0000
0000
0000
0000
0000
0000
0000
0000
0000
0000
0000
0000
0000
0000
0000
0000
0000
0000
0000
0000
0000
0000
0000
0000
0000
0000
0000
0000
0000
0000
0000
0000
0000
0000
0000
0000
0000
0000
0003
0000
0000
0000
0000
0000
0120
0000
0000
0000
0000
0000
0000
0000
0000
0000
0000
0000
0000
0000
0000
0000
0000
0000
0000
0000
0000
0000
0000
0000
0000
0000
0000
0000
0000
0000
0000
0000
0000
0000
0000
0000
0000
0000
0000
0000
0000
0000
0000
0000
0000
0000
0000
0000
0000
0000
0000
0000
0000
0000
0000
0000
0000
0000
0000
0000
0000
0000
0000
0000
0000
0000
0030
0000
0000
0000
0000
0000
0101
0000
0000
0000
0000
0000
0000
0000
0000
0000
0000
0000
0000
0000
0000
0000
0010
0000
0000
0000
0000
0000
0000
0000
0000
0000
0000
0000
0000
0000
0000
0000
0100
0000
0000
0000
0000
0000
0000
0000
0000
0000
0000
0000
0000
0000
0000
0000
,
2010
0000
0000
0000
0000
0000
0000
0000
0010
0000
0000
0000
0000
0000
0000
0000
0010
0000
0000
0000
0000
0000
0000
3000
0101
0000
0010
0000
0001
0000
0000
0000
,
1010
0000
0100
1000
0100
0000
0100
0000
0100
0000
0100
0000
1000
0100
0010
0100
,
0012
0000
0000
0000
0000
0000
0000
0000
0010
0000
0000
0000
0000
0000
0000
0000
1000
0000
0000
0000
1000
0000
0003
0000
0012
0000
0000
0000
0000
0000
0000
0003
,
2100
0000
0000
0000
0000
0000
0000
0000
0001
0000
0000
3000
0020
0000
0000
0000
1000
0000
0000
0000
1000
0000
0000
0030
0201
0000
0000
0000
0000
0000
0000
0300
,
0021
0000
0000
0000
0000
0000
0000
0000
0001
0000
0000
0000
0000
0000
0000
0000
0100
0000
0000
0000
0100
0000
0030
0000
0021
0000
0000
0000
0000
0000
0000
0030
,
2100
0000
0000
0000
0000
0000
0000
0000
0001
0000
0000
3000
0020
0000
0000
0000
0100
0000
0000
0000
0100
0000
0000
0030
2001
0000
0000
0000
0000
0000
0000
3000
,
0201
0000
0000
0000
0000
0000
0000
0000
0001
0000
0000
0000
0000
0000
0000
0000
1000
0000
0000
0000
1000
0000
0300
0000
0201
0000
0000
0000
0000
0000
0000
0300
,
2001
0000
0000
0000
0000
0000
0000
0000
0100
0000
0000
0000
0000
0000
3000
0000
1002
0000
0000
0000
1000
0000
0000
0003
0120
0000
0000
0000
0000
0000
0030
0000
,
0021
0000
0000
0000
0001
0000
0000
0000
0001
0000
0000
0030
0200
0000
0000
0000
0001
0000
0000
0000
0001
0000
0000
0000
0001
0000
0000
0000
0000
0000
0000
0300
,
0001
0000
0000
1000
0000
0000
0001
0000
0000
0000
0000
0000
0010
0000
0000
0000
0000
0000
0010
0000
0000
1000
0000
0000
0100
0000
0000
0000
0000
0000
0100
0000
0000
0000
0000
0000
1000
0000
0000
0000
0100
0000
0000
0000
0010
0000
0000
0000
,
0002
0000
0000
0000
0000
0000
0000
0000
0100
0000
0000
0000
0000
0000
0000
0000
0000
0000
0000
0000
0000
0000
0000
0000
0100
0000
0000
0000
0000
0000
0000
0003
,
0010
0100
1000
0100
1000
0001
1000
0001
0010
0001
0010
0100
,
0010
0100
1000
0100
1000
0001
1000
0001
0010
0001
0010
0100
,
1000
0100
0010
0001
0010
0100
0001
0010
0100
1000
0010
0100
,
0010
0001
1000
0001
1000
0100
1000
0100
0010
0100
0010
0001
,
1000
0100
0010
0001
0010
0100
0001
0100
1000
0010
0100
0010
,
1000
0001
0010
0001
0010
0100
1000
0100
0010
1000
0100
0010
,
0100
0000
0000
0000
0010
0000
0000
0000
0001
0000
0000
0000
0100
0000
0000
0010
0000
0000
0001
0000
0000
0010
0000
0000
0100
0000
0000
1000
0000
0000
0010
0000
0000
0100
0000
0000
0001
0000
0000
0010
0000
0000
0100
0000
0000
1000
0000
0000
,
0100
0010
0100
1000
0001
1000
0001
0010
0001
0010
0100
1000
0001
1000
0100
0010
,
0001
0000
0000
0000
0010
0000
0000
0000
0100
0000
0000
0000
0001
0000
0000
0100
0000
0000
0010
0000
0000
0000
0100
0000
0000
0000
1000
0000
0000
0000
0010
0000
0000
1000
0000
0000
0100
0000
0000
0000
0010
0000
0000
0000
0100
0000
0000
0000
,
1001
0000
0100
0000
0010
0000
0101
0000
0010
0000
0101
1000
0100
0010
0100
0010
,
2002
0000
0000
0000
,
0000
0000
0000
0000
0000
0000
0000
0000
0000
0000
0000
0000
0000
0000
0000
0000
0000
0000
0000
3003
0100
0000
1000
0000
0011
0000
0000
0000
0000
0000
0000
0000
;

//---------------dance-single - Copied from----------------
#NOTES:
     dance-single:
     Copied from:
     Challenge:
     13:
     1.000,1.000,1.000,0.811,1.000,1192.000,302.000,114.000,0.000,67.000:
0001
0000
0010
0000
0100
0000
1000
0000
0010
0000
0100
0000
0010
0000
1000
0000
0001
0000
0100
0000
0010
0000
0100
0000
1002
0000
0000
0000
0010
0000
0100
0003
,
1000
1000
0011
0000
0101
0010
1001
1000
,
0111
0000
1000
0110
1000
0000
1101
0000
,
1010
1000
0011
0000
0101
0010
1001
1000
,
0011
1000
0010
0000
0000
0000
0110
1000
0100
0000
0000
0000
1101
0000
0000
0000
,
1000
1000
0010
0000
0101
0010
1001
1000
,
0111
0000
1000
0110
1000
0000
1101
0000
,
1010
1000
0110
0000
0101
0010
1001
1000
,
0101
0100
0100
1010
1000
1000
0101
0001
,
1000
1000
0011
1000
0101
0011
1100
1000
,
0101
0000
1000
0000
0100
0000
0010
0000
1000
0100
1000
0000
0101
0000
0000
0000
,
1000
1000
0011
1000
0101
0011
1100
1000
,
0101
0000
1000
0000
0100
0000
0010
0000
1000
0100
1000
0000
0101
0000
0000
0000
,
1000
1000
0011
1000
0101
0011
1100
1000
,
0101
0000
1000
0000
0100
0000
0010
0000
1000
0100
1000
0000
0101
0000
0000
0000
,
1000
1000
0011
1000
0101
0011
1100
1000
,
0101
0000
0000
0000
0100
0000
1010
0000
0000
0000
0001
0000
1100
0010
0100
0010
,
1001
0000
1010
1100
0001
0001
0001
0001
,
1110
0000
0110
0010
1100
0100
0110
0100
,
1011
0000
0000
0000
1000
0000
1000
0000
0010
0000
0010
0000
0010
0000
0010
1000
,
0111
0000
0010
0110
1000
1000
0011
0100
,
1011
0000
1001
1100
0010
0010
0010
0010
,
1101
0000
0101
0001
1010
1000
1001
1000
,
0111
0000
0100
0101
0010
0010
0110
0010
,
1101
0000
0001
1001
0100
0100
0100
0100
,
1012
0000
0000
0000
0000
0000
0000
0000
0010
0000
0000
0000
0000
0000
0000
0000
1000
0000
0000
0000
1000
0000
0003
0000
0012
0000
0000
0000
0100
0000
0000
0003
,
2110
0000
0000
0000
0000
0000
0000
0000
0001
0000
0000
3000
0020
0000
0000
0000
1000
0000
0000
0000
1000
0000
0000
0030
0201
0000
0000
0000
0000
0000
0000
0300
,
1021
0000
0000
0000
0000
0000
0000
0000
0001
0000
0000
0000
0000
0000
0000
0000
0100
0000
0000
0000
0100
0000
0030
0000
0021
0000
0000
0000
0100
0000
0000
0030
,
2101
0000
0000
0000
0000
0000
0000
0000
0001
0000
0000
3000
0020
0000
0000
0000
0100
0000
0000
0000
0100
0000
0000
0030
2001
0000
0000
0000
0000
0000
0000
3000
,
0211
0000
0000
0000
0000
0000
0000
0000
0001
0000
0000
0000
0000
0000
0000
0000
1000
0000
0000
0000
1000
0000
0300
0000
0201
0000
0000
0000
0010
0000
0000
0300
,
1012
0000
0000
0000
0000
0000
0000
0000
0100
0000
0000
0003
0020
0000
0000
0000
1000
0000
0000
0000
1000
0000
0000
0030
0102
0000
0000
0000
0000
0000
0000
0003
,
2110
0000
0000
0000
0010
0000
0000
0000
0011
0000
0000
0000
0000
0000
0000
0000
0010
0000
0000
0000
0010
0000
0000
3000
0201
0000
0000
0000
1000
0000
0000
0300
,
1021
0000
0000
0000
0000
0000
0000
0000
1000
0000
0000
0000
1001
0000
0000
0000
0000
0000
0000
0000
1000
0000
0000
0030
1001
0000
0100
0000
0010
0000
0100
0000
,
1012
0000
0000
0000
0000
0000
0000
0000
0010
0000
0000
0000
0000
0000
0000
0000
1000
0000
0000
0000
1000
0000
0003
0000
0012
0000
0000
0000
0100
0000
0000
0003
,
2110
0000
0000
0000
0000
0000
0000
0000
0001
0000
0000
3000
0020
0000
0000
0000
1000
0000
0000
0000
1000
0000
0000
0030
0201
0000
0000
0000
0000
0000
0000
0300
,
1021
0000
0000
0000
0000
0000
0000
0000
0001
0000
0000
0000
0000
0000
0000
0000
0100
0000
0000
0000
0100
0000
0030
0000
0021
0000
0000
0000
0100
0000
0000
0030
,
2101
0000
0000
0000
0000
0000
0000
0000
0001
0000
0000
3000
0020
0000
0000
0000
0100
0000
0000
0000
0100
0000
0000
0030
2001
0000
0000
0000
0000
0000
0000
3000
,
0211
0000
0000
0000
0000
0000
0000
0000
0001
0000
0000
0000
0000
0000
0000
0000
1000
0000
0000
0000
1000
0000
0300
0000
0201
0000
0000
0000
0010
0000
0000
0300
,
2011
0000
0000
0000
0000
0000
0000
0000
0100
0000
0000
0000
0010
0000
3000
0000
1002
0000
0000
0000
1000
0000
0000
0003
0120
0000
0000
0000
0000
0000
0030
0000
,
1021
0000
0000
0000
0001
0000
0000
0000
1001
0000
0000
0030
0200
0000
0000
0000
0001
0000
0000
0000
0001
0000
0000
0000
1000
0000
0000
0000
0001
0000
0000
0300
,
0001
1000
0001
0000
0010
0000
0010
1000
0100
0000
0100
0000
0010
0100
1000
0100
,
0021
0000
0000
0000
1000
0000
0000
0000
0001
0000
0000
0000
1000
0000
0000
0000
0101
0000
0000
0000
1000
0000
0000
0000
0001
0000
0000
0000
1000
0000
0000
0030
,
0101
0010
0100
1000
0011
0100
0010
0100
,
2001
0000
0100
0000
0001
0000
0100
0000
0011
0000
0100
0000
0001
0000
0100
3000
,
1001
0100
0010
0001
1100
0010
0101
0010
,
0021
0000
0000
0000
1000
0000
0000
0000
0001
0000
0000
0000
1000
0000
0000
0000
0101
0000
0000
0000
1000
0000
0000
0000
0001
0000
0000
0000
1000
0000
0000
0030
,
0101
0010
0100
1000
0011
0100
0010
0100
,
1001
0010
1000
0100
0011
0100
0010
1000
,
0101
0010
0001
0010
0101
1100
0011
0110
,
2001
0000
0000
0000
0001
0000
0000
0000
0011
0000
0000
0000
0000
0000
0000
3000
0201
0000
0000
0000
0001
0000
0000
0000
0010
0000
0000
0000
0001
0000
0000
0300
,
0021
0000
0000
0000
0000
0000
0000
0000
1100
0000
0000
0000
0100
0000
0000
0030
0002
0000
0000
0000
0100
0000
0000
0000
1100
0000
0000
0000
0000
0000
0000
0003
,
2010
0000
0000
0000
0010
0000
0000
0000
0011
0000
0000
0000
0000
0000
0000
3000
0210
0000
0000
0000
0010
0000
0000
0000
0001
0000
0000
0000
0010
0000
0000
0300
,
1020
0000
0000
0000
0000
0000
0000
0000
0000
0000
0000
0000
1000
0000
0000
0030
0002
0000
0000
0000
0000
0000
0000
0000
1000
0000
0000
0000
0000
0000
0003
0000
,
0012
0000
0000
0000
0000
0000
0000
0000
1100
0000
0000
0000
0100
0000
0000
0000
1010
0000
0000
0000
1100
0000
0000
0000
1000
0000
0000
0000
0110
0000
0000
0003
,
0000
1000
0101
0000
1010
1100
0001
0011
,
0000
1000
0101
0000
0110
1100
0001
1000
,
0101
0000
1010
0000
0101
0000
1100
0000
0000
0000
0100
0010
0101
0000
0001
0000
,
1010
0000
1001
1000
0110
1100
0001
0011
,
0000
1000
0101
0000
0110
1100
0001
0101
,
0000
0001
0110
0000
0110
0101
0001
1000
,
0110
0000
1100
0000
0011
0000
0110
0000
0000
0000
0100
0010
1001
0100
0010
0001
,
0120
0000
0000
0000
0000
0000
0000
0000
0001
0000
0000
0000
0000
0000
0000
0030
1000
0000
0000
0000
0100
0000
0000
0000
0011
0000
0000
0000
0100
0000
0000
0000
,
0010
1000
0101
1000
0010
0100
1001
0020
,
0000
0000
0000
0030
0100
0000
0000
0000
1001
0000
0000
0000
0010
0000
0000
0000
0100
0000
0000
0000
0010
0000
0000
0000
1001
0000
0000
0000
0010
0000
0000
0000
,
0100
0010
1001
0010
0100
1000
0101
1000
,
0021
0000
0000
0000
0000
0000
0000
0000
0001
0000
0000
0030
0200
0000
0000
0000
1000
0000
0000
0000
1000
0000
0000
0300
0012
0000
0000
0000
0100
0000
0000
0003
,
1020
0000
0000
0000
0100
0000
0000
0000
0001
0000
0000
0030
0200
0000
0000
0000
1000
0000
0000
0000
1000
0000
0000
0300
0021
0000
0000
0000
0100
0000
0000
0030
,
2001
0000
0000
0000
0100
0000
0000
0000
0001
0000
0000
3000
0020
0000
0000
0000
1000
0000
0000
0000
1000
0000
0000
0030
0201
0000
0000
0000
0010
0000
0000
0300
,
1002
0000
0000
0000
0100
0000
0000
0000
0010
0000
0000
0000
1100
0000
0000
0000
0000
0000
0000
0000
0010
0000
0000
0003
1100
0000
0010
0000
0100
0000
0010
0000
,
1001
0010
1100
0001
0010
1000
0011
0100
,
1000
0010
0101
1000
0100
1000
0110
1000
,
0001
0010
0101
0010
0100
1000
0110
1000
,
0001
1000
0011
0100
0010
1000
0011
0100
,
0001
0010
1100
0010
0100
0001
0110
1000
,
0010
1000
0011
0100
0010
1000
0110
1000
,
0001
0100
1001
0010
1000
0001
1100
0001
,
0110
0000
1000
0000
0010
0000
0101
0000
0010
0000
1000
0000
0011
0100
1000
0100
,
0010
0000
0000
0000
0001
0000
0000
0000
0002
0000
0000
0000
0000
0000
0000
0003
0010
0000
0100
0000
1000
0000
0001
0000
0010
0000
0100
0000
0010
0000
0100
0000
,
1010
0001
0010
0100
1000
0001
0100
0001
0010
0100
1000
0001
0010
0100
0010
0100
,
1001
0100
0010
0100
0010
0001
0010
0001
1000
0001
1000
0100
,
0011
0100
0010
1000
0001
0010
0001
1000
0010
0100
0010
1000
0100
0010
0100
1000
,
0101
0000
0010
0100
0010
0100
0001
0010
0100
1000
0010
0100
0001
0010
0100
0001
,
1100
0010
0001
0010
0100
1000
0010
0100
0010
1000
0100
0010
0001
0010
0001
1000
,
0101
0000
0000
0010
0000
0000
0100
0000
0000
0010
0000
0000
0001
0000
0000
0010
0000
0000
0001
0000
0000
1000
0000
0000
0001
0000
0000
1000
0000
0000
0100
0000
0000
1000
0000
0000
0100
0000
0000
0000
0010
0000
0000
0000
0001
0000
0000
0000
,
1020
0000
0000
0000
0000
0000
0000
0000
0000
0000
0000
0000
0000
0000
0000
0000
0000
0000
0000
0000
0000
0000
0000
0000
0000
0000
0000
0000
0000
0000
0000
0000
0000
0000
0000
0000
0000
0000
0000
0000
0000
0000
0030
0000
0000
0000
0000
0000
0100
0000
0000
0000
0000
0000
0000
0000
0000
0000
0000
0000
0000
0000
0000
0000
0000
0000
0000
0000
0000
0000
0000
0000
0002
0000
0000
0000
0000
0000
0000
0000
0000
0000
0000
0000
0000
0000
0000
0000
0000
0000
0000
0000
0000
0000
0000
0000
0000
0000
0000
0000
0000
0000
0000
0000
0000
0000
0000
0000
0000
0000
0000
0000
0000
0000
0000
0000
0000
0000
0000
0000
0000
0000
0000
0000
0000
0000
0000
0000
0000
0000
0000
0000
0000
0000
0000
0000
0000
0000
0000
0000
0000
0000
0000
0000
1000
0000
0000
0000
0000
0000
0000
0000
0000
0000
0000
0000
0000
0000
0000
0000
0010
0000
0000
0000
0000
0000
0000
0000
0000
0000
0000
0000
0000
0000
0000
0000
0100
0000
0000
0000
0000
0000
0000
0000
0003
0000
0000
0000
0000
0000
0000
0000
,
0011
0100
1000
0010
0100
1000
0010
0100
1000
0010
0100
1000
,
0101
0010
0100
0001
0010
0100
0001
0010
0100
0001
0010
0100
,
1001
0100
0010
1000
0100
0010
1000
0100
0010
1000
0100
0010
,
0101
0010
1000
0001
0010
1000
0001
0010
1000
0001
0010
1000
,
0011
0100
1000
0001
0100
1000
0001
0100
1000
0001
0100
1000
,
0101
0010
0100
0001
0010
0100
0001
0010
0100
0001
0010
0100
,
1001
0000
0000
0010
0000
0000
0100
0000
0001
0000
0010
0000
0100
0000
1000
0000
0001
0000
1000
0000
0001
0000
0010
0000
,
1100
0000
0000
0000
0010
0000
0000
0000
0100
0000
0000
0000
1000
0000
0000
0001
0000
0000
1010
0000
0000
0100
0000
0000
0010
0000
0000
0100
0000
0000
1000
0000
0000
0000
0000
0000
1001
0000
0000
0000
0010
0000
0000
0000
0100
0000
0000
0000
,
0011
0100
1000
0010
0100
1000
0010
0100
1000
0010
0100
1000
,
0101
0010
0100
0001
0010
0100
0001
0010
0100
0001
0010
0100
,
1001
0100
0010
1000
0100
0010
1000
0100
0010
1000
0100
0010
,
0101
0010
1000
0001
0010
1000
0001
0010
1000
0001
0010
1000
,
0011
0100
1000
0001
0100
1000
0001
0100
1000
0001
0100
1000
,
0101
0010
0100
0001
0010
0100
0001
0010
0100
0001
0010
0100
,
1010
0100
1000
0001
0010
0100
0001
0100
0010
1000
0010
0100
,
0012
0000
0100
0000
1000
0000
0000
0000
0010
0000
0000
0000
1000
0000
0100
0000
0010
0000
0000
0000
0100
0000
0000
0000
0010
0000
0100
0003
1000
0000
0100
0000
,
0021
0000
0000
0000
1000
0000
0000
0000
0001
0000
0000
0000
1000
0000
0000
0000
0101
0000
0000
0000
1000
0000
0000
0000
0001
0000
0000
0000
1000
0000
0000
0030
,
0101
0010
0100
1000
0011
0100
0010
0100
,
2001
0000
0100
0000
0001
0000
0100
0000
0011
0000
0100
0000
0001
0000
0100
3000
,
1001
0100
0010
0001
1100
0010
0101
0010
,
0021
0000
0000
0000
1000
0000
0000
0000
0001
0000
0000
0000
1000
0000
0000
0000
0101
0000
0000
0000
1000
0000
0000
0000
0001
0000
0000
0000
1000
0000
0000
0030
,
0101
0010
0100
1000
0011
0100
0010
0100
,
1001
0010
1000
0100
0011
0100
0010
1000
,
0101
0010
0001
0010
0101
1100
0011
0110
,
2001
0000
0000
0000
0001
0000
0000
0000
0011
0000
0000
0000
0000
0000
0000
3000
0201
0000
0000
0000
0001
0000
0000
0000
0010
0000
0000
0000
0001
0000
0000
0300
,
0021
0000
0000
0000
0000
0000
0000
0000
1100
0000
0000
0000
0100
0000
0000
0030
0002
0000
0000
0000
0100
0000
0000
0000
1100
0000
0000
0000
0000
0000
0000
0003
,
2010
0000
0000
0000
0010
0000
0000
0000
0011
0000
0000
0000
0000
0000
0000
3000
0210
0000
0000
0000
0010
0000
0000
0000
0001
0000
0000
0000
0010
0000
0000
0300
,
1020
0000
0000
0000
0000
0000
0000
0000
0000
0000
0000
0000
0000
0000
0000
0000
0000
0000
0000
0000
0000
0000
0000
0000
0000
0000
0000
0000
0000
0000
0000
0000
0000
0000
0000
0000
0000
0000
0000
0000
0000
0000
0000
0000
0000
0000
0000
0000
0000
0000
0000
0000
0000
0000
0000
0000
0000
0000
0000
0000
0000
0000
0000
0000
0000
0000
0000
0000
0000
0000
0000
0000
1000
0000
0000
0000
0000
0000
0000
0000
0000
0000
0000
0000
0000
0000
0000
0000
0000
0000
0030
0000
0000
0000
0000
0000
0200
0000
0000
0000
0000
0000
0000
0000
0000
0000
0000
0000
0000
0000
0000
0000
0000
0000
0000
0000
0000
0000
0000
0000
0000
0000
0000
0000
0000
0000
0000
0000
0000
0000
0000
0000
0000
0000
0000
0000
0000
0000
0000
0000
0000
0000
0000
0000
1000
0000
0000
0000
0000
0000
0000
0000
0000
0000
0000
0000
0000
0000
0000
0000
0010
0000
0000
0000
0000
0000
0000
0000
0000
0000
0000
0000
0000
0000
0000
0000
1000
0000
0000
0000
0000
0000
0000
0000
0000
0000
0300
0000
0000
0000
0000
0000
,
0012
0000
0000
0000
0000
0000
0000
0000
0100
0000
0000
0000
0000
0000
0000
0000
0100
0000
0000
0000
0000
0000
0003
0000
0102
0000
0000
0000
0000
0000
0000
0003
,
2110
0000
0000
0000
0000
0000
0000
0000
0001
0000
0000
3000
0120
0000
0000
0000
0001
0000
0000
0000
0000
0000
0000
0030
1201
0000
0000
0000
0000
0000
0000
0300
,
1021
0000
0000
0000
0000
0000
0000
0000
0100
0000
0000
0000
0000
0000
0000
0000
0100
0000
0000
0000
0000
0000
0030
0000
0121
0000
0000
0000
0001
0000
0000
0030
,
2101
0000
0000
0000
0010
0000
0000
0000
0100
0000
0000
3000
0021
0000
0000
0000
0100
0000
0000
0000
0000
0000
0000
0030
2101
0000
0000
0000
0000
0000
0000
3000
,
0211
0000
0000
0000
0000
0000
0000
0000
0010
0000
0000
0000
0000
0000
0000
0000
0010
0000
0000
0000
0000
0000
0300
0000
0220
0030
0000
0000
0000
0000
0000
0300
,
1012
0000
0000
0000
0000
0000
0000
0000
0000
0000
0000
0000
0000
0000
0000
0000
0000
0000
0000
0000
0000
0000
0000
0000
0000
0000
0000
0000
0000
0000
0000
0000
0000
0000
0000
0000
0000
0000
0000
0000
0000
0000
0000
0000
0000
0000
0000
0000
0000
0000
0000
0000
0000
0000
0000
0000
0000
0000
0000
0000
0000
0000
0000
0000
0000
0000
0003
0000
0000
0000
0000
0000
0120
0000
0000
0000
0000
0000
0000
0000
0000
0000
0000
0000
0000
0000
0000
0000
0000
0000
0000
0000
0000
0000
0000
0000
0000
0000
0000
0000
0000
0000
0000
0000
0000
0000
0000
0000
0000
0000
0000
0000
0000
0000
0000
0000
0000
0000
0000
0000
0000
0000
0000
0000
0000
0000
0000
0000
0000
0000
0000
0000
0000
0000
0000
0000
0000
0000
0030
0000
0000
0000
0000
0000
0102
0000
0000
0000
0000
0000
0000
0000
0000
0000
0000
0000
0000
0000
0000
0000
0010
0000
0000
0000
0000
0000
0000
0000
0000
0000
0000
0000
0000
0000
0000
0000
0100
0000
0000
0000
0000
0000
0000
0000
0003
0000
0000
0000
0000
0000
0000
0000
,
2011
0000
0000
0000
0000
0000
0000
0000
0010
0000
0000
0000
0000
0000
0000
0000
0010
0000
0000
0000
0000
0000
0000
3000
0201
0000
0010
0000
0001
0000
0000
0300
,
1020
0000
0000
0000
0100
0000
1000
0000
0100
0000
0000
0000
0100
0000
0000
0000
0100
0000
0000
0000
0100
0000
0000
0030
1001
0000
0100
0000
0010
0000
0100
0000
,
1012
0000
0000
0000
0000
0000
0000
0000
0010
0000
0000
0000
0000
0000
0000
0000
1000
0000
0000
0000
1000
0000
0003
0000
0012
0000
0000
0000
0100
0000
0000
0003
,
2110
0000
0000
0000
0000
0000
0000
0000
0001
0000
0000
3000
0020
0000
0000
0000
1000
0000
0000
0000
1000
0000
0000
0030
0201
0000
0000
0000
0000
0000
0000
0300
,
1021
0000
0000
0000
0000
0000
0000
0000
0001
0000
0000
0000
0000
0000
0000
0000
0100
0000
0000
0000
0100
0000
0030
0000
0021
0000
0000
0000
0100
0000
0000
0030
,
2101
0000
0000
0000
0000
0000
0000
0000
0001
0000
0000
3000
0020
0000
0000
0000
0100
0000
0000
0000
0100
0000
0000
0030
2001
0000
0000
0000
0000
0000
0000
3000
,
0211
0000
0000
0000
0000
0000
0000
0000
0001
0000
0000
0000
0000
0000
0000
0000
1000
0000
0000
0000
1000
0000
0300
0000
0201
0000
0000
0000
0010
0000
0000
0300
,
2011
0000
0000
0000
0000
0000
0000
0000
0100
0000
0000
0000
0010
0000
3000
0000
1002
0000
0000
0000
1000
0000
0000
0003
0120
0000
0000
0000
0000
0000
0030
0000
,
1021
0000
0000
0000
0001
0000
0000
0000
1001
0000
0000
0030
0200
0000
0000
0000
0001
0000
0000
0000
0001
0000
0000
0000
1001
0000
0000
0000
0000
0000
0000
0300
,
0001
0000
0000
1000
0000
0000
0001
0000
0000
0000
0000
0000
0010
0000
0000
0000
0000
0000
0010
0000
0000
1000
0000
0000
0100
0000
0000
0000
0000
0000
0100
0000
0000
0000
0000
0000
1000
0000
0000
0000
0100
0000
0000
0000
0010
0000
0000
0000
,
1002
0000
0000
0000
0000
0000
0000
0000
0010
0000
0000
0000
0000
0000
0000
0000
0100
0000
0000
0000
0100
0000
0000
0000
0010
0000
0000
0000
0000
0000
0000
0003
,
0010
0100
1000
0100
1000
0001
1000
0001
0010
0001
0010
0100
,
0010
0100
1000
0100
1000
0001
1000
0001
0010
0001
0010
0100
,
1000
0100
0010
0001
0010
0100
0001
0010
0100
1000
0010
0100
,
0010
0001
1000
0001
1000
0100
1000
0100
0010
0100
0010
0001
,
1000
0100
0010
0001
0010
0100
0001
0100
1000
0010
0100
1000
,
0100
0001
0010
0001
0010
0100
1000
0100
0010
1000
0100
0010
,
0100
0000
0000
0000
0010
0000
0000
0000
0001
0000
0000
0000
0100
0000
0000
0010
0000
0000
0001
0000
0000
0010
0000
0000
0100
0000
0000
1000
0000
0000
0010
0000
0000
0100
0000
0000
0001
0000
0000
0010
0000
0000
0100
0000
0000
1000
0000
0000
,
0100
0010
0100
1000
0001
1000
0001
0010
0001
0010
0100
1000
0001
1000
0100
0010
,
0001
0000
0000
0000
0010
0000
0000
0000
0100
0000
0000
0000
0001
0000
0000
0100
0000
0000
0010
0000
0000
0000
0100
0000
0000
0000
1000
0000
0000
0000
0010
0000
0000
1000
0000
0000
0100
0000
0000
0000
0010
0000
0000
0000
0100
0000
0000
0000
,
1001
0000
0100
0000
0010
0000
0101
0000
0010
0000
0101
1000
0100
0010
0100
0010
,
2002
0000
0000
0000
,
0000
0000
0000
0000
0000
0000
0000
0000
0000
0000
0000
0000
0000
0000
0000
0000
0000
0000
0000
3003
0100
0000
1000
0000
0011
0000
0000
0000
0000
0000
0000
0000
;
