#TITLE:CANDY☆;
#SUBTITLE:(From Nonstop Megamix);
#ARTIST:Luv UNLIMITED;
#TITLETRANSLIT:Candy;
#SUBTITLETRANSLIT:;
#ARTISTTRANSLIT:;
#CREDIT:;
#BANNER:Candy.png;
#BACKGROUND:Candy-bg.png;
#LYRICSPATH:;
#CDTITLE:Dance Dance Revolution Max.png;
#MUSIC:Candy (From Nonstop Megamix).mp3;
#OFFSET:-6.600;
#SAMPLESTART:38.479;
#SAMPLELENGTH:12.000;
#SELECTABLE:YES;
#BPMS:0.000=195.280;
#STOPS:32.000=0.900
;
#BGCHANGES:;
// cache tags:
#FIRSTBEAT:0.000;
#LASTBEAT:404.000;
#SONGFILENAME:Songs/keyboard/Candy/Candy (From Nonstop Megamix).sm;
#HASMUSIC:1;
#HASBANNER:1;
#MUSICLENGTH:138.454;
// end cache tags

//---------------dance-single - ----------------
#NOTES:
     dance-single:
     :
     Hard:
     9:
     0.734,0.657,0.498,0.022,0.000,639.000,69.000,3.000,0.000,0.000:
1000
0000
0001
1000
0010
0000
1000
0010
,
1000
0000
0100
1000
0100
0100
1000
0010
,
1000
0000
0001
1000
0010
0000
0100
1000
,
0010
1010
1100
0010
,
1000
0000
0100
0010
1000
0000
1000
0001
,
0100
0000
0010
1000
1000
0000
1000
0001
,
0100
0000
0100
1000
1000
0000
1000
0001
,
0010
1001
1001
1010
,
2000
0001
0010
0001
,
3100
0000
1000
0000
0001
1000
0010
1000
,
0100
1000
0000
0100
1000
0001
1000
0010
,
0100
0010
0100
0001
1000
0000
0001
1000
,
0010
1000
0000
0010
1000
0100
1000
0001
,
0100
0001
0100
0010
0100
0010
0100
0010
,
1000
0010
0000
0010
0100
0001
1000
0001
,
0100
0010
1000
0010
0100
0100
1000
0100
,
1000
0010
0000
0010
1000
0001
0100
0001
,
1000
0010
0100
0010
0010
0000
0100
0100
,
1000
0100
0000
0010
1000
0010
0100
0001
,
1000
0001
0100
0010
0100
0000
0010
0100
,
0001
0100
0000
0001
1000
0100
1000
0010
,
0100
0010
0100
0001
1000
0000
0001
0100
,
0010
1000
0000
0001
1000
0010
1000
0010
,
0100
0010
1000
0001
0100
0000
0010
1000
,
0010
0100
0000
0010
1000
0010
0100
0010
,
1000
0010
1010
0000
1100
0000
1010
0000
,
0100
1000
0000
0100
1000
0100
1000
0001
,
0100
0010
1100
0000
0011
0000
1100
0000
,
0100
1000
0000
0010
1000
0010
0100
0010
,
0100
0000
0100
0001
1000
0010
1000
1000
,
0010
1000
0010
0000
1010
0000
1100
0000
,
0110
0000
0001
1000
0001
1000
0010
0000
,
0010
1000
0000
0100
0100
0000
1000
0000
,
0001
0000
0001
1000
0010
1000
0010
0000
,
0100
1000
0000
0100
0100
0000
1000
0010
,
1000
0010
1010
0000
1100
0000
1001
0000
,
0010
1000
0000
0001
1000
0010
0100
0010
,
0100
0000
0010
1000
0010
0100
0001
1000
,
0001
0100
0001
0000
0011
0000
1010
0000
,
1010
0000
0100
1000
0100
1000
0010
0000
,
0010
1000
0000
0100
1000
0100
1000
0001
,
0100
0001
0010
0001
0010
0000
0010
0100
,
1000
0000
0010
0100
0100
0000
0100
0010
,
1000
0000
0001
1000
0010
0000
0100
0010
,
0001
0110
0101
0110
,
0110
0000
1000
0001
0010
0000
0001
1000
,
0010
0000
0010
1000
0010
0000
0001
0010
,
1000
0000
0100
0001
0010
0000
1000
0100
,
1000
0001
1001
0011
,
0101
0000
1000
0001
0001
0100
1000
0001
,
0100
0001
0000
0010
0001
1000
0100
0001
,
1000
0001
1000
0010
0100
0001
0010
1000
,
0100
1000
0000
1000
0001
0010
0100
0001
,
0010
0001
1000
0100
0001
0010
1000
0100
,
0010
1000
0000
0010
1000
0001
0010
0100
,
1000
1000
0100
0010
1000
0001
0100
0001
,
0100
1000
0000
0010
1000
0001
0100
1000
,
0100
0001
1010
0000
1100
0000
1100
0000
,
0010
1000
0000
0100
1000
0100
1000
0010
,
0100
0010
1100
0000
0011
0000
1100
0000
,
0100
1000
0000
0100
1000
0010
1000
0010
,
0100
0010
0100
0001
1000
0100
1000
0010
,
0100
0010
1000
0000
1001
0000
0110
0000
,
0110
0000
0001
1000
0001
1000
0010
0100
,
0010
0100
0000
0001
1000
0001
0100
0010
,
0100
0010
0011
0000
1100
0000
1010
0000
,
0100
1000
0000
0100
1000
0010
0100
0010
,
0100
0010
1100
0000
0011
0000
0110
0000
,
0100
0010
0000
0100
1000
0010
0100
0001
,
1000
0010
0100
0010
1000
0001
0100
0010
,
0010
0100
0001
0000
0110
0000
1010
0000
,
1010
0000
0001
1000
0010
0100
0010
0100
,
0001
0001
0000
1000
0100
1000
0010
0100
,
0010
0100
0010
0000
0100
0001
0000
0100
,
0010
0100
0010
0000
1000
0100
0000
1000
,
0010
0100
0010
0000
0100
0001
0000
1000
,
0010
0000
1010
0000
0000
1100
0000
0000
,
1010
0000
0100
0000
1000
0100
1000
0001
,
1000
0010
1000
0000
0010
0100
0010
0100
,
0001
1000
0010
0000
0011
0011
0000
1010
,
1010
0000
0100
1000
0100
1000
1010
0000
,
1100
0001
0011
1010
,
0100
1000
0000
0100
1000
0010
0100
0010
,
1000
0001
0110
0000
0110
0000
0110
0000
,
1000
0010
0000
1000
0100
1000
0100
1000
,
0001
1000
0010
1000
0010
0100
0010
0100
,
0010
0100
0010
0000
0011
0000
1010
0000
,
1100
0000
0100
1000
0010
0100
0010
0100
,
0001
0100
0000
0010
0100
0010
0100
0010
,
1000
0010
1010
0000
1100
0000
1010
0000
,
0100
1000
0000
0001
1000
0010
0100
0010
,
0100
0001
0100
0010
1000
0010
0100
0000
,
0010
1000
0000
0010
0100
0001
1000
0010
,
0100
0010
1000
0010
0100
0001
1000
0010
,
0100
0001
1000
0010
1100
0000
0110
0000
,
0011
0000
0010
0100
0001
1000
0010
0000
,
0010
0100
0000
0001
1000
0010
0100
0010
,
1000
0000
1000
0001
1000
0010
0100
0010
,
1000
0001
0100
0010
1000
0010
0100
0001
,
1000
0001
1000
0010
0100
0010
1000
0001
,
0100
0010
2002
0000
0000
0000
0000
0000
,
3003
0000
0000
0000
;

//---------------dance-single - ----------------
#NOTES:
     dance-single:
     :
     Medium:
     6:
     0.468,0.474,0.123,0.022,0.000,434.000,17.000,3.000,0.000,0.000:
1000
0001
1000
0010
,
1000
0100
1000
0001
,
1000
0010
1000
0100
,
0010
0110
0110
0110
,
1000
0100
1000
0010
,
0100
0001
1000
0010
,
0100
0001
1000
0010
,
0100
0001
0010
0010
,
2000
0001
0010
0100
,
3001
0010
1000
0100
,
1000
0001
0000
1000
0010
0000
1000
0000
,
0100
1000
0001
0010
,
0100
0010
0000
0100
0001
0000
0001
0000
,
1000
0100
1000
0010
,
0010
0100
0000
0001
1000
0000
0001
0000
,
0010
1000
0100
0100
,
1000
0010
0000
0010
1000
0100
1000
0010
,
1000
0100
0001
1000
,
0010
1000
0000
0001
1000
0000
0001
0000
,
0001
0100
0010
0100
,
0001
0100
0000
0010
1000
0000
0010
0000
,
1000
0100
1000
0001
,
0001
0100
0000
0010
0100
0000
0001
0000
,
0001
1000
0100
0100
,
1000
0001
0000
1000
0001
1000
0010
0000
,
0010
1000
0100
1010
,
0000
0100
0000
1000
0001
0000
0001
0000
,
1000
0100
1000
0000
0010
0000
1000
0000
,
0100
1000
0000
0010
0010
0000
1000
0000
,
0100
0001
1000
0000
0000
0001
1000
0000
,
0000
0010
1000
0100
,
1000
0001
0010
1000
,
0000
0100
0000
0100
1000
0000
0010
0000
,
0010
1000
0001
1000
,
0000
0100
0000
0100
1000
0000
0010
0000
,
0010
1000
0100
0001
,
1000
0010
0000
0010
1000
0000
0100
0000
,
0001
0000
1000
0000
0000
0001
1000
0000
,
0000
0100
1000
0010
,
1000
0100
0001
1000
,
0000
0010
0000
0010
1000
0000
0100
0000
,
1000
0001
1000
0100
,
1000
0001
1000
0010
,
0100
0001
1000
0010
,
0100
0001
0011
0011
,
0011
1000
0100
0010
,
1000
0100
0010
1000
,
0001
0100
0010
1000
,
0100
0010
0110
0110
,
1001
0001
1000
0100
,
1000
0010
0000
1000
0100
0000
1000
0000
,
0001
0001
0100
0010
,
1000
0100
0000
1000
0001
0000
1000
0000
,
0001
1000
0010
0010
,
0100
0001
0000
0001
0100
0000
0010
0000
,
0100
0001
1000
0010
,
0010
0100
0000
0001
0100
0001
0100
0010
,
0100
0010
0010
1010
,
0000
0100
0000
0100
1000
0000
1010
0000
,
0000
0100
1000
0001
,
0001
1000
0000
0001
1000
0000
0100
0000
,
0100
0000
1000
0000
0010
1000
0100
0000
,
1000
0001
0001
1000
,
0100
0010
1000
0100
,
0000
0001
0000
1000
0100
0000
0010
0000
,
1000
0100
0010
1010
,
0000
0100
0000
0100
1000
0000
0001
0000
,
0000
1000
0100
0010
,
1000
0001
0000
0001
1000
0000
0100
0000
,
0010
0000
1000
0000
0100
1000
0100
0000
,
0001
0100
1000
0000
0100
0000
0010
0000
,
1000
0100
0001
0100
,
0010
0100
0000
0010
0100
0000
0001
0000
,
0001
0000
1000
0000
0100
1000
0000
0000
,
0001
1000
0000
0000
0001
1000
0000
0000
,
0100
1000
0000
0000
0001
1000
0000
0000
,
0100
1000
0011
0000
0000
1100
0000
0000
,
0110
0000
1000
0000
0001
1000
0000
0000
,
0001
1000
0000
0000
0100
0000
1000
0000
,
0100
1000
0010
0000
1000
0100
0000
1000
,
0010
0000
1000
0100
0000
1000
0000
0001
,
0000
0001
1000
0000
0100
0000
1000
0000
,
0010
0100
0000
0100
1000
0000
0001
0000
,
0000
1000
0100
0010
,
1000
0100
0000
0001
1000
0000
0001
0000
,
0001
0000
0010
0000
0000
1000
0100
0000
,
0000
0001
1000
0100
,
1000
0010
0100
1000
,
0000
0100
0000
0100
1000
0000
0001
0000
,
0010
1000
0100
0001
,
0000
1000
0000
0010
1000
0000
0100
0000
,
0001
1000
0100
0010
,
0100
0001
0000
0001
1000
0000
0010
0000
,
0100
0000
0001
0000
0000
1000
0100
0000
,
0000
0001
1000
0010
,
0100
0001
1000
0010
,
0000
0100
0000
0100
1000
0000
0001
0000
,
0001
0000
1000
0100
1000
0000
0001
0000
,
0001
0000
1000
0010
1000
0000
0100
0000
,
0100
0000
1000
0001
1000
0010
0100
0010
,
0001
0010
2002
0000
0000
0000
0000
0000
,
3003
0000
0000
0000
;

//---------------dance-single - ----------------
#NOTES:
     dance-single:
     :
     Easy:
     4:
     0.371,0.365,0.058,0.022,0.000,349.000,8.000,3.000,0.000,0.000:
1000
0001
1000
0010
,
0000
0100
1000
0001
,
0000
0010
1000
0100
,
0000
0100
1000
1001
,
0000
0100
1000
0010
,
0000
0001
1000
0010
,
0000
0001
1000
0010
,
0000
0001
0010
0010
,
2000
0001
0010
0100
,
3001
0010
1000
0100
,
1000
0100
0010
1000
,
0100
1000
0001
0010
,
0100
1000
0001
0001
,
1000
0100
1000
0010
,
0010
0001
1000
0001
,
0010
1000
0100
0100
,
1000
0010
1000
1000
,
1000
0100
0001
1000
,
0010
0100
1000
0001
,
0001
0100
0010
0100
,
0001
0010
1000
0010
,
1000
0100
1000
0001
,
0001
1000
0100
0001
,
0001
1000
0100
0100
,
1000
0010
0001
0010
,
0010
1000
0100
1010
,
0000
0001
0000
0000
0001
0000
0001
0000
,
0000
1000
0010
1000
,
0100
0001
0010
1000
,
0100
1000
0000
1000
,
0000
0010
1000
0100
,
1000
0001
0010
1000
,
0000
0001
0000
0000
1000
0000
0010
0000
,
0010
1000
0001
1000
,
0000
0001
0000
0000
1000
0000
0010
0000
,
0000
1000
0100
0001
,
1000
0010
1000
0100
,
0001
1000
0000
1000
,
0000
0100
1000
0010
,
1000
0100
0001
1000
,
0000
0001
0000
0000
1000
0000
0100
0000
,
1000
0001
1000
0100
,
1000
0000
1000
0010
,
0100
0000
1000
0010
,
0100
0000
0010
1000
,
1001
1000
0100
0010
,
1000
0000
0010
1000
,
0001
0000
0010
1000
,
0100
0000
0100
0001
,
1001
0001
1000
0100
,
1000
0010
0100
1000
,
0001
0001
0100
0010
,
1000
0010
0001
1000
,
0001
1000
0010
0010
,
0100
0001
0100
0010
,
0100
0001
1000
0010
,
0010
1000
0100
0100
,
0100
0010
0010
1010
,
0000
0001
0000
0000
1000
0000
1010
0000
,
0000
0100
1000
0001
,
0001
0100
1000
0100
,
0100
1000
0000
0100
,
0000
0001
0001
1000
,
0100
0010
1000
0100
,
0000
0001
0000
0000
0100
0000
0010
0000
,
1000
0100
0010
1010
,
0000
0001
0000
0000
1000
0000
0001
0000
,
0000
1000
0100
0010
,
1000
0010
1000
0100
,
0010
1000
0000
0100
,
0000
1000
0100
0010
,
1000
0100
0001
0100
,
0000
0010
0000
0000
0100
0000
0001
0000
,
0001
1000
0100
0000
,
0001
0000
0001
0000
,
0100
0000
0001
0000
,
0100
0000
0001
0000
0000
1000
0000
0000
,
0010
1000
0001
0000
,
0001
0000
0100
1000
,
0100
0000
0010
0000
0000
1000
0000
0000
,
0010
0000
1000
0000
0000
0001
0000
0000
,
0001
1000
0100
1000
,
0000
0010
1000
0001
,
0000
1000
0100
0010
,
1000
0100
1000
0001
,
0001
0010
0000
0100
,
0000
0001
1000
0100
,
1000
0010
0100
1000
,
0000
0001
0000
0000
1000
0000
0001
0000
,
0010
1000
0100
0001
,
0000
0010
1000
0100
,
0000
1000
0100
0010
,
0100
0010
1000
0010
,
0100
0001
0000
0100
,
0000
0001
1000
0010
,
0100
0001
1000
0010
,
0000
1000
0000
0000
0010
0000
1000
0000
,
1000
0010
0010
1000
,
1000
0010
0010
0001
,
0001
0010
0010
0001
,
1000
2020
0000
0000
,
3030
0000
0000
0000
;
