#TITLE:Gotsta Terrify;
#SUBTITLE:;
#ARTIST:The Quick Brown Fox;
#TITLETRANSLIT:;
#SUBTITLETRANSLIT:;
#ARTISTTRANSLIT:;
#CREDIT:Rynker;
#BANNER:Bn-Terrify.png;
#BACKGROUND:Bg-Terrify.png;
#LYRICSPATH:;
#CDTITLE:;
#MUSIC:09 Gotsta Terrify.ogg;
#OFFSET:-0.337;
#SAMPLESTART:100.108;
#SAMPLELENGTH:12.000;
#SELECTABLE:YES;
#DISPLAYBPM:400.000;
#BPMS:0.000=400.000,564.000=600.000,567.000=200.000,568.000=600.000,571.000=200.000,572.000=400.000;
#STOPS:;
#BGCHANGES:;
// cache tags:
#FIRSTBEAT:68.000;
#LASTBEAT:1024.000;
#SONGFILENAME:Songs/SPEEEDCOOOORE/Gotsta Terrify - [Rynker]/Gotsta Terrify.sm;
#HASMUSIC:1;
#HASBANNER:1;
#MUSICLENGTH:156.363;
// end cache tags

//---------------dance-single - Rynker----------------
#NOTES:
     dance-single:
     Rynker:
     Challenge:
     13:
     1.000,1.000,0.358,0.269,0.000,1139.000,56.000,42.000,24.000,0.000:

0000
0000
0000
0000
,
0000
0000
0000
0000
,
0000
0000
0000
0000
,
0000
0000
0000
0000
,
0000
0000
0000
0000
,
0000
0000
0000
0000
,
0000
0000
0000
0000
,
0000
0000
0000
0000
,
0000
0000
0000
0000
,
0000
0000
0000
0000
,
0000
0000
0000
0000
,
0000
0000
0000
0000
,
0000
0000
0000
0000
,
0000
0000
0000
0000
,
0000
0000
0000
0000
,
0000
0000
0000
0000
,
0000
0000
0000
0000
,
1001
0000
1001
1000
,
0100
0000
0010
0000
0001
0200
0000
0000
,
0301
0010
0001
0010
0001
0000
0010
0000
,
0100
0000
0010
0000
0001
0200
0000
0000
,
0310
0000
1000
0010
1000
0000
0001
0000
,
0010
0000
0100
0000
1000
0002
0000
0000
,
1003
0010
1000
0001
0100
0000
0001
0000
,
0010
0000
0100
0000
1000
0200
0000
0300
,
1001
0000
0001
0100
0010
0000
0100
0000
,
0010
1000
0001
0101
,
0000
1010
1010
1000
,
0001
0000
0010
0000
0100
1000
0000
0000
,
0000
M00M
0MM0
MMMM
,
0MM0
M00M
0000
0000
,
1000
0001
0100
0010
1000
0001
0100
0010
,
1000
0010
1000
0001
0010
0100
1000
0100
,
0010
0000
0001
0100
0001
0000
0100
0000
,
0010
0000
1000
0000
0100
0010
0100
0000
,
1000
0001
0100
0001
0100
0000
0001
0000
,
0010
0000
0100
0000
0010
0001
1000
0010
,
0100
0000
0001
1000
0010
0000
0100
0000
,
0001
0000
1000
0000
0100
0010
0001
0000
,
0010
0001
1000
0010
0100
0000
0001
0000
,
0001
0000
1000
0001
0100
0010
0100
0000
,
1001
0000
0001
0010
0100
0000
1000
0000
,
0001
0000
0100
0000
0010
0100
0010
0000
,
1000
0010
1000
0001
1000
0000
0001
0000
,
0010
0000
0100
0000
0010
0001
1000
0001
,
0010
0000
0001
0100
0001
0000
0010
0000
,
0100
0000
0010
0000
0001
1000
0001
0000
,
0100
0010
0100
0010
0100
0000
0001
1000
,
0001
1000
0001
0000
0100
0010
1000
0001
,
0010
0000
0001
0010
0001
0000
0100
0000
,
0010
0000
1000
0000
0001
0010
0001
0000
,
0010
0100
1000
0001
0100
0000
0010
0000
,
0100
0000
0010
0000
1000
0001
0100
0010
,
1000
0000
0100
0010
0001
0000
0010
0000
,
0100
0000
1000
0000
0001
0100
0010
0000
,
0100
0001
0100
0001
0100
0000
0010
0000
,
1000
0000
0100
0000
1000
0100
1000
0100
,
1000
0000
0001
0100
0010
0000
0100
0000
,
0100
0000
0010
0000
1000
0100
0010
0000
,
0100
1000
0100
1000
0001
0000
1000
0000
,
0100
0000
1000
0000
0010
0100
0001
1000
,
0100
0000
0010
0001
1000
0000
0001
0000
,
1000
0000
0100
0000
0010
0100
1000
0000
,
0001
0100
0001
0100
0001
0000
1000
0100
,
0010
0001
0100
0000
0001
0100
0010
0000
,
1010
0000
1000
0000
1100
0000
0100
0010
,
0100
0010
0100
0000
0010
0000
0001
0000
,
0100
0000
0001
0000
0001
0000
1000
0100
,
1000
0100
1000
0000
0001
0010
0001
0010
,
0001
0000
1000
0000
1001
0000
0001
0100
,
0001
0100
0001
0000
0100
0000
0010
0000
,
1000
0001
1000
0001
1000
0000
0001
0010
,
0001
0010
0001
0000
1000
0100
0010
0100
,
0010
0000
0001
0000
0011
0000
0010
0100
,
0010
0100
0010
0000
0100
0000
1000
0000
,
0001
0000
0100
0000
0110
0000
0010
1000
,
0010
1000
0001
0000
1000
0100
0010
0001
,
0010
0000
0001
0000
0101
0000
0100
0010
,
0100
0010
1000
0000
0001
0000
0011
0000
,
0010
0100
0010
0100
0010
0000
0100
1000
,
0100
1000
0100
0000
1000
0001
1000
0010
,
0100
0000
0001
0000
0011
0000
0010
0001
,
0010
0001
1000
0000
0001
0000
1000
0000
,
0010
0000
0100
0000
0110
0000
0010
1000
,
0010
1000
0001
0000
1000
0100
0010
0100
,
0010
0000
0001
0000
0011
0000
0010
0100
,
0010
0100
1000
0000
0001
0000
0100
0000
,
0010
1000
0010
1000
0001
0000
0010
0001
,
0010
0001
1000
0000
0001
0100
0001
0100
,
0010
0000
1000
0000
1010
0000
0010
1000
,
0010
1000
0001
0000
0010
0000
0001
0000
,
0100
0000
0001
0000
1001
0000
1000
0100
,
1000
0100
0010
0000
0100
1000
0001
0100
,
0010
0000
1000
0000
1001
0000
0001
0010
,
0001
0010
0100
0000
1000
0000
0001
0000
,
0100
0001
0010
0001
0010
0000
0100
1000
,
0200
0000
2300
0000
,
3001
0000
0010
0001
0000
0010
0001
0000
,
0100
0010
1000
0100
,
0010
0000
0001
0010
0000
0001
0010
0000
,
0001
0100
0010
0100
,
0001
0000
0100
0001
0000
0100
0001
0000
,
0010
0100
0010
0001
,
1000
0000
0010
1000
0000
0010
1000
0000
,
0010
0000
1000
0000
0001
0010
0100
0010
,
0001
0000
1000
0010
0000
1000
0010
0000
,
1000
0001
0010
0100
,
0010
0000
0001
0010
0000
0001
0010
0000
,
0001
0100
0010
1000
,
0100
0000
1000
0010
0000
1000
0010
0000
,
1000
0001
0100
0001
,
0010
0000
0001
0010
0000
0001
0010
0000
,
0100
1000
0100
1000
0001
0100
0010
0000
,
0100
0000
0010
1000
0000
0001
0100
0000
,
0010
1000
0100
0010
,
0001
0000
1000
0010
0000
0100
0001
0000
,
1000
0100
0010
0001
,
0100
0000
0010
1000
0000
0001
0100
0000
,
0010
0100
0001
1000
,
0100
0000
0010
0001
0000
1000
0010
0000
,
0100
0001
0100
0000
0001
1000
0100
1000
,
0100
0000
1000
0010
0000
0100
0001
0000
,
1000
0100
0010
0001
,
1000
0000
0010
0100
0000
0001
1000
0000
,
0100
0010
0001
1000
,
0100
0000
1000
0010
0000
0100
0001
0000
,
0010
0100
0010
0001
,
1000
0000
0010
0100
0000
0001
0010
0000
,
0220
0000
0330
0000
,
1001
0000
1000
0010
1000
0000
0010
0000
,
0100
0000
0001
0000
0010
0200
0000
0000
,
0310
0001
0010
0001
1000
0000
0001
0000
,
0010
0000
0100
0000
0010
0002
0000
0003
,
0100
0000
0001
0100
0001
0000
1000
0000
,
0100
0000
0010
0000
0100
2000
0000
0000
,
3100
1000
0001
1000
0001
0000
0100
0000
,
0010
0000
0100
0000
0001
1000
0000
0000
,
1001
0000
1001
0001
,
0010
0001
0010
0011
,
0000
1001
1001
1000
,
0010
0000
0100
0000
0001
1000
0000
0000
,
2002
0000
0000
3003
,
2002
0000
0000
3003
,
0001
0100
0001
1000
0100
0010
0100
1000
,
0001
0100
0001
0100
0010
0100
0010
1000
,
0010
0000
1000
0100
1000
0000
0100
0000
,
0010
0000
0001
0000
0100
0010
0100
0000
,
0001
1000
0001
0010
0100
0000
0010
0000
,
0110
0000
0100
0000
1000
0010
0100
0001
,
1000
0000
0010
1000
0001
0000
0010
0000
,
0110
0000
0100
0000
1000
0001
1000
0000
,
0001
0100
0010
0100
0001
0000
1000
0000
,
1100
0000
0100
0010
0001
1000
0100
0000
,
0010
0000
0001
1000
0010
0000
1000
0000
,
0100
0000
1000
0000
0010
0100
0001
0000
,
1000
0010
0100
0001
0100
0000
0001
0000
,
1000
0000
0001
0000
0010
0100
1000
0010
,
0100
0000
0010
0100
0001
0000
0010
0000
,
0100
0000
0010
0000
0001
1000
0010
0000
,
1000
0001
0010
0100
0010
0000
0001
1000
,
0010
0100
0010
0000
0100
0001
1000
0001
,
1000
0000
0001
0010
0100
0000
0010
0000
,
0001
0000
1000
0000
0010
0100
0001
0000
,
1000
0001
1000
0100
0010
0000
0100
0000
,
1000
0000
0010
0000
0100
0001
0100
0000
,
0101
0000
0001
1000
0100
0000
1000
0000
,
0010
0000
0100
0000
0001
0010
0001
0000
,
0010
0100
0010
0100
0010
0000
0100
0000
,
1000
0000
0010
0000
1000
0001
1000
0000
,
1001
0000
0001
0100
0010
0000
1000
0000
,
0001
0000
0010
0000
0100
0010
0100
0000
,
1000
0001
1000
0001
1000
0000
0010
0000
,
0100
0000
0010
0000
1000
0100
1000
0000
,
1001
0000
0001
0100
0010
0000
1000
0000
,
0001
0000
1000
0000
0100
0010
0100
0000
,
0010
0001
0010
0001
0010
0000
0001
1000
,
0010
0000
1000
0000
0001
0020
0000
0030
,
1100
0000
1000
0020
,
0030
0100
0020
0030
,
0200
0300
0001
0100
,
0002
0003
0010
0100
,
0020
0030
0100
0020
,
0030
0100
0020
0030
,
0002
0003
1000
0010
,
0200
0300
0010
1000
,
0002
0003
1000
0002
,
0003
1000
0002
0003
,
0020
0030
0100
0010
,
0002
0003
1000
0010
,
0200
0300
0010
0200
,
0300
0001
0200
0300
,
0002
0003
1000
0100
,
2000
3000
0020
0030
,
0101
0100
0001
0100
,
0010
1000
0100
0010
,
0001
0001
1000
0010
,
0100
0100
0001
1000
,
0100
0100
0010
0001
,
1000
0010
0100
0001
,
1000
1000
0100
0010
,
0001
0001
1000
0010
,
0100
0100
0001
1000
,
0100
0010
0001
1000
,
0010
0010
0100
0001
,
1000
1000
0100
0010
,
0001
0001
1000
0010
,
0100
0001
0010
0100
,
1000
1000
0001
0100
,
0100
0000
0000
0000
0020
0000
0000
0030
,
0110
0000
1001
1000
,
0010
0000
0100
0000
0001
0020
0000
0000
,
0130
1000
0100
1000
0100
0000
1000
0000
,
0001
0000
0100
0000
0001
0020
0000
0030
,
0100
0000
1000
0001
0100
0000
0010
0000
,
1000
0000
0001
0000
0010
0200
0000
0300
,
1000
0100
1000
0100
1000
0000
0001
0000
,
0100
0000
0010
0000
1000
0100
0000
0000
,
0110
0000
1001
0000
,
0001
0100
0001
1001
,
0000
1001
1001
1000
,
0100
0000
0010
0000
0100
1000
0000
0000
,
0000
M00M
0MM0
MMMM
,
0MM0
M00M
0000
0000
,
0001
0100
0010
1000
0001
0010
0100
1000
,
0001
0100
0001
0100
0010
1000
0001
0010
,
0100
0000
1000
0100
0000
0010
0001
0000
,
0100
0010
1010
1000
,
0100
0000
0010
0001
0000
0010
0100
0000
,
1000
0001
0101
0100
,
0010
0000
1000
0001
0000
0010
0001
0000
,
0100
0010
1010
1000
,
0001
0000
0010
0100
0000
0010
0001
0000
,
0100
0000
0010
0000
1000
0010
1000
0001
,
0010
0000
0001
0100
0000
0010
1000
0000
,
0100
0010
0110
0100
,
1000
0000
0001
0100
0000
0010
1000
0000
,
0001
0010
0110
0100
,
1100
0000
1000
0010
0000
0100
0001
0000
,
1000
0100
1100
1000
,
0010
0000
0100
0001
0000
0100
0010
0000
,
1000
0001
1000
0010
0100
0001
0100
0001
,
1000
0000
0100
0010
0000
0001
0010
0000
,
0001
1000
1010
0010
,
0100
0000
0001
1000
0000
0100
0010
0000
,
0001
1000
1010
0010
,
0100
0000
0001
1000
0000
0100
0010
0000
,
0100
1000
1001
0001
,
0100
0000
0010
0100
0000
0001
1000
0000
,
0100
1000
0100
0000
1000
0010
0100
0001
,
0100
0000
0001
1000
0000
0100
1000
0000
,
0010
0100
0101
0001
,
0010
0000
0100
0010
0000
0001
1000
0000
,
0001
0000
0100
0000
0020
0000
0000
0030
,
1000
0001
0010
0100
1000
0000
0100
0010
,
0001
1000
0010
0000
0100
0010
1000
0001
,
0020
0000
0000
0030
,
0011
0000
0000
0000
;
