#TITLE:Bright Pulse;
#SUBTITLE:;
#ARTIST:Cas;
#TITLETRANSLIT:;
#SUBTITLETRANSLIT:;
#ARTISTTRANSLIT:;
#CREDIT:;
#BANNER:BrightPulse-bn.png;
#BACKGROUND:BrightPulse-bg.png;
#LYRICSPATH:;
#CDTITLE:!danceguyTitle.png;
#MUSIC:Bright Pulse.mp3;
#OFFSET:-0.040;
#SAMPLESTART:56.075;
#SAMPLELENGTH:12.000;
#SELECTABLE:YES;
#BPMS:0.000=87.500,16.000=175.000,80.000=87.500,96.000=175.000,192.000=87.500;
#STOPS:;
#BGCHANGES:;
// cache tags:
#FIRSTBEAT:0.000;
#LASTBEAT:208.000;
#SONGFILENAME:Songs/Fresh Flock of Fantastic Files F4/(DAnceguy117) Bright Pulse/Bright Pulse.sm;
#HASMUSIC:1;
#HASBANNER:1;
#MUSICLENGTH:90.566;
// end cache tags

//---------------dance-single - heavy----------------
#NOTES:
     dance-single:
     heavy:
     Hard:
     11:
     0.713,0.833,1.000,0.353,0.464,325.000,95.000,32.000,0.000,0.000:
1002
0000
0000
1000
0000
0000
0000
0000
0000
0000
0000
0000
0000
0000
0000
1003
,
2001
0000
0000
0001
0000
0000
0000
0000
0000
0000
0000
0000
0000
0000
0000
3000
,
0120
0000
0000
0100
0000
0000
0000
0000
0000
0000
0000
0000
0000
0000
0000
0130
,
0210
0000
0000
0010
0000
0000
0000
0000
0000
0000
0000
0000
0000
0000
0000
0001
,
0301
0000
0000
0000
1001
0000
0000
0001
1000
0000
0011
0000
0000
0010
0100
0000
,
0100
0000
0000
0000
1001
0000
0000
0010
0001
0000
1010
0000
0000
1000
0001
0000
,
0001
0000
0000
0000
0101
0000
0000
0001
0010
0000
1100
0000
0000
0100
1000
0000
,
1000
0000
0000
0000
1020
0000
0030
0000
0100
0000
0012
0000
0003
0010
2001
0000
,
3001
0000
0000
0000
0011
0000
0000
0010
0100
0000
1010
0000
0000
0010
1000
0000
,
1000
0000
0000
0000
1100
0000
0000
1000
0001
0000
0101
0000
0000
0010
0100
0000
,
0100
0000
0000
0000
1001
0000
0000
0001
1000
0000
1010
0000
0000
0001
0100
0000
,
0100
0000
0000
0000
0000
0000
0000
0000
0000
0000
0000
0000
1001
0000
0000
0000
0000
0000
0100
0000
0000
0000
0000
0000
0001
0000
0000
0000
0000
0000
0000
0000
0000
1000
0000
0000
0001
0000
0010
0000
0100
0000
1000
0000
0010
0000
0100
0000
,
0001
0000
0000
0000
0011
0000
0000
0010
0100
0000
1010
0000
0000
0010
0100
0000
,
0100
0000
0000
0000
0011
0000
0000
1000
0001
0000
0110
0000
0000
1000
0100
0000
,
0100
0000
0000
0000
1001
0000
0000
0001
0100
0000
1100
0000
0000
0010
0001
0000
,
0001
0000
0000
0000
0012
0000
0103
0000
0000
0000
2010
0000
3001
0100
0001
0100
,
0001
0000
0000
0000
0011
0000
0000
0010
0100
0000
1010
0000
0000
1000
0001
0000
,
0001
0000
0000
0000
1010
0000
0000
1000
0010
0000
1100
0000
0000
0010
0001
0000
,
0001
0000
0000
0000
1001
0000
0000
0010
0100
0000
0110
0000
0000
0010
1000
0000
,
1000
0000
1002
0003
0100
2010
3001
2000
,
3002
0000
0000
0000
,
2003
0000
0000
0000
,
3020
0000
0000
0000
,
0230
0000
0000
0000
0000
0000
0000
0300
,
1001
0000
0100
0000
0010
0000
0011
0000
0001
0000
1000
0000
0000
0000
1010
0001
,
0110
0000
0001
0000
1000
0000
1100
0000
0020
0030
0101
0000
1000
0001
1100
0001
,
0110
0000
0001
0000
0100
0000
1010
0000
1000
0000
1001
0000
0001
0010
0101
1000
,
0110
0000
0010
0000
1000
0000
1001
0000
0020
0030
1100
0000
0100
0010
0100
0010
,
0100
0000
0010
0000
0001
0000
1010
0000
0010
0000
0100
0000
0000
0000
0101
1000
,
0011
0000
0010
0000
0100
0000
1100
0000
0002
0003
1010
0000
0001
0100
0011
0100
,
1001
0000
0100
0000
0010
0000
0011
0000
0001
0000
1010
0000
1000
0010
1100
0001
,
0110
0000
0010
0000
0001
0000
1001
0000
0100
0000
0012
0003
0100
0010
0100
0010
,
0100
0000
0000
0000
0011
0000
0000
0010
0100
0000
1010
0000
0000
1000
0100
0000
,
0100
0000
0000
0000
1001
0000
0000
0010
1000
0000
1010
0000
0000
0001
0100
0000
,
0100
0000
0000
0000
1001
0000
0000
0001
0010
0000
1001
0000
0000
0100
1000
0000
,
1000
0000
1002
0103
0100
2001
3000
0102
,
0103
0000
0000
0000
1100
0000
0000
0001
1000
0000
0101
0000
0000
0010
0001
0000
,
0001
0000
0000
0000
0011
0000
0000
0010
0100
0000
1100
0000
0000
1000
0010
0000
,
0010
0000
0000
0000
1010
0000
0000
0001
0100
0000
1001
0000
0000
0001
0100
0000
,
0100
0000
0000
0000
0000
0000
0000
0000
0000
0000
0000
0000
1001
0000
0000
0000
0000
0000
0100
0000
0000
0000
0000
0000
1000
0000
0000
0000
0000
0000
0000
0000
0000
0010
0000
0000
1000
0000
0001
0000
0010
0000
0100
0000
1000
0000
0001
0000
,
0100
0000
0000
0000
0011
0000
0000
0010
0100
0000
0011
0000
0000
0010
0100
0000
,
0100
0000
0000
0000
1010
0000
0000
0010
0100
0000
1010
0000
0000
0010
0100
0000
,
0100
0000
0000
0000
1001
0000
0000
0001
0100
0000
1001
0000
0000
0001
0100
0000
,
0100
0000
0000
0000
1020
0000
0030
0000
1000
0000
0021
0000
0031
0100
0001
0100
,
0001
0000
0000
0000
0101
0000
0000
1000
0001
0000
0101
0000
0000
1000
0001
0000
,
0001
0000
0000
0000
1100
0000
0000
0001
1000
0000
1100
0000
0000
0001
1000
0000
,
1000
0000
0000
0000
0110
0000
0000
1000
0100
0000
0110
0000
0000
0001
0100
0000
,
0100
0000
1020
0030
0100
1020
1030
2000
,
3002
0000
0000
0000
,
2003
0000
0000
0000
,
3020
0000
0000
0000
,
0230
0000
0000
0000
,
0300
0000
0000
0000
;
