#TITLE:アルゴリズム体操;
#SUBTITLE:ピタゴラスイッチ;
#ARTIST:いつもここから;
#TITLETRANSLIT:algorithm gymnastics;
#SUBTITLETRANSLIT:Pythagoraswitch;
#ARTISTTRANSLIT:;
#CREDIT:;
#BANNER:bn.jpg;
#BACKGROUND:pitagora.JPG;
#LYRICSPATH:;
#CDTITLE:pita.png;
#MUSIC:algtaisou.mp3;
#OFFSET:0.880;
#SAMPLESTART:14.000;
#SAMPLELENGTH:12.000;
#SELECTABLE:YES;
#BPMS:0.000=137.900,100.000=275.800,144.000=93.000,145.000=138.000,160.000=69.000;
#STOPS:162.938=4.000
;
#BGCHANGES:2.000=algtaisou.avi=1.000=1=0=0,
99999=-nosongbg-=1.000=0=0=0 // don't automatically add -songbackground-
;
// cache tags:
#FIRSTBEAT:12.000;
#LASTBEAT:163.000;
#SONGFILENAME:Songs/other/ASY/ASY.sm;
#HASMUSIC:1;
#HASBANNER:1;
#MUSICLENGTH:67.381;
// end cache tags

//---------------dance-single - ----------------
#NOTES:
     dance-single:
     :
     Hard:
     7:
     0.466,0.514,0.208,0.297,0.193,186.000,14.000,20.000,0.000,0.000:
0000
0000
0000
0000
,
0000
0000
0000
0000
,
0000
0000
0000
0000
,
0010
0001
0010
0000
0100
1000
0100
0000
,
0010
0001
0010
0000
0110
0000
0000
0000
,
0100
1000
0100
1000
0010
0010
0100
0100
,
0010
0001
0010
1000
0220
0000
0000
0330
,
0001
0100
0010
0100
0001
0100
1000
0010
,
0001
0010
0100
0010
2200
0000
0000
3300
,
0010
0000
0000
0001
0000
0000
0010
0000
0001
0000
0000
0000
0100
0000
0000
0100
0000
0000
0010
0000
0000
0010
0000
0000
,
0100
1000
0100
0001
0220
0000
0000
0330
,
1000
0000
0010
0000
0100
0010
0000
0000
1000
0000
0010
0000
0001
0000
0100
0000
,
1000
0100
0010
0100
0022
0000
0000
0033
,
0001
0010
0000
0000
0100
1000
0000
0000
0020
0000
0000
0000
0000
0000
0000
0000
,
1030
0100
0000
0000
0010
0001
0000
0000
0200
0000
0000
0000
0000
0000
0000
0000
,
0310
0100
1000
0001
0010
0100
1000
0001
,
0100
0100
0010
0010
0001
0001
0101
0000
,
0010
0100
1000
0001
0010
0100
1000
0001
,
0010
0100
1000
0000
0110
0000
0000
0000
,
0100
0010
0000
0000
0010
0100
0000
0000
1000
0001
0000
0000
0001
1000
0000
0000
,
0110
0110
0110
0000
,
0001
0010
0001
0010
0001
0000
0000
0000
1000
0100
1000
0100
1000
0000
0000
0000
,
0020
0031
0002
0013
,
0010
0100
0010
0100
0010
0000
0000
0000
0001
0100
0001
0100
0001
0000
0000
0000
,
2000
3200
0301
0000
,
0010
0001
0000
1000
,
0001
0000
0010
1000
,
1000
0100
0000
0000
,
1000
0000
1010
1000
,
0000
0000
0000
0000
1001
0000
0000
0000
0010
0000
0000
1000
0000
0000
0000
0000
,
0010
0000
0000
0100
0000
0000
0000
0000
0000
0000
0000
0000
0000
0000
0000
0000
,
0100
1000
0000
0010
,
1000
0000
0000
0000
0000
0000
0000
0000
0001
0000
0000
0100
0000
0000
0000
0000
,
0010
0000
0000
2000
0000
0000
0000
0000
0000
0000
0000
0000
0000
0000
3000
0000
,
0100
0000
0000
0000
0001
0000
0000
0000
0000
0000
0000
0001
0000
0000
0000
0000
,
0010
0001
0100
0010
,
0200
1300
1000
0001
,
0100
0001
0001
2200
,
3300
0000
0100
0000
1000
0000
0100
0100
,
0010
0000
0010
0000
0100
0000
0000
0000
0000
0001
0000
0100
0000
0000
0000
0022
,
0000
0000
0000
0033
;

//---------------dance-single - ----------------
#NOTES:
     dance-single:
     :
     Easy:
     4:
     0.273,0.272,0.045,0.030,0.022,124.000,3.000,2.000,0.000,0.000:
0000
0000
0000
0000
,
0000
0000
0000
0000
,
0000
0000
0000
0000
,
0010
0001
0100
1000
,
0010
0001
0100
0000
,
0100
0100
1000
0100
,
0100
0010
0100
0000
,
1000
0010
0010
0001
,
0010
0010
1000
0000
,
1000
1000
0001
0001
,
0100
0001
0001
0000
,
0001
0010
0100
0010
,
0010
1000
0001
0000
,
0001
0100
0100
0000
,
0001
0100
0100
0000
,
0010
1000
1000
1000
,
0100
0010
0001
0100
,
0001
1000
0001
0000
,
0001
1000
1000
0000
,
0001
0010
1000
1000
,
1000
0100
0100
0000
,
0001
1000
0100
1000
,
0001
0001
0010
0001
,
0010
1000
0001
0100
,
1000
0100
0001
0000
,
0010
0001
0000
1000
,
0001
0000
0010
1000
,
1000
0100
0000
0000
,
1000
0000
1010
1000
,
0000
1001
0010
1000
,
0010
0100
0000
0000
,
0100
1000
0000
0010
,
1000
0000
0001
0100
,
0010
0100
0000
0000
,
0100
0001
0000
0001
,
0010
0001
0100
0010
,
0100
1000
1000
0001
,
0100
0001
0001
0100
,
0000
0100
1000
0100
,
0010
0000
0000
0000
0100
0000
0000
0000
0000
0001
0000
0100
0000
0000
0000
0202
,
0000
0000
0000
0303
;
