#TITLE:World's End;
#SUBTITLE:The Battle of the Ivory Plains (2001);
#ARTIST:Dragonland;
#TITLETRANSLIT:;
#SUBTITLETRANSLIT:;
#ARTISTTRANSLIT:;
#CREDIT:;
#BANNER:BN.png;
#BACKGROUND:BG.png;
#LYRICSPATH:;
#CDTITLE:CDTitle.gif;
#MUSIC:Dragonland - 10 - World's end.mp3;
#OFFSET:-0.880;
#SAMPLESTART:61.748;
#SAMPLELENGTH:12.000;
#SELECTABLE:YES;
#BPMS:0.000=175.951,908.000=147.731,910.000=137.911,912.000=127.272,914.000=108.412,916.000=98.632;
#STOPS:;
#BGCHANGES:;
// cache tags:
#FIRSTBEAT:0.000;
#LASTBEAT:921.750;
#SONGFILENAME:Songs/Astronomic Metal Collection/World's End (charlo)/World's End.sm;
#HASMUSIC:1;
#HASBANNER:1;
#MUSICLENGTH:326.207;
// end cache tags

//---------------dance-single - Blank----------------
#NOTES:
     dance-single:
     Blank:
     Hard:
     13:
     1.000,1.000,0.941,0.610,1.000,2720.000,307.000,199.000,0.000,0.000:
1100
0010
0001
0100
0010
0100
1001
0000
0101
0010
0100
1000
0010
0100
0001
0010
,
1100
0001
0100
0010
1000
0100
0011
0000
1001
0010
0100
1000
0100
0010
0001
0010
,
1100
0001
0010
0100
1000
0100
0011
0000
0101
1000
0100
0010
0100
1000
0001
1000
,
0110
0001
0010
0100
1000
0010
1001
0000
1010
0001
0010
0100
1001
0010
0100
1000
,
0011
0100
0010
1000
0100
1000
0011
0000
0101
1000
0100
0010
0001
0100
0010
0100
,
1001
0010
0100
0010
0001
1000
0110
0000
1001
0100
0010
0001
0100
0010
0100
0001
,
1010
0001
0100
0010
1000
0100
0011
0000
1010
0001
0010
0100
1000
0001
0100
0010
,
1100
0010
0001
0100
0010
0100
0001
0010
0100
1000
0001
0100
0001
1000
0010
1000
,
0110
0001
1000
0100
0010
0100
1000
0001
0100
0010
0100
0001
1000
0010
0100
0001
,
0100
0010
1000
0100
0010
0100
1000
0001
0010
0100
0010
0001
1000
0010
0100
0001
,
1000
0001
0100
0010
0100
0001
1000
0100
0010
0001
0010
0100
1000
0100
0010
0001
,
1000
0010
1000
0001
0100
0001
0010
0100
1000
0010
1000
0100
0010
0001
1000
0100
,
0010
0100
1000
0001
0100
0001
0100
0001
1000
0010
0100
0001
0010
0100
0010
0001
,
0100
0010
0100
0010
1000
0100
0010
0100
1000
0001
0010
0100
1000
0001
0100
0001
,
1000
0010
1000
0100
0010
0001
0010
0100
1000
0001
1000
0100
0010
0001
0100
0010
,
0100
0001
0010
0100
0010
0001
1000
0010
1000
0100
0010
0100
1000
0001
0100
0001
,
1100
0010
0001
1000
0110
0001
1000
0100
0011
1000
0100
0010
1001
0100
0010
0001
,
1100
0010
0001
0100
0010
0100
0001
0010
0001
1000
0010
1000
0100
0010
0100
1000
,
0001
0100
0010
0100
0001
1000
0100
1000
0020
0000
0000
0000
0230
0000
0000
0000
,
0301
0010
0100
1000
0010
0100
0001
0010
0100
0010
0001
1000
0010
0100
0001
0100
,
0010
1000
0100
0010
0001
0100
0001
0010
0200
0000
0000
0000
2300
0000
0000
0000
,
3100
0010
0001
0100
0010
0100
0001
1000
0001
0100
0010
0100
0001
1000
0010
0100
,
0001
0100
0010
1000
0100
0010
0001
0010
0002
0000
0000
0000
2000
0000
0000
3003
,
0100
0010
0100
1000
0001
0100
0010
0100
0001
1000
0010
0100
0001
0100
0010
1000
,
0220
0000
0000
0330
2002
0000
0000
3003
0022
0000
0000
0033
2200
0000
0000
3300
,
0001
0100
0001
1000
0100
0010
0001
0100
0010
1000
0100
1000
0001
0100
0001
1000
,
0010
1000
0100
0010
0001
0010
0100
1000
0002
0000
0000
0000
0203
0000
0000
0000
,
0310
1000
0001
0100
0001
1000
0010
1000
0100
0010
0001
0100
0010
1000
0100
0010
,
0100
1000
0001
0100
0010
0100
0001
1000
0020
0000
0000
0000
0230
0000
0000
0000
,
0301
1000
0001
0100
0010
0100
0001
1000
0010
0100
0010
1000
0001
0010
0100
0010
,
0001
1000
0010
0100
0001
0010
0100
1000
0020
0000
0000
0000
2030
0000
0000
0000
,
3001
0010
0001
1000
0010
1000
0100
0010
0001
1000
0010
1000
0001
0100
0001
1000
,
0220
0000
0000
0330
0022
0000
0000
0033
2020
0000
0000
3030
2002
0000
0000
3003
,
0100
1000
0001
0100
0010
0100
0001
0010
1100
0001
0010
0100
1000
0010
0100
0001
,
0010
0001
1000
0010
0100
0001
0010
0100
1000
0010
0100
0001
1000
0100
0010
0001
,
0100
0010
1000
0001
0010
0100
1000
0001
0100
0001
1000
0010
1000
0100
0010
0001
,
0100
0010
1000
0100
0010
0100
1000
0001
0100
0001
1000
0010
0100
0001
0010
0100
,
1000
0001
0100
0001
1000
0010
0100
0001
0010
0100
1000
0001
0010
0001
1000
0010
,
1000
0100
0010
0001
1000
0100
1000
0001
0010
0100
0010
0001
1000
0100
0010
0100
,
1000
0001
0010
0001
1000
0100
1000
0010
0100
0001
0010
0001
1000
0010
1000
0100
,
0010
0001
0010
0100
1000
0010
1000
0100
0010
0001
1000
0010
1000
0001
0010
0001
,
1000
0010
0100
0001
0100
0010
0100
0001
1000
0100
0010
0001
1000
0001
0010
0100
,
1000
0010
0100
0010
1000
0100
1000
0010
0100
0010
1000
0100
0010
0100
1000
0001
,
0100
0001
1000
0010
0100
0001
0010
0100
1000
0010
0100
0001
0010
0100
1000
0010
,
0100
0001
1000
0100
1000
0001
0010
0100
0010
0001
1000
0100
1000
0001
0010
0100
,
1000
0010
1000
0100
0010
0001
1000
0010
0100
0001
1000
0100
0010
0100
1000
0001
,
0010
0001
1000
0010
1000
0100
0010
0001
0100
0010
0100
0001
1000
0001
0010
0100
,
1000
0010
1000
0100
0010
0001
0100
0010
1000
0100
0010
0001
1000
0010
1000
0001
,
0010
0100
0010
0001
0100
0010
1000
0100
0010
0100
1000
0001
0100
0010
0100
0001
,
1000
0010
0100
0001
1000
0010
1000
0001
0110
1000
0001
0010
0100
1000
0011
0000
,
0110
1000
0001
0010
0100
1000
0001
0010
1100
0001
0100
0010
1000
0100
0011
0000
,
0101
1000
0100
0010
0001
0100
0010
1000
0011
0100
0010
1000
0100
1000
0110
0000
,
1001
0100
0010
0001
1000
0100
0010
0001
0110
1000
0001
0100
0010
0100
0011
0000
,
1010
0100
0010
0001
1100
0010
0001
0010
1001
0100
0010
0100
0010
0100
0011
0000
,
1010
0001
0010
0100
1000
0001
0010
0100
1010
0001
0100
0010
1000
0100
0011
0000
,
1001
0100
0010
0001
0110
1000
0001
0010
1100
0001
0010
0001
1000
0100
1010
0000
,
0011
0100
1000
0100
0010
0001
0100
0010
1001
0100
0010
0001
0100
0010
1001
0000
,
1010
0001
0010
0100
1000
0001
0100
0001
1100
0010
0001
0100
0010
0100
0001
0010
,
0100
1000
0010
0100
0001
1000
0100
0010
0001
0100
0010
1000
0001
0010
0100
0010
,
0002
0000
0000
0000
2003
0000
0000
0000
3010
0100
0010
1000
0001
0010
0100
1000
,
0010
1000
0100
0010
0100
1000
0001
0100
0010
0100
0001
1000
0100
1000
0001
0100
,
0002
0000
0000
0000
2003
0000
0000
0000
3001
1000
0010
0100
0001
1000
0100
1000
,
0001
0010
0100
1000
0010
0100
0010
1000
0100
0010
0001
0100
0010
1000
0100
0010
,
0200
0000
0000
0000
2300
0000
0000
0000
3100
0010
0001
0100
0010
0100
0001
0010
,
0100
1000
0001
0100
0001
1000
0010
1000
0220
0000
0000
0330
0022
0000
0000
0033
,
2020
0000
0000
3030
2200
0000
0000
3300
0001
0010
0100
1000
0001
0100
0001
1000
,
0010
1000
0100
0010
0001
0100
0001
0010
0100
1000
0010
1000
0100
0010
0001
1000
,
0020
0000
0000
0000
2030
0000
0000
0000
3001
0100
0010
1000
0100
0010
0001
1000
,
0100
0010
0100
1000
0001
0100
0001
0010
0100
0010
0001
0010
0001
1000
0100
0010
,
0200
0000
0000
0000
0320
0000
0000
0000
0031
0010
0100
1000
0100
0010
0001
0010
,
0100
1000
0001
0100
0001
1000
0010
1000
0100
0010
0001
0100
0010
0100
0001
0010
,
0200
0000
0000
0000
2300
0000
0000
0000
3001
0010
0001
1000
0100
1000
0001
0010
,
0001
1000
0010
1000
0001
0010
0100
1000
0022
0000
0000
0033
0220
0000
0000
0330
,
2002
0000
0000
3003
0022
0000
0000
0033
1000
0100
0010
0001
0100
0010
0100
0001
,
0010
0001
1000
0010
1000
0100
0010
0001
0100
0010
0100
0001
0010
0100
1000
0010
,
0100
0001
0010
0100
1000
0001
0100
0001
1000
0100
1000
0001
0100
0010
0100
0001
,
1000
0100
1000
0001
0010
0100
0010
0001
1000
0001
0010
0100
0010
0001
1000
0010
,
0100
0001
1000
0100
0010
0001
1000
0010
0100
0010
1000
0001
0010
0100
1000
0100
,
0010
0001
1000
0010
1000
0001
0100
0010
1000
0010
0100
0001
1000
0010
1000
0001
,
0010
0100
0010
0001
1000
0001
0010
0001
1000
0100
0010
0001
0100
0010
1000
0001
,
0010
0100
1000
0010
0100
0001
0010
0100
0010
0001
1000
0010
1000
0001
0010
0001
,
0100
0010
1000
0100
1000
0001
0100
0001
0010
0100
1000
0010
0100
0001
0010
0100
,
1000
0100
0010
0001
1000
0010
1000
0001
0100
0001
0010
0100
1000
0010
0100
0010
,
1000
0100
0010
0100
1000
0010
0100
0010
1000
0100
0010
0100
1000
0010
0100
0010
,
1000
0001
0100
0010
0100
0001
1000
0010
0100
0001
0010
0100
1000
0010
0100
0001
,
1000
0100
0010
0001
0100
0001
0010
0100
1000
0010
0100
0001
0010
0001
1000
0010
,
1000
0100
0010
0001
1000
0100
1000
0001
0010
0001
1000
0100
1000
0001
0100
0001
,
0010
0100
1000
0010
1000
0100
0010
0001
1000
0100
1000
0001
0100
0001
1000
0010
,
1000
0001
0010
0100
1000
0010
1000
0100
0010
0001
0100
0010
1000
0001
0010
0100
,
1000
0010
0100
0001
0010
0100
1000
0100
0011
0000
0000
0000
1001
0000
0000
0000
,
1100
0110
1001
0011
,
1100
1001
0110
0101
,
1100
0000
0000
0000
1010
0000
0000
0000
0220
0000
0000
0000
0000
0330
1000
0001
,
2200
0000
0000
3300
0101
0000
0011
0000
,
1100
1010
0110
0101
,
1001
0000
0000
0000
1010
0000
0000
0000
1100
0010
0001
1000
0110
0000
1000
0000
,
0010
1001
0100
0010
1100
0010
0001
0100
,
1001
0100
0010
0001
0100
0010
0100
0001
1010
0000
0000
0000
0101
0000
0000
0000
,
0011
1100
1010
0110
,
0011
0000
0000
0000
1001
0000
0000
0000
2200
0000
0000
0000
0000
3300
0022
0000
,
0000
0000
0000
0033
1100
0000
0000
0000
2002
0000
0000
0000
3003
0000
1000
0001
,
0220
0000
0000
0000
0000
0000
0000
0330
1001
0000
0000
0000
0110
0000
0000
0000
,
1100
1010
1001
0011
,
0110
0000
0000
0000
0101
0000
0000
0000
1100
0010
0001
0100
0010
0100
0001
0010
,
0100
1000
0001
0100
0001
1000
0010
1000
0100
0010
0001
0100
0010
0100
0001
0010
,
0100
1000
0001
0100
0001
1000
0010
1000
0110
0001
1000
0100
0010
0001
0100
0010
,
2002
0000
0000
0000
0000
0000
0000
3003
0110
0001
1000
0010
1000
0001
0100
0001
,
0220
0000
0000
0000
0000
0000
0000
0330
1001
0010
0100
1000
0001
0100
0001
1000
,
0010
1000
0100
0010
0001
0010
0100
1000
0100
0010
0001
1000
0010
1000
0001
0010
,
0200
0000
0000
0000
0000
0000
0000
0300
1001
0100
0010
0001
0100
0010
1100
0000
,
0000
0000
0110
0000
1001
0000
0000
0000
0011
0100
1000
0010
0100
0001
1010
0000
,
0000
0000
0101
0000
0011
0000
0000
0000
1010
0001
0010
0100
1000
0001
0110
0000
,
0000
0000
1001
0000
0011
0000
0000
0000
1001
0100
0010
0001
1000
0100
0011
0000
,
0000
0000
1001
0000
1100
0000
0000
0000
1001
0100
0010
0001
0100
0010
0100
0001
,
0010
0100
1000
0010
0100
0010
1000
0100
0010
0001
1000
0010
1000
0001
0100
0001
,
0010
0100
1000
0001
0100
0001
1000
0100
1000
0010
0100
0001
0010
0100
1000
0001
,
0010
0001
1000
0010
1000
0100
0010
0001
0100
0010
1000
0001
0010
0100
1000
0010
,
0100
0001
0010
0100
1000
0001
0100
0001
2000
0000
0000
0000
0000
0000
0000
0000
,
0000
0000
0000
0000
0000
0000
0000
3000
0200
0000
0000
0000
0000
0000
0000
0300
,
0002
0000
0000
0000
0000
0000
0000
0003
2000
0000
0000
3000
0100
0010
0001
1000
,
0020
0000
0000
0000
1030
0000
0001
0000
1000
0100
0010
0001
1000
0001
1000
0010
,
0200
0000
0000
0000
0000
0000
0000
0300
1001
0010
0100
0010
0001
0100
0010
1000
,
0010
0100
0010
1000
0001
0010
0100
1000
0001
0100
0001
1000
0010
0100
0001
0010
,
0100
1000
0010
0100
0001
0010
0001
1000
0010
1000
0100
0010
0001
1000
0010
0100
,
0001
0010
0001
1000
0010
1000
0100
0010
0001
0100
0010
1000
0100
0010
0001
0100
,
0010
0000
0000
1000
0000
0000
0001
0000
0000
1000
0000
0000
0001
0000
0000
0010
0000
0000
0100
0000
0000
1000
0000
0000
0001
0000
0010
0000
0001
0000
1000
0000
0010
0000
1000
0000
0100
0000
0010
0000
0001
0000
0100
0000
0010
0000
0100
0000
,
0001
0010
0100
1000
0001
0100
0001
1000
0010
1000
0001
0100
0010
0100
0001
1000
0010
0100
0001
0010
0100
1000
0001
0010
,
0200
0000
0000
0000
0000
0300
0010
1000
0100
0010
0001
0100
0010
1000
0100
0010
0001
1000
0100
1000
0001
0010
0001
0100
,
0010
1000
0100
0010
0001
1000
0100
1000
0010
0100
0001
0010
0200
0000
0000
0000
0000
0000
0000
0000
0000
0000
0000
0000
,
0000
0000
0000
0000
0000
0000
0000
0000
0000
0000
0000
0000
0000
0000
0000
0000
0000
0000
0000
0000
0000
0300
0000
0000
1000
0000
0000
0000
0001
0000
0000
0000
0100
0000
0000
0000
0010
0000
0000
0000
0100
0000
0000
0000
0001
0000
0000
0000
,
1000
0010
1000
0001
0010
0100
1000
0010
0100
0001
0010
0001
,
1000
0010
1000
0100
0010
0001
2000
0000
0000
0000
0000
0000
,
0000
0000
0000
0000
0000
0000
0000
0000
0000
3000
0000
0000
1000
0100
0010
0100
1000
0001
0100
0010
1000
0100
0010
0001
,
0100
0000
0010
0000
1000
0000
0100
0000
0010
0000
0001
0000
1000
0000
0100
0000
0010
0000
0100
0000
1000
0000
0001
0000
0220
0000
0000
0000
0000
0000
0000
0000
0000
0330
0000
0000
2002
0000
0000
0000
0000
0000
0000
0000
0000
3003
0000
0000
,
2200
0000
0000
3300
2020
0000
0000
3030
0102
0000
0010
0000
0100
0000
0010
0000
,
0100
0000
0010
0000
0100
0000
0010
0003
0220
0000
0000
0000
0000
0000
0000
0000
,
0000
0000
0000
0000
0000
0000
0000
0000
0000
0000
0000
0000
0000
0000
0000
0000
0000
0000
0000
0000
0000
0330
0000
0000
1001
0000
0000
0000
0100
0000
0000
0000
0010
0000
0000
0000
1100
0000
0000
0000
0010
0000
0000
0000
0001
0000
0000
0000
,
0110
1000
0001
1010
0001
0100
0011
1000
0100
0011
1000
0010
,
0101
0010
0100
1001
0010
0100
1001
0100
0010
0001
0000
0000
,
1100
0010
0100
0001
0000
0000
0110
1000
0001
0100
0010
1000
,
0001
0100
0010
0100
0001
0010
1100
0010
0001
1010
0001
0010
,
1100
0010
0001
0110
1000
0001
1010
0001
1000
0110
0001
0100
,
1001
0100
0010
1001
0100
1000
0011
0100
0010
1100
0010
0001
,
0110
1000
0001
1010
0001
0100
0011
1000
0001
0110
1000
0100
,
0011
0100
1000
0101
0010
0100
1001
0100
0010
1100
0001
0100
,
1010
0100
0001
0110
0001
1000
0101
0010
0100
1010
0100
0001
,
0110
1000
0001
1010
0100
0010
2002
0000
0000
0000
0000
0000
,
0000
0000
0000
0000
0000
3003
1100
0010
0001
1000
0010
0100
,
0001
0010
0100
1000
0001
0100
0011
0100
1000
0101
0010
1000
,
0110
0001
1000
0011
1000
0001
1010
0100
0010
1001
0100
1000
,
0110
0001
0100
1010
0001
0100
0011
1000
0100
0011
1000
0001
,
1010
0001
1000
0110
0001
0100
0011
1000
0001
1010
0100
0010
,
1100
0001
0100
0011
1000
0010
1001
0100
0010
1001
0010
1000
,
0110
0001
1000
0011
1000
0010
1100
0001
0100
1010
0001
0100
,
0011
1000
0010
1100
0010
0100
2002
0000
0000
0000
0000
0000
,
0000
0000
0000
0000
0000
3003
0001
0100
0010
1000
0001
0100
,
0010
0000
0000
0000
1000
0000
0000
0000
0100
0000
0000
0000
0010
0000
0000
0000
0001
0000
0000
0000
0100
0000
0000
0000
0011
0000
0000
1000
0000
0000
0100
0000
0000
0010
0000
0000
0100
0000
0000
1000
0000
0000
0001
0000
0000
0100
0000
0000
,
0010
0100
0001
1000
0010
0100
0001
0010
0100
1000
0001
0010
0100
0010
0001
1000
,
0200
0000
0000
0000
0302
0000
0000
0000
0013
1000
0010
0100
0001
1000
0100
0010
,
0001
1000
0100
0010
0001
1000
0100
0010
0100
1000
0010
1000
0100
0010
0100
1000
,
0002
0000
0000
0000
2003
0000
0000
0000
3100
0010
0001
1000
0010
0100
0001
0010
,
0100
1000
0010
0100
0010
1000
0001
0100
0010
1000
0100
0010
0001
0100
0010
1000
,
0200
0000
0000
0000
0320
0000
0000
0000
0031
1000
0010
1000
0001
0100
0010
0100
,
0001
1000
0010
0100
0010
1000
0001
1000
0022
0000
0000
0033
2020
0000
0000
3030
,
2200
0000
0000
3300
0220
0000
0000
0330
1001
0100
0010
0001
1000
0010
1000
0001
,
0100
0001
1000
0010
1000
0001
0010
0001
0100
0010
0100
0001
0010
0001
1000
0010
,
2000
0000
0000
0000
3002
0000
0000
0000
0103
0001
1000
0010
1000
0001
0010
0001
,
1000
0010
1000
0001
0010
0001
1000
0010
0100
0001
0010
0100
1000
0001
0010
0100
,
2000
0000
0000
0000
3200
0000
0000
0000
0310
0001
1000
0010
1000
0001
0100
0010
,
0100
0001
1000
0010
0100
0001
0010
0100
1000
0001
0100
0001
1000
0010
1000
0100
,
0020
0000
0000
0000
0230
0000
0000
0000
1300
0001
1000
0001
0010
0100
0010
0001
,
1000
0010
1000
0001
0100
0010
0100
0001
2200
0000
0000
3300
2002
0000
0000
3003
,
0022
0000
0000
0033
0202
0000
0000
0303
0110
1000
0001
0010
0001
1000
0100
0010
,
1001
0010
0100
1000
0100
0010
0100
1000
0001
0100
0001
0010
0100
0010
0001
1000
,
0010
0100
0001
0010
0100
1000
0001
0010
0100
0010
0001
0100
0010
0100
0001
0010
,
0001
1000
0010
1000
0100
0010
0001
1000
0010
1000
0100
0010
0100
1000
0010
1000
,
0001
1000
0100
0010
0100
0010
0001
1000
0010
0100
0001
0010
0100
1000
0001
0100
,
0001
1000
0010
0100
0001
0010
0100
1000
0001
0100
0001
1000
0010
0100
0010
1000
,
0001
0010
0100
0010
0001
1000
0010
1000
0100
0010
0001
0010
0100
1000
0010
1000
,
0100
0010
0001
0010
0100
1000
0001
0010
0001
1000
0100
1000
0001
0010
0100
1000
,
0010
1000
0100
0010
0001
1000
0010
1000
0001
0100
0010
1000
0100
0010
0001
0010
,
0100
0010
0100
1000
0001
0100
0001
1000
0010
1000
0001
0010
0001
1000
0100
0010
,
0100
1000
0001
0010
0100
0010
0001
0100
0001
0010
0100
1000
0100
0010
0001
1000
,
0010
1000
0001
0100
0010
1000
0100
0010
0100
1000
0001
0010
0100
1000
0001
1000
,
0010
0100
0001
0010
0100
0010
0001
0100
0010
1000
0001
1000
0100
0010
0100
1000
,
0001
0010
0100
1000
0001
0010
0100
1000
0001
0100
0001
1000
0010
1000
0100
0010
,
0001
0100
0010
1000
0100
0010
0001
1000
0010
1000
0001
0100
0001
1000
0100
1000
,
0010
0100
0001
0010
0001
1000
0100
0010
0001
0010
0001
0100
0010
1000
0100
0010
,
0001
1000
0010
1000
0001
0100
0010
1000
0010
0100
0001
0010
0100
1000
0010
0100
,
0011
1100
1010
0110
,
1001
0011
0110
1100
,
1001
0011
0110
1001
,
2200
0000
0000
0000
0000
3300
0001
0100
0022
0000
0000
0000
0000
0000
0000
0033
,
1010
0110
1001
0011
,
1010
0110
1001
0011
,
0101
1000
0110
0001
1000
1100
0001
0100
,
0011
0100
1000
0010
0100
0001
0010
0001
1000
0010
1000
0100
0010
0001
0100
0010
,
1100
1001
0011
1001
,
0110
1100
1001
0101
,
0110
1100
0101
1100
,
0220
0000
0000
0000
0000
0330
1000
0001
2020
0000
0000
0000
0000
0000
0000
3030
,
0101
0011
1010
0110
,
1001
0011
1010
0110
,
2002
0000
0000
0000
0000
0000
0000
0000
0000
0000
0000
0000
0000
0000
0000
3003
,
1000
0100
0010
0001
0100
0010
0100
0001
0010
0100
1000
0001
1000
0100
0010
0001
,
2200
0000
0000
3300
2020
0000
0000
3030
0220
0000
0000
0330
2002
0000
0000
3003
,
0022
0000
0000
0033
0202
0000
0000
0303
2200
0000
0000
3300
2002
0000
0000
3003
,
0022
0000
0000
0000
0000
0000
0000
0033
0220
0000
0000
0330
2020
0000
0000
3030
,
2002
0000
0000
0000
0000
3003
0100
0010
2200
0000
0000
0000
0000
0000
0000
3300
,
0022
0000
0000
0033
2200
0000
0000
3300
2020
0000
0000
3030
0202
0000
0000
0303
,
0022
0000
0000
0033
2020
0000
0000
3030
0220
0000
0000
0330
2200
0000
0000
3300
,
2002
0000
0000
0000
,
0000
0000
0000
0000
0000
3003
0000
0000
1000
0100
1000
0001
0010
0001
0100
0010
,
1001
0010
0100
1000
0001
0100
0001
1000
0010
1000
0100
0010
0001
0100
0010
1000
,
0100
0010
0001
0010
0100
1000
0001
0100
0001
1000
0010
0100
0001
0010
0100
1000
,
0010
0100
0001
0010
0100
1000
0001
0010
0001
1000
0100
0010
0100
1000
0001
0100
,
0010
0100
0001
1000
0010
0100
0001
0010
0100
1000
0001
0100
0001
1000
0010
1000
,
0100
0010
0001
0100
0010
1000
0100
0010
0001
1000
0010
1000
0001
0010
0001
0100
,
0010
1000
0100
0010
0100
1000
0001
0100
0001
1000
0100
0010
0100
1000
0010
1000
,
0100
0010
0001
0100
0001
0010
0100
1000
0001
1000
0001
0100
0010
1000
0100
0010
,
0001
0010
0100
1000
0001
0100
0001
1000
0010
1000
0100
0010
0100
1000
0001
0100
,
0022
0000
0000
0000
0000
0000
0000
0000
0000
0000
0000
0000
0000
0000
0000
0033
,
0220
0000
0000
0000
0000
0000
0000
0000
0000
0000
0000
0000
0000
0000
0000
0330
,
2002
0000
0000
0000
0000
0000
0000
0000
0000
0000
0000
0000
0000
0000
0000
3003
,
0100
0010
0001
0100
0010
0100
0001
0010
0100
1000
0001
0100
0001
1000
0100
1000
,
0202
0000
0000
0000
0000
0000
0000
0303
1000
0100
1000
0001
0100
0010
1000
0001
,
0220
0000
0000
0000
0000
0000
0000
0330
1000
0001
1000
0100
0010
0001
1000
0010
,
2200
0000
0000
0000
0000
0000
0000
3300
2002
0000
0000
0000
0000
0000
0000
3003
,
0220
0000
0000
0000
0000
0000
0000
0330
2020
0000
0000
0000
0000
0000
0000
3030
,
2002
0000
0000
0000
,
0000
0000
0000
0000
0000
0000
0000
3003
0000
0000
0000
0000
0000
0000
0000
0000
;
