#TITLE:Empire Of The Sick;
#SUBTITLE:;
#ARTIST:Dj-DEADLY;
#TITLETRANSLIT:;
#SUBTITLETRANSLIT:;
#ARTISTTRANSLIT:;
#CREDIT:;
#BANNER:banner.png;
#BACKGROUND:background.png;
#LYRICSPATH:;
#CDTITLE:!MoDtitle.png;
#MUSIC:EmpireOfTheSick.mp3;
#OFFSET:-0.037;
#SAMPLESTART:30.020;
#SAMPLELENGTH:12.000;
#SELECTABLE:YES;
#BPMS:0.000=200.000,331.000=100.000,379.000=200.000,426.000=100.000,435.000=200.000,477.000=100.000,528.000=200.000,560.000=25.000,573.000=200.000;
#STOPS:;
#BGCHANGES:;
// cache tags:
#FIRSTBEAT:0.000;
#LASTBEAT:749.000;
#SONGFILENAME:Songs/Bemani.se Megapack/(MoD) EmpireOfTheSick/EmpireOfTheSick.sm;
#HASMUSIC:1;
#HASBANNER:1;
#MUSICLENGTH:286.458;
// end cache tags

//---------------dance-single - Blank----------------
#NOTES:
     dance-single:
     Blank:
     Hard:
     13:
     1.000,1.000,1.000,0.189,0.595,1669.000,553.000,54.000,0.000,1.000:

1000
0100
0010
0001
0010
0100
1000
0100
,
0010
0100
1000
0010
0100
0001
1000
0010
,
0100
0001
0100
1000
0100
0010
1000
0100
,
0010
0001
0010
0100
0010
0001
0010
0100
,
1000
0100
0010
0100
1000
0100
0010
0001
,
0010
1000
0010
0001
0100
1000
0100
1000
,
0100
0010
0001
0010
1000
0100
1000
0001
,
0100
0010
1000
0100
0010
1000
0010
0001
,
0010
0100
1000
0010
0100
0001
1000
0010
,
1000
0001
0100
0010
1000
0100
0010
0001
,
1000
0100
0010
0001
1000
0100
0010
0001
1000
0100
0010
0001
1000
0100
0010
0001
,
1000
0100
0000
0000
0000
0000
0100
0010
0000
0000
0000
0000
0010
0001
0000
0000
0000
0000
0001
0100
0000
0000
0000
0000
1000
0010
0000
0000
0000
0000
0100
0001
0000
0000
0000
0000
0010
0100
0000
0000
0000
0000
0100
1000
0000
0000
0000
0000
,
0001
0010
0000
0000
0000
0000
0010
1000
0000
0000
0000
0000
0100
0001
0000
0000
0000
0000
0010
0001
0000
0000
0000
0000
0100
1000
0000
0000
0000
0000
0010
0100
0000
0000
0000
0000
0100
0001
0000
0000
0000
0000
0100
1000
0000
0000
0000
0000
,
0010
0001
0000
0000
0000
0000
0100
0010
0000
0000
0000
0000
0001
0100
0000
0000
0000
0000
1000
0100
0000
0000
0000
0000
0100
1000
0000
0000
0000
0000
0010
0001
0000
0000
0000
0000
0100
0010
0000
0000
0000
0000
1000
0100
0000
0000
0000
0000
,
0100
0010
0000
0000
0000
0000
1000
0001
0000
0000
0000
0000
0100
0010
0000
0000
0000
0000
0001
1000
0000
0000
0000
0000
0100
0000
0000
0010
0000
0000
1000
0100
0000
0000
0000
0000
0001
0010
0000
0000
0000
0000
1000
0100
0000
0000
0000
0000
,
0010
0001
0000
0000
0000
0000
1000
0100
0000
0000
0000
0000
0010
0100
0000
0000
0000
0000
0001
0010
0000
0000
0000
0000
0100
0010
0000
0000
0000
0000
1000
0001
0000
0000
0000
0000
0100
1000
0000
0000
0000
0000
0001
0010
0000
0000
0000
0000
,
0100
0010
0000
0000
0000
0000
1000
0001
0000
0000
0000
0000
0100
0010
0000
0000
0000
0000
0100
1000
0000
0000
0000
0000
0001
0100
0000
0000
0000
0000
0010
0001
0000
0000
0000
0000
0100
1000
0000
0000
0000
0000
0010
0001
0000
0000
0000
0000
,
0100
1000
0000
0000
0000
0000
0001
0100
0000
0000
0000
0000
1000
0100
0000
0000
0000
0000
0001
0100
0000
0000
0000
0000
0010
1000
0000
0000
0000
0000
0100
0001
0000
0000
0000
0000
0001
0010
0000
0000
0000
0000
0100
0010
0000
0000
0000
0000
,
1000
0000
0000
0000
0100
0000
0000
0000
0000
0000
0000
0000
0000
0000
0000
0000
0000
0000
0000
0000
0000
0000
0000
0000
0010
0000
0000
0000
0001
0000
0000
0000
0000
0000
0000
0000
0000
0000
0000
0000
0000
0000
0000
0000
0000
0000
0000
0000
0100
0000
0000
0000
0010
0000
0000
0000
0000
0000
0000
0000
0000
0000
0000
0000
0000
0000
0000
0000
0000
0000
0000
0000
1000
0000
0000
0000
0100
0000
0000
0000
0000
0000
0000
0000
0000
0000
0000
0000
0000
0000
0000
0000
0000
0000
0000
0000
0010
0000
0000
0000
0000
0000
0000
0000
0000
0000
0000
0000
0100
0000
0000
0000
0000
0000
0000
0000
0000
0000
0000
0000
0001
0000
0000
0000
0000
0000
0000
0000
0000
0000
0000
0000
0000
0000
0000
0000
0000
0000
0000
0000
0000
0000
0000
0000
1000
0000
0000
0000
0000
0000
0000
0000
0000
0000
0000
0000
0100
0000
0000
0000
0000
0000
0000
0000
0000
0000
0000
0000
0010
0000
0000
0000
0000
0000
0100
0000
0000
0000
0000
0000
1000
0000
0000
0000
0000
0000
0001
0000
0000
0000
0000
0000
,
0120
0000
0000
0000
0000
0000
0000
0000
0001
0000
0000
0000
0000
0000
0000
0000
0001
0000
0000
0000
0000
0000
0000
0000
0001
0000
0000
0000
0000
0000
0000
0030
0020
0000
0000
0000
0000
0000
0000
0000
0001
0000
0000
0000
0000
0000
0000
0000
0001
0000
0000
0000
0000
0000
0000
0000
0001
0000
0000
0000
0000
0000
0000
0030
,
0020
0000
0000
0000
0000
0000
0000
0000
0001
0000
0000
0000
0000
0000
0000
0000
0001
0000
0000
0000
0000
0000
0000
0000
0001
0000
0000
0000
0000
0000
0000
0030
0020
0000
0000
0000
0000
0000
0000
0000
0001
0000
0000
0000
0000
0000
0000
0000
0001
0000
0000
0000
0000
0000
0000
0000
0001
0000
0000
0000
0000
0000
0000
0030
,
0020
0000
0000
0000
0000
0000
0000
0000
0001
0000
0000
0000
0000
0000
0000
0000
0001
0000
0000
0000
0000
0000
0000
0000
0001
0000
0000
0000
0000
0000
0000
0030
0020
0000
0000
0000
0000
0000
0000
0000
0001
0000
0000
0000
0000
0000
0000
0000
0001
0000
0000
0000
0000
0000
0000
0000
0001
0000
0000
0000
0000
0000
0000
0030
,
0020
0000
0000
0000
0000
0000
0000
0000
0001
0000
0000
0000
0000
0000
0000
0000
0001
0000
0000
0000
0000
0000
0000
0000
0001
0000
0000
0000
0000
0000
0000
0030
0020
0000
0000
0000
0000
0000
0000
0000
0001
0000
0000
0000
0000
0000
0000
0000
0001
0000
0000
0000
0000
0000
0000
0000
0001
0000
0000
0000
0000
0000
0000
0030
,
0020
0000
0000
0000
0000
0000
0000
0000
0001
0000
0000
0000
0000
0000
0000
0000
0001
0000
0000
0000
0000
0000
0000
0000
0001
0000
0000
0000
0000
0000
0000
0030
0020
0000
0000
0000
0000
0000
0000
0000
0001
0000
0000
0000
0000
0000
0000
0000
0001
0000
0000
0000
0000
0000
0000
0000
0001
0000
0000
0000
0000
0000
0000
0030
,
0020
0000
0000
0000
0000
0000
0000
0000
0001
0000
0000
0000
0000
0000
0000
0000
0001
0000
0000
0000
0000
0000
0000
0000
0001
0000
0000
0000
0000
0000
0000
0030
0020
0000
0000
0000
0000
0000
0000
0000
0001
0000
0000
0000
0000
0000
0000
0000
0001
0000
0000
0000
0000
0000
0000
0000
0001
0000
0000
0000
0000
0000
0000
0030
,
0020
0000
0000
0000
0000
0000
0000
0000
0001
0000
0000
0000
0000
0000
0000
0000
0001
0000
0000
0000
0000
0000
0000
0000
0001
0000
0000
0000
0000
0000
0000
0030
0020
0000
0000
0000
0000
0000
0000
0000
0001
0000
0000
0000
0000
0000
0000
0000
0001
0000
0000
0000
0000
0000
0000
0000
0001
0000
0000
0000
0000
0000
0000
0030
,
0020
0000
0001
0000
0001
0000
0001
0030
1000
0100
0010
0001
0010
0100
1000
0100
,
0011
0100
1010
0001
0110
0001
1100
0010
,
0101
1000
0110
0010
1001
0100
0011
0001
,
1010
0100
0110
0001
1010
0100
1001
0001
,
0110
0100
1010
0001
0110
1000
0101
0010
,
1100
0100
0101
0010
1001
0100
0110
0001
,
1100
0001
1010
0100
0011
1000
0110
0001
,
1010
0100
0011
0100
1010
0001
0110
1000
,
0101
0001
0110
1000
0101
1000
0110
0001
,
1010
0001
0110
1000
0101
0010
1010
0100
,
0011
0110
1001
1100
0011
1100
0110
0011
,
1100
0100
0101
0010
1010
0001
1100
0010
,
0101
1010
0101
1010
0110
0101
0110
1001
,
1010
0010
0011
1000
0110
0001
0110
1000
,
0011
0000
0110
0000
0101
0000
1100
0000
0001
0010
0100
1000
0001
0010
0100
1000
,
0002
0000
0000
0000
0000
0000
0000
0000
0000
0000
0000
0000
0000
0000
0000
0000
0000
0000
0000
0000
0000
0000
0000
0000
1000
0000
0000
0000
0000
0000
0000
0000
0000
0000
0000
0000
0000
0000
0000
0000
0000
0000
0000
0000
0000
0000
0000
0000
0010
0000
0000
0000
0000
0000
0000
0000
0000
0000
0000
0000
0000
0000
0000
0000
0000
0000
0000
0000
0000
0000
0000
0000
0100
0000
0000
0000
0000
0000
0000
0000
0000
0000
0000
0000
0000
0000
0000
0000
0000
0000
0000
0000
0000
0003
0000
0000
0002
0000
0000
0000
0000
0000
0000
0000
0000
0000
0000
0000
0000
0000
0000
0000
0000
0000
0000
0000
0000
0000
0000
0000
1000
0000
0000
0000
0000
0000
0000
0000
0000
0000
0000
0000
0000
0000
0000
0000
0000
0000
0000
0000
0000
0000
0000
0000
0010
0000
0000
0000
0000
0000
0000
0000
0000
0000
0000
0000
0000
0000
0000
0000
0000
0000
0000
0000
0000
0000
0000
0000
0100
0000
0000
0000
0000
0000
0000
0000
0000
0000
0000
0000
0000
0000
0000
0000
0000
0000
0000
0000
0003
0000
0000
0000
,
0002
0000
0000
0000
0000
0000
1000
0000
0000
0000
0000
0000
0010
0000
0000
0000
0000
0000
0100
0000
0000
0000
0000
0003
0002
0000
0000
0000
0000
0000
1000
0000
0000
0000
0000
0000
0010
0000
0000
0000
0000
0000
0100
0000
0000
0000
0000
0003
,
0002
0000
0000
0000
0000
0000
1000
0000
0000
0000
0000
0000
0010
0000
0000
0000
0000
0000
0100
0000
0000
0000
0000
0003
0002
0000
0000
0000
0000
0000
1000
0000
0000
0000
0000
0000
0010
0000
0000
0000
0000
0000
0100
0000
0000
0000
0000
0003
,
0002
0000
0000
0000
0000
0000
1000
0000
0000
0000
0000
0000
0010
0000
0000
0000
0000
0000
0100
0000
0000
0000
0000
0003
0002
0000
0000
0000
0000
0000
1000
0000
0000
0000
0000
0000
0010
0000
0000
0000
0000
0000
0100
0000
0000
0000
0000
0003
,
0002
0000
0000
0000
0000
0000
1000
0000
0000
0000
0000
0000
0010
0000
0000
0000
0000
0000
0100
0000
0000
0000
0000
0003
0002
0000
0000
0000
0000
0000
1000
0000
0000
0000
0000
0000
0010
0000
0000
0000
0000
0000
0100
0000
0000
0000
0000
0003
,
0002
0000
0000
0000
0000
0000
1000
0000
0000
0000
0000
0000
0010
0000
0000
0000
0000
0000
0100
0000
0000
0000
0000
0003
0002
0000
0000
0000
0000
0000
1000
0000
0000
0000
0000
0000
0010
0000
0000
0000
0000
0000
0100
0000
0000
0000
0000
0003
,
0002
0000
0000
0000
0000
0000
1000
0000
0000
0000
0000
0000
0010
0000
0000
0000
0000
0000
0100
0000
0000
0000
0000
0003
0002
0000
0000
0000
0000
0000
1000
0000
0000
0000
0000
0000
0010
0000
0000
0000
0000
0000
0100
0000
0000
0000
0000
0003
,
0002
0000
0000
0000
0000
0000
1000
0000
0000
0000
0000
0000
0010
0000
0000
0000
0000
0000
0100
0000
0000
0000
0000
0003
0002
0000
0000
0000
0000
0000
1000
0000
0000
0000
0000
0000
0010
0000
0000
0000
0000
0000
0100
0000
0000
0000
0000
0003
,
0002
0000
0000
0000
0000
0000
1000
0000
0000
0000
0000
0000
0010
0000
0000
0000
0000
0000
0100
0000
0000
0000
0000
0003
0002
0000
0000
0000
0000
0000
1000
0000
0000
0000
0000
0000
0010
0000
0000
0000
0000
0000
0100
0000
0000
0000
0000
0003
,
0002
0000
0000
0000
0000
0000
1000
0000
0000
0000
0000
0000
0010
0000
0000
0000
0000
0000
0100
0000
0000
0000
0000
0003
0002
0000
0000
0000
0000
0000
1000
0000
0000
0000
0000
0000
0010
0000
0000
0000
0000
0000
0100
0000
0000
0000
0000
0003
,
0002
0000
0000
0000
0000
0000
1000
0000
0000
0000
0000
0000
0010
0000
0000
0000
0000
0000
0100
0000
0000
0000
0000
0003
0002
0000
0000
0000
0000
0000
1000
0000
0000
0000
0000
0000
0010
0000
0000
0000
0000
0000
0100
0000
0000
0000
0000
0003
,
0002
0000
0000
0000
0000
0000
1000
0000
0000
0000
0000
0000
0010
0000
0000
0000
0000
0000
0100
0000
0000
0000
0000
0003
0002
0000
0000
0000
0000
0000
1000
0000
0000
0000
0000
0000
0010
0000
0000
0000
0000
0000
0100
0000
0000
0000
0000
0003
,
0002
0000
0000
0000
0000
0000
0000
0000
0000
0000
0000
0000
0000
0000
0000
0000
0000
0000
0000
0000
0000
0000
0000
0000
1000
0000
0000
0000
0000
0000
0000
0000
0000
0000
0000
0000
0000
0000
0000
0000
0000
0000
0000
0000
0000
0000
0000
0000
0010
0000
0000
0000
0000
0000
0000
0000
0000
0000
0000
0000
0000
0000
0000
0000
0000
0000
0000
0000
0000
0000
0000
0000
0100
0000
0000
0000
0000
0000
0000
0000
0000
0000
0000
0000
0000
0000
0000
0000
0000
0000
0000
0000
0003
0000
0000
0000
0002
0000
0000
0000
0000
0000
0000
0000
0000
0000
0000
0000
0000
0000
0000
0000
0000
0000
0000
0000
0000
0000
0000
0000
1000
0000
0000
0000
0000
0000
0000
0000
0000
0000
0000
0000
0000
0000
0000
0000
0000
0000
0000
0000
0000
0000
0000
0000
0010
0000
0000
0000
0000
0000
0000
0000
0000
0000
0000
0000
0000
0000
0000
0000
0000
0000
0000
0000
0000
0000
0000
0000
0100
0000
0000
0000
0000
0000
0000
0000
0000
0000
0000
0000
0000
0000
0000
0000
0000
0000
0000
0000
0000
0003
0000
0000
,
0002
0000
0000
0000
0000
0000
0000
0000
1000
0000
0000
0000
0000
0000
0000
0000
0010
0000
0000
0000
0000
0000
0000
0000
0100
0000
0000
0000
0000
0000
0000
0003
0002
0000
0000
0000
0000
0000
0000
0000
1000
0000
0000
0000
0000
0000
0000
0000
0010
0000
0000
0000
0000
0000
0000
0000
0100
0000
0000
0000
0000
0000
0000
0003
,
0002
0000
0000
0000
0000
0000
0000
0000
1000
0000
0000
0000
0000
0000
0000
0000
0010
0000
0000
0000
0000
0000
0000
0000
0100
0000
0000
0000
0000
0000
0000
0003
0002
0000
0000
0000
0000
0000
0000
0000
1000
0000
0000
0000
0000
0000
0000
0000
0010
0000
0000
0000
0000
0000
0000
0000
0100
0000
0000
0000
0000
0000
0000
0003
,
0002
0000
0000
0000
0000
0000
0000
0000
1000
0000
0000
0000
0000
0000
0000
0000
0010
0000
0000
0000
0000
0000
0000
0000
0100
0000
0000
0000
0000
0000
0000
0003
1000
0000
0000
0000
0100
0000
0000
0000
0010
0000
0000
0000
0001
0000
0000
0000
1000
0000
0000
0000
0100
0000
0000
0000
0010
0000
0000
0000
0001
0000
0000
0000
,
1000
0100
0010
0001
1000
0100
0010
0001
1000
0100
0010
0001
1000
0100
0010
0001
,
1000
0000
0100
0000
0010
0000
0001
0000
1000
0000
0100
0000
0010
0000
0001
0000
1000
0100
0010
0001
1000
0100
0010
0001
1000
0100
0010
0001
1000
0100
0010
0001
,
1000
0100
1000
0100
0011
0000
0000
0000
1010
0000
1000
0001
0110
0000
0000
0000
,
0010
0000
0000
0000
0010
0000
0001
0010
1100
0000
0000
0000
0000
0000
0000
0000
1010
0000
0000
0000
0010
0000
1000
0000
0101
0000
0000
0000
0010
0000
0000
0000
,
1100
0000
1000
0010
0101
0000
0000
0000
1001
0000
0001
0010
0101
0000
1000
0000
,
0010
0000
0010
0001
1100
0000
0000
0000
0100
0000
0100
1000
0011
0000
0000
0000
,
1000
0000
1000
0010
0101
0000
0000
0000
0010
0000
1000
0100
1010
0000
0110
0000
,
0001
0000
0010
0100
0010
0000
0101
0000
0010
0000
1000
0010
1000
0000
0101
0000
,
0010
0000
0001
0100
0001
0000
1100
0000
0010
0000
0100
0001
0100
0000
1100
0000
,
0010
0000
0000
0000
1000
0000
0010
0000
1000
0000
0000
0000
0110
0000
0000
0100
1001
0000
0000
0000
1001
0000
0000
0000
1001
0000
0000
0000
1001
0000
0000
0000
,
1001
1001
0110
0110
0110
0110
0110
0110
,
0110
0110
1100
1100
1100
1100
1100
1100
,
1100
1100
0011
0011
0011
0011
0011
0011
,
0011
0011
1010
1010
1010
1010
1010
1010
,
1010
1010
0101
0101
0101
0101
0101
0101
,
0101
0101
0110
0110
0110
0110
0110
0110
,
0110
0110
1001
1001
1001
1001
1001
1001
,
1001
1001
1010
1010
1010
1010
1010
1010
,
1010
1010
0011
0011
0011
0011
0011
0011
,
0011
0011
1100
1100
1100
1100
1100
1100
,
1100
1100
0101
0101
0101
0101
0101
0101
,
0101
0101
1001
1001
1001
1001
1001
1001
,
1001
1001
1010
1010
1010
1010
1010
1010
,
1010
1010
0101
0101
0101
0101
0101
0101
,
0101
0101
0011
0011
0011
0011
0011
0011
,
0011
0011
1100
1100
1100
1100
1001
0010
,
2001
0001
3001
0001
0001
0001
0001
0001
,
1000
1000
1000
1000
1000
1000
1000
1000
,
0010
0010
0010
0010
0010
0010
0010
0010
,
0100
0100
0100
0100
0100
0100
0100
0100
,
1010
0101
1010
0101
0011
1100
0011
1100
,
0110
1001
0110
1001
1010
0101
1010
0101
,
1001
0110
1001
0110
1001
0110
1001
0110
,
0011
0000
1100
0000
0011
0000
1100
0000
0011
0000
1100
0000
0011
0010
1100
0000
,
0001
1100
0001
1100
0001
1100
0001
1001
,
0010
0000
0000
0000
0000
0000
1001
0000
0000
0000
0000
0000
0010
0000
0000
0000
0000
0000
1001
0000
0000
0000
0000
0000
0010
0000
0000
0000
0000
0000
1001
0000
0000
0000
0000
0000
0100
0000
0000
0001
0010
0100
1010
0000
0000
0000
0000
0000
,
0100
1010
0100
1010
0100
1010
0001
0110
,
0001
0000
0110
0000
0001
0000
0110
0000
0001
0000
0110
0000
1000
0100
0010
0001
,
0010
0100
1000
0100
0010
0001
0010
0100
1000
0100
0010
0001
0010
0100
1000
0100
,
0010
0001
0010
0100
1000
0100
0010
0001
0010
0100
1000
0100
0010
0001
0010
0100
,
1000
0100
0010
0001
0010
0100
1000
0100
0010
0001
0010
0100
1000
0100
0010
0001
,
0010
0100
1000
0100
0010
0001
0010
0100
1000
0100
0010
0001
0010
0100
1000
0100
,
0010
0001
0010
0100
1000
0100
0010
0001
0010
0100
1000
0100
0010
0001
0010
0100
,
1000
0100
0010
0001
0010
0100
1000
0100
0010
0001
0010
0100
1000
0100
0010
0001
,
0010
0100
1000
0100
0010
0001
0010
0100
1000
0100
0010
0001
0010
0100
1000
0100
,
0010
0001
0010
0100
1000
0100
0010
0001
0010
0100
1000
0100
0010
0001
0010
0100
,
1000
0100
0010
0001
0010
0100
1000
0100
0010
0001
0010
0100
1000
0100
0010
0001
,
0010
0100
1000
0100
0010
0001
0010
0100
1000
0100
0010
0001
0010
0100
1000
0100
,
0010
0001
0010
0100
1000
0100
0010
0001
1010
0000
1010
0000
1010
0000
1010
0000
,
0101
0101
0101
0101
2002
0000
0000
0000
,
0000
0000
0000
0000
,
0000
0000
0000
0000
0000
0000
0000
0000
0000
0000
0000
3003
0011
0000
1100
0000
,
0110
0011
1100
0110
1001
1010
0101
0110
,
1100
0000
0101
0000
0110
0000
0101
0000
1100
0000
0101
0000
1000
0010
0100
0001
,
1000
0010
0100
0001
1000
0010
0100
0001
1000
0010
0100
0001
1100
0000
0101
0000
,
0110
0000
1001
0000
0001
0010
0100
1000
0001
0010
0100
1000
0011
0000
0110
0000
,
1001
1100
0110
1100
0101
0110
1010
0101
,
0110
0011
1001
1010
0110
1100
0101
0011
,
1001
1010
0101
0110
1100
0110
0011
0110
,
1010
0101
0110
1100
0101
0110
0011
0110
,
1100
0101
1001
0101
1100
0011
0110
1001
,
0101
0110
1100
0101
0110
0011
1010
0100
,
0010
0000
1000
0000
0022
0000
0000
0000
1033
0100
1000
0000
1000
0100
1000
0000
,
0010
0100
0010
0000
0010
0100
0010
0000
0001
1000
0001
0000
0001
1000
0001
0000
,
0100
0010
0100
0000
0100
0010
0100
0000
1000
0100
1000
0000
1000
0100
1000
0000
,
0011
0100
0001
0000
0001
0100
0001
0000
1000
0001
1000
0000
1000
0001
1000
0000
,
0100
1000
0100
0000
0100
1000
0100
0000
0010
0001
0010
0000
0010
0001
0010
0000
,
1100
0010
0100
0000
0100
0010
0100
0000
0001
0100
0001
0000
1000
0010
1000
0000
,
0001
0100
0001
0000
1000
0010
1000
0000
0100
0001
0100
0000
0010
1000
0010
0000
,
0101
0001
1001
0001
0101
0001
0011
0001
,
0101
0001
0011
0001
1001
0001
0101
0001
,
0101
0001
0001
0001
1001
0001
0001
0001
0011
0001
0001
0001
0101
0001
0001
0001
,
0011
0001
0001
0001
1001
0001
0001
0001
0101
0001
0001
0001
0011
0001
0001
0001
,
0101
0001
0001
0001
0011
0001
0001
0001
0011
0001
0001
0001
0101
0001
0001
0001
,
1001
0001
0001
0001
0101
0001
0001
0001
1001
0001
0001
0001
0101
0001
0001
0001
,
1001
0110
1100
0101
,
0110
0000
1100
0000
0110
0000
1100
0110
,
0011
1100
0101
1001
,
1010
0000
0000
0000
0101
0000
0000
0000
1010
0000
0000
0000
0110
0000
0100
0010
,
1001
1010
0101
0110
,
0011
1100
0110
0101
,
1010
0000
0000
0000
0110
0000
0010
0000
0011
0000
0000
0000
1100
0000
0010
0100
,
0011
0000
0000
0000
1100
0000
0000
0000
0101
0000
0010
0000
0101
0000
1000
0100
,
0020
0000
0000
0000
,
0000
0000
0000
0000
,
0000
0000
0000
0000
,
0000
0000
0000
0000
0000
0000
0000
0000
0000
0000
0000
0000
0000
0000
0000
0000
0000
0000
0000
0000
0000
0000
0000
0000
0000
0000
0000
0000
0000
0000
0000
0000
0000
0000
0000
0000
0000
0000
0000
0000
0000
0000
0000
0000
0000
0000
0030
0000
1100
0000
0000
0000
0000
0000
0000
0000
0000
0000
0000
0000
0000
0000
0000
0000
0000
0000
0000
0000
0000
0000
0000
0000
0000
0000
0000
0000
0000
0000
0000
0000
0000
0000
0000
0000
0000
0000
0000
0000
0000
0000
0000
0000
0000
0000
0000
0000
0011
0000
0000
0000
0000
0000
0000
0000
0000
0000
0000
0000
0000
0000
0000
0000
0000
0000
0000
0000
0000
0000
0000
0000
0000
0000
0000
0000
0000
0000
0000
0000
0000
0000
0000
0000
0000
0000
0000
0000
0000
0000
0000
0000
0000
0000
0000
0000
1100
0000
0000
0000
0000
0000
0000
0000
0000
0000
0000
0000
0000
0000
0000
0000
0000
0000
0000
0000
0000
0000
0000
0000
0000
0000
0000
0000
0000
0000
0000
0000
0000
0000
0000
0000
0000
0000
0000
0000
0000
0000
0000
0000
0000
0000
0000
0000
,
1001
0110
1001
1100
,
0011
1100
0110
0011
,
1010
0011
1100
0110
,
1010
0000
0100
0010
1001
0000
0000
0000
1010
0000
0000
0000
0110
0000
0000
0000
,
0011
1010
0011
0110
,
1010
0100
0110
0010
0011
0001
1001
1000
,
1010
0010
0110
0100
0101
0001
0011
0010
,
0110
0100
1100
1000
1010
0010
0011
0010
,
1010
1000
1001
0001
0101
0100
0110
0010
,
1010
0000
0011
0100
0011
0000
0010
0000
0110
0000
0100
0000
0101
0000
0001
0000
,
1001
1000
1010
0010
0110
0100
0101
0001
,
1001
1000
1100
0100
0110
0010
0011
0001
,
0101
0000
0100
0000
1000
0100
0010
0001
1000
0100
0010
0001
0010
0100
1000
0001
,
0010
0100
1000
0100
0010
0001
1000
0100
0010
0001
0010
0100
1001
0000
0000
0000
,
0110
1100
0110
1100
,
0110
0101
0110
0101
,
0110
1100
0110
0101
,
1010
0110
0011
1010
,
0110
0000
0000
0000
0101
0000
0000
0000
1000
0010
1000
0100
0011
0000
0001
0000
,
1001
0001
0101
0001
0011
0001
1001
0001
,
0101
0001
1001
0001
0101
0001
0011
0001
,
1001
0001
0101
0001
0011
0001
0101
0001
,
0011
0001
1001
0011
0101
0001
0011
0001
,
1001
0001
0101
0001
0011
0001
1001
0001
,
0101
0000
0001
0000
1001
0000
0001
0000
0101
0000
0001
0000
0101
0000
0010
0100
,
1001
0011
1100
0110
0101
0110
1010
0101
,
0110
0110
0110
0110
,
1001
1001
1001
1001
,
1010
1010
1010
1010
,
0101
0101
0101
0101
,
1100
0000
1100
0000
1100
0011
1100
0100
,
0011
0100
0011
0100
0011
0100
0011
1000
,
0110
1000
0110
1000
0110
1000
0110
0001
,
1100
0001
1100
0001
1100
0001
0110
1000
,
0110
0000
1001
0000
0110
0000
0100
0000
1000
0100
0010
0001
1100
0000
0010
0000
,
1100
0010
1100
0010
1100
0001
0110
0001
,
0110
0000
0001
0000
0110
0000
0001
0000
0110
0000
0001
0000
1000
0100
0010
0001
,
0010
0000
0100
0000
1000
0000
0100
0000
0010
0000
0001
0000
0010
0000
0100
0000
1000
0000
0100
0000
0010
0000
0001
0000
1000
0100
0010
0001
1000
0100
0010
0001
,
1000
0100
0010
0001
1000
0100
0010
0001
1000
0100
0010
0001
1000
0100
0010
0001
1000
0100
0010
0001
1000
0100
0010
0001
2200
0000
0000
0000
0000
0000
0000
0000
,
0000
0000
0000
0000
,
0000
0000
0000
0000
,
0000
0000
0000
0000
,
0000
0000
0000
0000
,
0000
3300
0000
0000
;
