#TITLE:Butterfly;
#SUBTITLE:(Delaction Remix);
#ARTIST:SMiLE.dk;
#TITLETRANSLIT:;
#SUBTITLETRANSLIT:;
#ARTISTTRANSLIT:;
#CREDIT:;
#BANNER:;
#BACKGROUND:;
#LYRICSPATH:;
#CDTITLE:;
#MUSIC:Butterfly (Delaction Remix).mp3;
#OFFSET:0.000;
#SAMPLESTART:41.391;
#SAMPLELENGTH:12.000;
#SELECTABLE:YES;
#BPMS:0.000=144.960;
#STOPS:;
#BGCHANGES:;
// cache tags:
#FIRSTBEAT:0.000;
#LASTBEAT:246.063;
#SONGFILENAME:Songs/toune 4/Butterfly (Delaction Remix)/Butterfly (Delaction Remix).sm;
#HASMUSIC:1;
#HASBANNER:0;
#MUSICLENGTH:103.241;
// end cache tags

//---------------dance-single - ----------------
#NOTES:
     dance-single:
     :
     Hard:
     9:
     0.578,0.596,0.484,0.194,0.097,347.000,50.000,20.000,0.000,7.000:
1001
0000
0000
0000
0100
0000
0000
0000
0001
0000
0000
0010
0100
0000
1000
0000
,
0100
0010
0001
0000
0010
0000
0001
0000
0100
0000
0000
0001
1000
0000
0010
0000
,
0100
0000
0010
0000
0001
0010
0100
1000
,
0010
0100
0001
0000
0010
0000
0100
0000
1000
0000
0000
0000
0011
0000
0000
0000
,
0010
0000
0000
0000
1000
0000
0000
0000
0100
0000
0000
0001
1000
0000
0010
0000
,
1000
0001
0100
0000
0001
0000
0100
0000
1000
0000
0000
0100
0010
0000
0001
0000
,
1000
0000
0001
0000
0100
0001
1000
0010
,
0001
1000
0100
0000
0001
0000
1000
0000
0010
0000
0000
0000
0101
0000
0000
0000
,
0100
0000
0000
0000
1000
0000
0000
0000
0100
0000
0000
0001
1000
0000
0010
0000
,
1000
0001
0100
0000
0001
0000
0100
0000
1000
0000
0000
0100
0010
0000
0001
0000
,
1000
0000
0001
0000
0100
0001
1000
0010
,
0001
1000
0100
0000
0001
0000
1000
0000
0010
0000
0000
0000
0101
0000
0001
0000
,
0010
0100
1000
0000
0010
0000
0000
0000
,
1000
0100
0010
0001
0100
0000
0000
0000
,
0010
0100
0010
1000
,
0001
0010
0100
0010
0001
0000
0000
0000
,
1000
0100
0010
0001
0010
0000
0000
0000
,
0001
0010
0100
1000
0100
0000
0000
0000
,
0010
0100
0010
0100
,
1000
0100
0010
0100
1000
0110
0110
0000
,
0002
0000
0023
0000
0230
0000
0301
0010
,
0100
1000
0100
0010
0001
0000
0000
0000
,
0001
0000
1000
0001
0010
0000
0001
1000
,
0010
0100
0001
1000
0010
0000
0000
0000
,
0200
0000
0320
0000
0230
0000
1300
0001
,
0100
0010
1000
0001
0100
0000
0000
0000
,
0001
0100
0010
1000
0010
0100
0001
0010
,
0100
0010
0001
1000
0100
0000
0000
0000
,
0100
0011
0100
0011
,
0100
0011
0100
0011
,
0010
1100
0010
1100
,
0010
1100
0010
1100
,
0100
0011
0010
1100
,
0100
0011
0010
1100
,
0100
0011
0010
1100
,
0100
0000
0011
0000
0010
0000
1100
1000
,
0001
1000
0010
0100
0010
0000
0000
0100
,
0001
0010
0100
1000
0100
0000
0000
0000
,
0011
1100
0011
1100
,
0011
0001
0010
0100
1000
0000
0000
0000
,
1000
0100
0010
0100
1000
0000
0000
0000
,
0001
0010
0100
0010
0001
0000
0000
0000
,
0110
1001
0110
1001
,
0001
0001
0010
0100
1000
0110
0110
0000
,
2200
0000
3322
0000
2233
0000
3301
0001
,
0010
0010
0100
0100
1000
0000
0000
0000
,
1000
0000
0100
0100
0010
0000
0010
0001
,
0001
1000
0100
0010
0001
0000
0000
0000
,
0022
0000
2233
0000
3322
0000
1033
1000
,
0100
0100
0010
0010
0001
0000
0000
0000
,
0001
0001
0010
0010
0100
0100
1000
1000
,
0100
0100
0010
0010
0011
0000
0000
0000
,
0110
0000
0110
0000
,
0011
0110
1100
1001
,
0101
0000
0000
0000
1000
0000
0000
0000
0100
0000
0000
0010
1000
0000
0001
0000
,
1000
0010
0100
0000
0010
0000
0100
0000
1000
0000
0000
0100
0001
0000
0010
0000
,
1000
0000
0010
0000
0100
0010
1000
0001
,
0010
1000
0100
0000
0010
0000
1000
0000
0001
0000
0000
0000
1101
0000
0000
0000
,
1001
0000
0000
0000
0100
0000
0000
0000
0001
0000
0000
1000
0010
0000
0100
0000
,
0010
0100
0001
0000
1000
0000
0100
0000
0010
0000
0000
0001
0100
0000
0001
0000
,
0001
0000
0001
0000
0010
0010
0100
0010
,
0010
0000
0000
0000
0100
0000
0000
0000
0010
0000
0000
0000
0000
0000
0000
0000
0010
0000
0000
0000
0000
0000
0000
0000
0100
0000
0000
0000
0000
0000
0000
0000
2002
3003
0000
0000
0000
0000
0000
0000
0000
0000
0000
0000
0000
0000
0000
0000
0000
0000
0000
0000
0000
0000
0000
0000
0000
0000
0000
0000
0000
0000
0000
0000
;

//---------------dance-single - ----------------
#NOTES:
     dance-single:
     :
     Easy:
     2:
     0.378,0.417,0.446,0.019,0.000,225.000,46.000,2.000,0.000,0.000:
1001
0100
0001
0100
,
0100
0010
0100
1000
,
0100
0010
0001
0100
,
0010
0010
1000
0011
,
0010
1000
0100
1000
,
1000
0001
1000
0010
,
1000
0001
0100
1000
,
0001
0001
0010
0101
,
0100
1000
0100
1000
,
1000
0001
1000
0010
,
1000
0001
0100
1000
,
0001
0001
0010
0101
,
0010
1000
0010
0000
,
1000
0010
0100
0000
,
0010
0100
0010
1000
,
0001
0100
0001
0000
,
1000
0010
0010
0000
,
0001
0100
0100
0000
,
0010
0100
0010
0100
,
1000
0010
1000
0000
,
0001
0010
0100
0001
,
0100
0100
0001
0000
,
0001
1000
0010
0001
,
0010
0001
0010
0000
,
0100
0010
0100
1000
,
0100
1000
0100
0000
,
0001
0010
0010
0001
,
0100
0001
0100
0000
,
0100
0011
0100
0011
,
0100
0011
0100
0011
,
0010
1100
0010
1100
,
0010
1100
0010
1100
,
0100
0011
0010
1100
,
0100
0011
0010
1100
,
0100
0011
0010
1100
,
0100
0011
0010
1100
,
0001
0010
0010
0000
,
0001
0100
0100
0000
,
0011
1100
0011
1100
,
0011
0010
1000
0000
,
1000
0010
1000
0000
,
0001
0100
0001
0000
,
0110
1001
0110
1001
,
0001
0010
1000
0000
,
1100
0011
1100
0001
,
0010
0100
1000
0000
,
1000
0100
0010
0010
,
0001
0100
0001
0000
,
0011
1100
0011
1000
,
0100
0010
0001
0000
,
0001
0010
0100
1000
,
0100
0010
0011
0000
,
0110
0000
0110
0000
,
0011
0110
1100
1001
,
0101
1000
0100
1000
,
1000
0010
1000
0001
,
1000
0010
0100
1000
,
0010
0010
0001
1001
,
1001
0100
0001
0100
,
0010
1000
0010
0100
,
0001
0001
0010
0100
,
0010
0000
0000
0000
0000
0000
0000
0000
0000
0000
0000
0000
0000
0000
0000
0000
0010
0000
0000
0000
0000
0000
0000
0000
0000
0000
0000
0000
0000
0000
0000
0000
2002
3003
0000
0000
0000
0000
0000
0000
0000
0000
0000
0000
0000
0000
0000
0000
0000
0000
0000
0000
0000
0000
0000
0000
0000
0000
0000
0000
0000
0000
0000
0000
;

//---------------dance-single - ----------------
#NOTES:
     dance-single:
     :
     Medium:
     7:
     0.547,0.536,0.426,0.136,0.000,337.000,44.000,14.000,0.000,0.000:
1001
0000
0100
0000
0001
0010
0100
1000
,
0100
0001
0010
0001
0100
0001
1000
0010
,
0100
0000
0010
0000
0001
0010
0100
1000
,
0010
0001
0010
0100
1000
0000
0011
0000
,
0010
0000
1000
0000
0100
0001
1000
0010
,
1000
0100
0001
0100
1000
0100
0010
0001
,
1000
0000
0001
0000
0100
0001
1000
0010
,
0001
0100
0001
1000
0010
0000
0101
0000
,
0100
0000
1000
0000
0100
0001
1000
0010
,
1000
0100
0001
0100
1000
0100
0010
0001
,
1000
0000
0001
0000
0100
0001
1000
0010
,
0001
0100
0001
1000
0010
0000
0101
0001
,
0010
0100
1000
0000
0010
0000
0000
0000
,
1000
0100
0010
0001
0100
0000
0000
0000
,
0010
0100
0010
1000
,
0001
0010
0100
0010
0001
0000
0000
0000
,
1000
0100
0010
0001
0010
0000
0000
0000
,
0001
0010
0100
1000
0100
0000
0000
0000
,
0010
0100
0010
0100
,
1000
0100
0010
0100
1000
0110
0110
0000
,
0002
0000
0023
0000
0230
0000
0301
0010
,
0100
1000
0100
0010
0001
0000
0000
0000
,
0001
0000
1000
0001
0010
0000
0001
1000
,
0010
0100
0001
1000
0010
0000
0000
0000
,
0200
0000
0320
0000
0230
0000
1300
0001
,
0100
0010
1000
0001
0100
0000
0000
0000
,
0001
0100
0010
1000
0010
0100
0001
0010
,
0100
0010
0001
1000
0100
0000
0000
0000
,
0100
0011
0100
0011
,
0100
0011
0100
0011
,
0010
1100
0010
1100
,
0010
1100
0010
1100
,
0100
0011
0010
1100
,
0100
0011
0010
1100
,
0100
0011
0010
1100
,
0100
0000
0011
0000
0010
0000
1100
1000
,
0001
1000
0010
0100
0010
0000
0000
0100
,
0001
0010
0100
1000
0100
0000
0000
0000
,
0011
1100
0011
1100
,
0011
0001
0010
0100
1000
0000
0000
0000
,
1000
0100
0010
0100
1000
0000
0000
0000
,
0001
0010
0100
0010
0001
0000
0000
0000
,
0110
1001
0110
1001
,
0001
0001
0010
0100
1000
0110
0110
0000
,
2000
0000
3020
0000
2030
0000
3001
0001
,
0010
0010
0100
0100
1000
0000
0000
0000
,
1000
0000
0100
0100
0010
0000
0010
0001
,
0001
1000
0100
0010
0001
0000
0000
0000
,
0020
0000
0230
0000
0320
0000
1030
1000
,
0100
0100
0010
0010
0001
0000
0000
0000
,
0001
0001
0010
0010
0100
0100
1000
1000
,
0100
0100
0010
0010
0011
0000
0000
0000
,
0110
0000
0110
0000
,
0011
0110
1100
1001
,
0101
0000
1000
0000
0100
0010
1000
0001
,
1000
0100
0010
0100
1000
0100
0001
0010
,
1000
0000
0010
0000
0100
0010
1000
0001
,
0010
0100
0010
1000
0001
0000
1100
0000
,
1001
0000
0100
0000
0001
0100
0100
0100
,
0010
0001
1000
0100
0010
0001
0100
0001
,
0001
0000
0001
0000
0010
0010
0100
0010
,
0010
0000
0000
0000
0000
0000
0000
0000
0010
0000
0000
0000
0000
0000
0000
0000
0010
0000
0000
0000
0000
0000
0000
0000
0100
0000
0000
0000
0000
0000
0000
0000
2002
3003
0000
0000
0000
0000
0000
0000
0000
0000
0000
0000
0000
0000
0000
0000
0000
0000
0000
0000
0000
0000
0000
0000
0000
0000
0000
0000
0000
0000
0000
0000
;
