#TITLE:Lolit Speed;
#SUBTITLE:;
#ARTIST:Project Gabbangelion;
#TITLETRANSLIT:;
#SUBTITLETRANSLIT:;
#ARTISTTRANSLIT:;
#CREDIT:;
#BANNER:lolitspeedbn.png;
#BACKGROUND:lolitspeedbg.png;
#LYRICSPATH:;
#CDTITLE:;
#MUSIC:lolitspeed.ogg;
#OFFSET:0.734;
#SAMPLESTART:36.655;
#SAMPLELENGTH:16.335;
#SELECTABLE:YES;
#DISPLAYBPM:235.000;
#BPMS:0.000=222.700,40.000=228.500,48.000=235.075,1536.000=200.000,1540.000=190.000;
#STOPS:;
#BGCHANGES:;
// cache tags:
#FIRSTBEAT:4.000;
#LASTBEAT:1581.000;
#SONGFILENAME:Songs/SHARPNELSTREAMZ v2/Lolit Speed/lolitspeed.sm;
#HASMUSIC:1;
#HASBANNER:1;
#MUSICLENGTH:406.500;
// end cache tags

//---------------dance-single - LOL-it speed----------------
#NOTES:
     dance-single:
     LOL-it speed:
     Edit:
     21:
     1.000,1.000,0.219,0.428,1.000,4878.000,89.000,174.000,111.000,0.000:
0000
0000
0000
0000
,
2000
3200
0320
0032
,
0003
0000
0000
1000
0200
0000
0300
0000
0000
0000
0000
0001
0200
0000
0300
0000
,
0020
0000
0000
0030
0020
0000
0000
0030
0200
0000
0000
0301
2000
0000
0000
3000
,
0000
0000
0000
0000
0000
0000
0000
0000
2000
0000
0000
3000
0200
0000
0000
0300
,
1000
0000
0000
0000
0001
0000
0000
0000
1000
0000
0000
0000
0001
0000
0000
0000
0000
0000
0000
0000
0000
0000
0000
0000
0020
0000
0000
0000
0000
0000
0000
0000
0000
0030
0000
0000
0200
0000
0000
0000
0000
0000
0000
0000
0000
0300
0000
0000
,
0000
0000
0000
1000
0002
0000
0000
0000
0000
0000
0003
0001
0200
0000
0000
0300
,
0020
0000
0000
0030
0020
0000
0000
0030
2000
0000
0000
3000
0200
0000
0000
0300
,
0000
0000
0000
0000
,
0000
0000
1000
0001
0020
0000
0000
0100
0000
0000
0000
0000
0000
0000
0000
0030
,
0000
00M0
00M0
00M0
00M0
00M0
00M0
00M0
,
00M0
0000
0000
00M0
0000
0000
00M0
0000
0000
00M0
0000
0000
00M0
0000
0000
0000
,
1000
0000
0001
0000
0010
0000
0100
1000
0100
1000
0001
0000
0100
0000
0010
1000
,
0001
0000
1000
0000
0010
0000
0100
0001
0100
0001
1000
0000
0100
0000
0010
0001
,
1000
0000
0001
0000
0100
0000
0010
1000
0010
1000
0001
0000
0010
0000
0100
1000
,
0001
0000
1000
0000
0100
0000
0010
0001
0100
0010
M10M
0000
0010
0100
M01M
0000
,
0100
0000
0010
0000
1000
0000
0001
0100
0001
0100
0010
0000
1000
0000
0001
1000
,
0100
0000
0010
0000
0001
0000
1000
0100
1000
0100
0010
0000
0001
0000
1000
0001
,
0010
0000
0100
0000
1000
0000
0001
0010
0001
0010
0100
0000
1000
0000
0001
1000
,
0010
0000
0100
0000
0001
0000
1000
0001
0010
0100
M01M
0000
0100
0010
M10M
0000
,
1000
0000
0001
0000
0010
0000
0001
1000
0001
1000
0010
0000
0100
0000
0010
0100
,
0001
0000
1000
0000
0010
0000
1000
0001
1000
0001
0010
0000
0100
0000
0010
0100
,
1000
0000
0001
0000
0100
0000
0001
1000
0001
1000
0100
0000
0010
0000
0100
0010
,
0001
0000
1000
0000
0100
0000
1000
0001
0100
0010
M10M
0000
0010
0100
M01M
0000
,
1000
0000
0010
0000
0100
0000
0010
1000
0010
1000
0001
0000
0100
0000
0010
1000
,
0001
0000
0010
0000
0100
0000
0010
0001
0010
0001
1000
0000
0100
0000
0010
0001
,
1000
0000
0100
0000
0010
0000
0100
1000
0100
1000
0001
0000
0010
0000
0100
1000
,
0001
0000
0100
0000
0010
0000
0100
0001
0010
0100
M01M
0000
0100
0010
M10M
0000
,
1000
0000
0001
0000
1000
0000
0100
0010
0100
0010
0001
0000
0010
0000
0100
1000
,
0001
0000
1000
0000
0001
0000
0100
0010
0100
0010
1000
0000
0010
0000
0100
0001
,
1000
0000
0001
0000
1000
0000
0010
0100
0010
0100
0001
0000
0100
0000
0010
1000
,
0001
0000
1000
0000
0001
0000
0010
0001
0100
0010
M10M
0000
0010
0100
M01M
0000
,
1000
0000
0001
0000
0010
0000
0100
1000
0100
1000
0001
0000
0100
0000
0010
1000
,
0001
0100
0010
1000
0001
0100
0010
1000
0001
0100
0001
0100
0010
1000
0010
1000
,
0001
0000
0M00
0000
0000
00M0
0000
0M00
0000
0000
0000
0000
0000
00M0
0000
0M00
,
0000
00M0
0000
0000
0M00
0000
0000
00M0
0000
0000
0M00
0000
4000
0000
3004
0000
,
0103
0010
1000
0001
0100
0010
1000
0001
0010
0100
1000
0100
1000
0001
0010
0100
,
1000
0001
1000
0001
0100
0010
1000
0010
1000
0001
0100
0001
1000
0010
1000
0001
,
0010
0100
1000
0001
0010
0100
1000
0001
0100
0010
1000
0010
1000
0001
0100
0010
,
1000
0001
1000
0001
0010
0100
1000
0100
1000
0001
1000
0001
0100
0010
0100
0001
,
0010
0100
0010
0001
1000
0100
0010
0001
1000
0010
0100
0001
0100
0001
1000
0010
,
1000
0001
0100
0001
1000
0100
1000
0100
0010
0001
0010
0001
1000
0100
0010
0001
,
0100
0010
0100
0001
1000
0010
0100
0001
1000
0100
0010
0001
0010
0001
1000
0100
,
1000
0001
0010
0001
1000
0010
1000
0010
0100
0001
1000
0001
0010
0100
0010
0001
,
0100
0010
1000
0001
0100
0010
1000
0001
0010
0100
1000
0100
1000
0001
0010
0100
,
1000
0001
1000
0001
0100
0010
1000
0010
1000
0001
0100
0001
1000
0010
0100
0001
,
0010
0100
1000
0001
0010
0100
1000
0001
0100
0010
1000
0010
1000
0001
0100
0010
,
1000
0001
1000
0001
0010
0100
1000
0100
1000
0001
1000
0001
0100
0010
0100
0001
,
0010
0100
0010
0001
1000
0100
0010
0001
1000
0010
0100
0001
0100
0001
1000
0010
,
1000
0001
0100
0001
1000
0100
1000
0100
0010
0001
0010
0001
1000
0100
0010
0001
,
0100
0010
0100
0001
1000
0010
0100
0001
1000
0010
0100
0001
0100
0001
1000
0010
,
0400
0300
0000
0000
0010
0000
0010
0000
1000
0010
1000
0001
0010
0000
0010
0000
,
0001
0100
0001
1000
0010
0100
0001
1000
0010
0100
0001
0100
0001
1000
0010
0100
,
0001
1000
0001
1000
0010
0100
0001
0100
0001
1000
0010
1000
0001
0100
0010
1000
,
0100
0010
0001
1000
0100
0010
0001
1000
0100
0010
0001
0010
0001
1000
0100
0010
,
0001
1000
0001
1000
0100
0010
0001
0010
0001
1000
0001
1000
0010
0100
0010
1000
,
0100
0010
0100
1000
0001
0100
0010
1000
0001
0100
0010
1000
0010
1000
0001
0100
,
0001
1000
0010
1000
0001
0100
0001
0100
0010
1000
0010
1000
0001
0100
0010
1000
,
0100
0010
0100
1000
0001
0010
0100
1000
0001
0010
0100
1000
0100
1000
0001
0010
,
0001
1000
0100
1000
0001
0010
0001
0010
0100
1000
0001
1000
0010
0100
0010
1000
,
0100
0010
0001
1000
0010
0100
0001
1000
0010
0100
0001
0100
0001
1000
0010
0100
,
0001
1000
0001
1000
0010
0100
0001
0100
0001
1000
0010
1000
0001
0100
0010
1000
,
0100
0010
0001
1000
0100
0010
0001
1000
0100
0010
0001
0010
0001
1000
0100
0010
,
0001
1000
0001
1000
0100
0010
0001
0010
0001
1000
0001
1000
0010
0100
0001
0000
,
2000
0000
3002
0000
2003
0000
3002
0000
0203
0000
0310
1000
0010
0000
0200
0000
,
0320
0000
2030
0000
3002
0000
0103
0010
0100
0000
0010
1000
0010
0000
0200
0000
,
0302
0023
0230
0320
0032
0203
0320
0230
,
0302
0000
0M13
0000
0M10
0000
0M10
0001
,
1000
0100
0010
0001
0100
0001
1000
0100
0010
0001
0100
0001
1000
0100
0010
0100
,
1000
0001
0100
0001
0010
0100
1000
0001
0100
0001
0010
0100
1000
0010
0100
0001
,
1000
0100
0010
0001
0100
0001
1000
0100
0010
0001
0100
0001
1000
0010
0100
0001
,
0010
0001
0100
0001
0010
0100
1000
0001
0100
0010
1000
0001
0100
0001
1000
0100
,
1000
0010
0100
0001
0010
0001
1000
0010
0100
0001
0010
0001
1000
0010
0100
0010
,
1000
0001
0010
0001
0100
0010
1000
0001
0010
0001
0100
0010
1000
0100
0010
0001
,
1000
0010
0100
0001
0010
0001
1000
0010
0100
0001
0010
0001
1000
0100
0010
0001
,
0100
0001
0010
0001
0100
0010
1000
0001
0010
0100
1000
0001
0010
0100
1000
0001
,
1000
0100
0010
0001
0100
0001
1000
0100
0010
0001
0100
0001
1000
0100
0010
0100
,
1000
0001
0100
0001
0010
0100
1000
0001
0100
0001
0010
0100
1000
0010
0100
0001
,
1000
0100
0010
0001
0100
0001
1000
0100
0010
0001
0100
0001
1000
0010
0100
0001
,
0010
0001
0100
0001
0010
0100
1000
0001
0100
0010
1000
0001
0100
0001
1000
0100
,
1000
0010
0100
0001
0010
0001
1000
0010
0100
0001
0010
0001
1000
0010
0100
0010
,
1000
0001
0010
0001
0100
0010
1000
0001
0010
0001
0100
0010
1000
0100
0010
0001
,
1000
0010
0100
0001
0010
0001
1000
0010
0100
0001
0010
0001
1000
0100
0010
0001
,
1000
0MM1
0000
0000
1MM1
0000
0MM1
1000
,
0001
0010
0100
1000
0010
1000
0001
0010
0100
1000
0010
1000
0001
0010
0100
0010
,
0001
1000
0010
1000
0100
0010
0001
1000
0010
1000
0100
0010
0001
0100
0010
1000
,
0001
0010
0100
1000
0010
1000
0001
0010
0100
1000
0010
1000
0001
0100
0010
1000
,
0100
1000
0010
1000
0100
0010
0001
1000
0010
0100
0001
1000
0010
1000
0001
0010
,
0001
0100
0010
1000
0100
1000
0001
0100
0010
1000
0100
1000
0001
0100
0010
0100
,
0001
1000
0100
1000
0010
0100
0001
1000
0100
1000
0010
0100
0001
0010
0100
1000
,
0001
0100
0010
1000
0100
1000
0001
0100
0010
1000
0100
1000
0001
0010
0100
1000
,
0010
1000
0100
1000
0010
0100
0001
1000
0100
0010
0001
1000
0100
0010
0001
1000
,
0001
0010
0100
1000
0010
1000
0001
0010
0100
1000
0010
1000
0001
0010
0100
0010
,
0001
1000
0010
1000
0100
0010
0001
1000
0010
1000
0100
0010
0001
0100
0010
1000
,
0001
0010
0100
1000
0010
1000
0001
0010
0100
1000
0010
1000
0001
0100
0010
1000
,
0100
1000
0010
1000
0100
0010
0001
1000
0010
0100
0001
1000
0010
1000
0001
0010
,
0001
0100
0010
1000
0100
1000
0001
0100
0010
1000
0100
1000
0001
0100
0010
0100
,
0001
1000
0100
1000
0010
0100
0001
1000
0100
1000
0010
0100
0001
0010
0100
1000
,
0001
0100
0010
1000
0100
1000
0001
0100
0010
1000
0100
1000
0001
0010
0100
1000
,
0001
0000
1000
0000
0010
0000
0100
0000
0010
0000
1000
0000
0400
0000
0310
0001
,
1000
0000
0000
0000
0000
0000
0000
0000
0010
0000
0000
0000
0000
0000
0000
0000
1000
0000
0000
0000
0000
0000
0000
0000
0010
0000
0000
0000
0000
0000
0000
0000
0200
0300
0000
0000
0000
0000
0000
0000
0010
0000
0000
0000
1000
0000
0000
0000
0001
0000
0000
0000
0000
0000
0000
0000
0010
0000
0000
0000
0000
0000
0000
0000
,
0001
0000
0010
0000
0001
0000
0010
0001
1000
0000
0010
1000
0001
0000
0100
0000
,
0001
0000
0000
0000
0000
0000
0000
0000
0100
0000
0000
0000
0000
0000
0000
0000
0001
0000
0000
0000
0000
0000
0000
0000
0100
0000
0000
0000
0000
0000
0000
0000
0020
0030
0000
0000
0000
0000
0000
0000
0100
0000
0000
0000
0000
0000
0000
0000
0001
0000
0000
0000
0000
0000
0000
0000
0100
0000
0000
0000
0001
0000
0000
0000
,
1000
0000
0000
0000
0000
0000
0000
0000
0100
0000
0000
0000
0000
0000
0000
0000
0020
0030
0000
0000
0000
0000
0000
0000
0100
0000
0000
0000
0000
0000
0000
0000
1000
0000
0000
0000
0000
0000
0000
0000
0100
0000
0000
0000
1000
0000
0000
0000
0001
0000
0000
0000
0000
0000
0000
0000
0100
0000
0000
0000
0000
0000
0000
0000
,
0100
0000
0000
0000
0000
0000
0000
0000
0010
0000
0000
0000
0000
0000
0000
0000
1000
0000
0000
0000
0000
0000
0000
0000
0010
0000
0000
0000
0000
0000
0000
0000
0200
0300
0000
0000
0000
0000
0000
0000
0010
0000
0000
0000
1000
0000
0000
0000
0001
0000
0000
0000
0000
0000
0000
0000
0010
0000
0000
0000
0000
0000
0000
0000
,
0001
0000
0010
0000
0001
0000
0010
0001
1000
0000
0010
1000
0001
0000
0100
0000
,
0001
0000
0000
0000
0000
0000
0000
0000
0100
0000
0000
0000
0000
0000
0000
0000
0001
0000
0000
0000
0000
0000
0000
0000
0100
0000
0000
0000
0000
0000
0000
0000
0020
0030
0000
0000
0000
0000
0000
0000
0100
0000
0000
0000
0000
0000
0000
0000
0001
0000
0000
0000
0000
0000
0000
0000
0100
0000
0000
0000
0001
0000
0000
0000
,
1000
0000
0000
0000
0000
0000
0000
0000
0100
0000
0000
0000
0000
0000
0000
0000
0020
0030
0000
0000
0000
0000
0000
0000
0100
0000
0000
0000
0000
0000
0000
0000
1000
0000
0000
0000
0000
0000
0000
0000
0100
0000
0000
0000
1000
0000
0000
0000
0001
0000
0000
0000
0000
0000
0000
0000
0100
0000
0000
0000
0000
0000
0000
0000
,
0100
0100
0110
0100
,
0100
0001
0100
0000
0100
0000
0001
0000
,
0100
0100
0110
0100
,
0100
0000
0110
0000
0101
0000
1001
1000
,
1100
0100
0110
0100
,
0100
1000
0100
0000
0100
0000
1000
0000
,
0100
0100
0110
0100
,
0100
0000
0110
0000
1100
0000
1001
0001
,
0101
0000
0100
0000
0010
0000
0100
0001
,
0100
0001
1000
0000
0100
0000
1000
0000
,
0100
0100
0010
0100
,
0100
0000
0010
0000
0010
0100
0010
0001
,
1000
0000
0000
0000
0010
0000
0000
0000
1000
0010
0100
0001
1000
0010
0100
0001
,
1000
0100
0010
0001
1000
0100
0010
0001
1000
0010
0100
0001
1000
0010
0100
0001
,
1000
0010
0100
0001
1000
0010
0100
0001
1000
0100
0010
0001
1000
0100
0010
0001
,
M100
0000
0110
0000
01M0
0000
1000
0001
,
1000
0100
0010
0001
0100
0001
1000
0100
0010
0001
0100
0001
1000
0100
0010
0100
,
1000
0001
0100
0001
0010
0100
1000
0001
0100
0001
0010
0100
1000
0010
0100
0001
,
1000
0100
0010
0001
0100
0001
1000
0100
0010
0001
0100
0001
1000
0010
0100
0001
,
0010
0001
0100
0001
0010
0100
1000
0001
0100
0010
1000
0001
0100
0001
1000
0100
,
1000
0010
0100
0001
0010
0001
1000
0010
0100
0001
0010
0001
1000
0010
0100
0010
,
1000
0001
0010
0001
0100
0010
1000
0001
0010
0001
0100
0010
1000
0100
0010
0001
,
1000
0010
0100
0001
0010
0001
1000
0010
0100
0001
0010
0001
1000
0100
0010
0001
,
0100
0001
0010
0001
0100
0010
1000
0001
0010
0100
1000
0001
0010
0100
1000
0001
,
1000
0100
0010
0001
0100
0001
1000
0100
0010
0001
0100
0001
1000
0100
0010
0100
,
1000
0001
0100
0001
0010
0100
1000
0001
0100
0001
0010
0100
1000
0010
0100
0001
,
1000
0100
0010
0001
0100
0001
1000
0100
0010
0001
0100
0001
1000
0010
0100
0001
,
0010
0001
0100
0001
0010
0100
1000
0001
0100
0010
1000
0001
0100
0001
1000
0100
,
1000
0001
0100
0001
1000
0010
0100
0001
1000
0001
0100
0010
1000
0001
0100
0001
,
1000
0100
0010
0001
1000
0001
0010
0100
1000
0001
0010
0001
1000
0001
0010
0100
,
1000
0001
0100
0010
1000
0100
0010
0001
1000
0000
0000
0000
1000
0000
0000
0000
,
1000
0000
0000
0000
,
0001
0010
0100
1000
0010
1000
0001
0010
0100
1000
0010
1000
0001
0010
0100
0010
,
0001
1000
0010
1000
0100
0010
0001
1000
0010
1000
0100
0010
0001
0100
0010
1000
,
0001
0010
0100
1000
0010
1000
0001
0010
0100
1000
0010
1000
0001
0100
0010
1000
,
0100
1000
0010
1000
0100
0010
0001
1000
0010
0100
0001
1000
0010
1000
0001
0010
,
0001
0100
0010
1000
0100
1000
0001
0100
0010
1000
0100
1000
0001
0100
0010
0100
,
0001
1000
0100
1000
0010
0100
0001
1000
0100
1000
0010
0100
0001
0010
0100
1000
,
0001
0100
0010
1000
0100
1000
0001
0100
0010
1000
0100
1000
0001
0010
0100
1000
,
0010
1000
0100
1000
0010
0100
0001
1000
0100
0010
0001
1000
0100
0010
0001
1000
,
0001
0010
0100
1000
0010
1000
0001
0010
0100
1000
0010
1000
0001
0010
0100
0010
,
0001
1000
0010
1000
0100
0010
0001
1000
0010
1000
0100
0010
0001
0100
0010
1000
,
0001
0010
0100
1000
0010
1000
0001
0010
0100
1000
0010
1000
0001
0100
0010
1000
,
0100
1000
0010
1000
0100
0010
0001
1000
0010
0100
0001
1000
0010
1000
0001
0010
,
0001
0100
0010
1000
0100
1000
0001
0100
0010
1000
0100
1000
0001
0100
0010
0100
,
0001
1000
0100
1000
0010
0100
0001
1000
0100
1000
0010
0100
0001
0010
0100
1000
,
0001
0100
0010
1000
0100
1000
0001
0100
0010
1000
0100
1000
0001
0010
0100
1000
,
0200
0300
0000
0000
0020
0000
0000
0030
0002
0000
0000
0003
0200
0000
0000
0300
,
1020
0000
0000
0030
1001
0000
0000
0000
0011
0000
0000
0000
2001
0000
0000
3000
,
0120
0000
0000
0030
0201
0000
0000
0300
1002
0000
0000
0003
2100
0000
0000
3000
,
0210
0000
0000
0300
0021
0000
0000
0030
0001
0000
2000
0000
0000
3000
0020
0000
,
0000
0030
0100
0000
0002
0000
0000
0003
2100
0000
0000
3000
1001
0000
0000
0000
,
1010
0000
0000
0000
1002
0000
0000
0003
1020
0000
0000
0030
1200
0000
0000
0300
,
2001
0000
0000
3000
0021
0000
0000
0030
0201
0000
0000
0300
1002
0000
0000
0003
,
2100
0000
0000
3000
1001
0000
0000
0000
0011
0000
0000
0000
1001
0000
0000
0000
,
0101
0000
0000
0000
1020
0000
0000
0030
2001
0000
0000
3000
1200
0000
0000
0300
,
0021
0000
0000
0030
1001
0000
0000
0000
0011
0000
0000
0000
1002
0000
0000
0003
,
0210
0000
0000
0300
1020
0000
0000
0030
2001
0000
0000
3000
0012
0000
0000
0003
,
0120
0000
0000
0030
1200
0000
0000
0300
1000
0000
0002
0000
0000
0003
0200
0000
,
0000
0300
0010
0000
2000
0000
0000
3000
0012
0000
0000
0003
1001
0000
0000
0000
,
1010
0000
0000
0000
2001
0000
0000
3000
0201
0000
0000
0300
0021
0000
0000
0030
,
2002
3000
0000
0003
0000
0000
0000
0000
2000
0000
0000
3000
0010
0000
0200
0000
,
0000
0000
0000
0000
,
0300
0000
0000
0000
0002
0000
0000
0003
0020
0000
0000
0030
0200
0000
0000
0300
,
1000
0100
0010
0001
1000
0100
0010
0001
1000
0100
1000
0100
0010
0001
1000
0100
,
1000
0001
0010
0001
1000
0100
0010
0001
1000
0001
1000
0010
0100
0001
1000
0010
,
0100
0001
1000
0010
0100
0001
0100
0001
1000
0010
0100
0001
1000
0001
0100
0001
,
0010
0100
0010
0001
0010
0100
1000
0001
0100
0001
1000
0100
0010
0100
1000
0001
,
1000
0010
0100
0001
1000
0010
0100
0001
1000
0010
1000
0010
0100
0001
1000
0010
,
1000
0001
0100
0001
1000
0010
0100
0001
1000
0001
1000
0100
0010
0001
1000
0100
,
0010
0001
1000
0100
0010
0001
0010
0001
1000
0100
0010
0001
1000
0001
1000
0100
,
0010
0001
1000
0001
0100
0010
0100
0001
1000
0100
1000
0001
0010
0100
0010
0001
,
1000
0010
0100
0010
1000
0001
1000
0010
0100
0001
1000
0001
0100
0010
1000
0001
,
0100
0010
1000
0010
1000
0001
0100
0010
1000
0001
1000
0001
0010
0100
1000
0001
,
0010
0001
1000
0100
1000
0001
0010
0100
1000
0001
1000
0001
0010
0100
1000
0001
,
0100
0010
0100
0001
0100
0010
1000
0001
1000
0100
0010
0100
1000
0001
1000
0010
,
1000
0001
0100
0001
1000
0001
1000
0010
0100
0001
1000
0001
1000
0100
1000
0001
,
0010
0100
1000
0100
1000
0001
0010
0100
1000
0001
1000
0001
0100
0010
1000
0001
,
0100
0001
1000
0010
1000
0001
0100
0010
1000
0001
1000
0001
0100
0010
1000
0001
,
0010
0100
1000
0001
0010
0001
1000
0001
0100
0001
1000
0100
0010
0001
1000
0001
,
1000
0010
0100
0001
1000
0010
0100
0001
1000
0010
1000
0010
0100
0001
1000
0010
,
1000
0001
0100
0001
1000
0010
0100
0001
1000
0001
1000
0100
0010
0001
1000
0100
,
0010
0001
1000
0100
0010
0001
0010
0001
1000
0100
0010
0001
1000
0001
1000
0100
,
0010
0001
0010
0100
0010
0001
1000
0001
1000
0010
0100
0001
0100
0010
1000
0001
,
1000
0100
0010
0001
1000
0100
0010
0001
1000
0100
1000
0100
0010
0001
1000
0100
,
1000
0001
0010
0001
1000
0100
0010
0001
1000
0001
1000
0010
0100
0001
1000
0010
,
0100
0001
1000
0010
0100
0001
0100
0001
1000
0010
0100
0001
1000
0001
1000
0010
,
0100
0001
0100
0010
1000
0001
1000
0100
0010
0001
0010
0100
1000
0001
0100
0010
,
1000
0001
0010
0100
1000
0001
1000
0100
0010
0001
1000
0001
0010
0100
1000
0001
,
0010
0100
1000
0100
1000
0001
0010
0100
1000
0001
1000
0001
0100
0010
1000
0001
,
0100
0001
1000
0010
1000
0001
0100
0010
1000
0001
1000
0001
0100
0010
1000
0001
,
0010
0100
0010
0001
0010
0100
1000
0001
1000
0001
0100
0001
1000
0010
0100
0001
,
1000
0100
0010
0001
1000
0001
1000
0100
0010
0001
1000
0001
1000
0010
1000
0001
,
0100
0010
1000
0010
1000
0001
0100
0010
1000
0001
1000
0001
0010
0100
1000
0001
,
1000
0100
0010
0001
1000
0100
0010
0001
1000
0100
1000
0100
0010
0001
0010
0001
,
1MM0
0000
1MM0
0000
1MM0
0000
1MM0
0001
,
2002
3003
0000
0000
0000
0000
0000
0000
1000
0000
0000
0000
0000
0000
0000
0000
0010
0000
0000
0000
0000
0000
0000
0000
1000
0000
0000
0000
0000
0000
0000
0000
0100
0000
0000
0000
0000
0000
0000
0000
0010
0000
0000
0000
0000
0000
0000
0000
0001
0000
0000
0000
0000
0000
0000
0000
1000
0000
0000
0000
0000
0000
0000
0000
,
0010
0000
0000
0000
0000
0000
0000
0000
0100
0000
0000
0000
0000
0000
0000
0000
0010
0000
0000
0000
0000
0000
0000
0000
1000
0000
0000
0000
0000
0000
0000
0000
0200
0300
0000
0000
0000
0000
0000
0000
0010
0000
0000
0000
0000
0000
0000
0000
0002
0003
0000
0000
0000
0000
0000
0000
1000
0000
0000
0000
0000
0000
0000
0000
,
2002
3003
0000
0000
0000
0000
0000
0000
0001
0000
0000
0000
0000
0000
0000
0000
0010
0000
0000
0000
0000
0000
0000
0000
0001
0000
0000
0000
0000
0000
0000
0000
0100
0000
0000
0000
0000
0000
0000
0000
0010
0000
0000
0000
0000
0000
0000
0000
1000
0000
0000
0000
0000
0000
0000
0000
0001
0000
0000
0000
0000
0000
0000
0000
,
0010
0100
0010
0001
0100
0010
1000
0001
,
2002
3003
0000
0000
0000
0000
0000
0000
1000
0000
0000
0000
0000
0000
0000
0000
0100
0000
0000
0000
0000
0000
0000
0000
1000
0000
0000
0000
0000
0000
0000
0000
0010
0000
0000
0000
0000
0000
0000
0000
0100
0000
0000
0000
0000
0000
0000
0000
0001
0000
0000
0000
0000
0000
0000
0000
1000
0000
0000
0000
0000
0000
0000
0000
,
0100
0000
0000
0000
0000
0000
0000
0000
0010
0000
0000
0000
0000
0000
0000
0000
0100
0000
0000
0000
0000
0000
0000
0000
1000
0000
0000
0000
0000
0000
0000
0000
0020
0030
0000
0000
0000
0000
0000
0000
0100
0000
0000
0000
0000
0000
0000
0000
0002
0003
0000
0000
0000
0000
0000
0000
1000
0000
0000
0000
0000
0000
0000
0000
,
2002
3003
0000
0000
0000
0000
0000
0000
0001
0000
0000
0000
0000
0000
0000
0000
0100
0000
0000
0000
0000
0000
0000
0000
0001
0000
0000
0000
0000
0000
0000
0000
0010
0000
0000
0000
0000
0000
0000
0000
0100
0000
0000
0000
0000
0000
0000
0000
1000
0000
0000
0000
0000
0000
0000
0000
0001
0000
0000
0000
0000
0000
0000
0000
,
0100
0010
0100
0001
0010
0100
1000
0001
,
2002
3003
0000
0000
0000
0000
0000
0000
1000
0000
0000
0000
0000
0000
0000
0000
0100
0000
0000
0000
0000
0000
0000
0000
1000
0000
0000
0000
0000
0000
0000
0000
0010
0000
0000
0000
0000
0000
0000
0000
0100
0000
0000
0000
0000
0000
0000
0000
0001
0000
0000
0000
0000
0000
0000
0000
1000
0000
0000
0000
0000
0000
0000
0000
,
0100
0000
0000
0000
0000
0000
0000
0000
0010
0000
0000
0000
0000
0000
0000
0000
0100
0000
0000
0000
0000
0000
0000
0000
1000
0000
0000
0000
0000
0000
0000
0000
0020
0030
0000
0000
0000
0000
0000
0000
0100
0000
0000
0000
0000
0000
0000
0000
0002
0003
0000
0000
0000
0000
0000
0000
1000
0000
0000
0000
0000
0000
0000
0000
,
2002
3003
0000
0000
0000
0000
0000
0000
0001
0000
0000
0000
0000
0000
0000
0000
0010
0000
0000
0000
0000
0000
0000
0000
0001
0000
0000
0000
0000
0000
0000
0000
0100
0000
0000
0000
0000
0000
0000
0000
0010
0000
0000
0000
0000
0000
0000
0000
1000
0000
0000
0000
0000
0000
0000
0000
0001
0000
0000
0000
0000
0000
0000
0000
,
0010
0100
0010
0001
0100
0010
1000
0001
,
2002
3003
0000
0000
0000
0000
0000
0000
1000
0000
0000
0000
0000
0000
0000
0000
0010
0000
0000
0000
0000
0000
0000
0000
1000
0000
0000
0000
0000
0000
0000
0000
0100
0000
0000
0000
0000
0000
0000
0000
0010
0000
0000
0000
0000
0000
0000
0000
0001
0000
0000
0000
0000
0000
0000
0000
1000
0000
0000
0000
0000
0000
0000
0000
,
0010
0000
0000
0000
0000
0000
0000
0000
0100
0000
0000
0000
0000
0000
0000
0000
0010
0000
0000
0000
0000
0000
0000
0000
1000
0000
0000
0000
0000
0000
0000
0000
0200
0300
0000
0000
0000
0000
0000
0000
0010
0000
0000
0000
0000
0000
0000
0000
0002
0003
0000
0000
0000
0000
0000
0000
1000
0000
0000
0000
0000
0000
0000
0000
,
2002
3003
0000
0000
0000
0000
0000
0000
0001
0000
0000
0000
0000
0000
0000
0000
0010
0000
0000
0000
0000
0000
0000
0000
0001
0000
0000
0000
0000
0000
0000
0000
0200
0300
0000
0000
0000
0000
0000
0000
0010
0000
0000
0000
0000
0000
0000
0000
1000
0000
0000
0000
0000
0000
0000
0000
0001
0000
0000
0000
0000
0000
0000
0000
,
0020
0030
0000
0000
0000
0000
0000
0000
0100
0000
0000
0000
0000
0000
0000
0000
0020
0030
0000
0000
0000
0000
0000
0000
0001
0000
0000
0000
0000
0000
0000
0000
0200
0300
0000
0000
0010
0000
0000
0000
0100
0000
0000
0000
0010
0000
0000
0000
1000
0000
0000
0000
0001
0000
0000
0000
0010
0000
0000
0000
0100
0000
0000
0000
,
1000
0001
1000
0010
0100
0001
1000
0001
1000
0010
0100
0001
1000
0100
1000
0001
,
0100
0010
1000
0100
1000
0001
0100
0010
1000
0100
1000
0001
1000
0010
1000
0010
,
0100
0001
1000
0100
1000
0001
0100
0010
1000
0100
1000
0001
0100
0010
0100
0001
,
1000
0100
1000
0001
0010
0001
1000
0010
0100
0001
0100
0010
1000
0001
1000
0001
,
0010
0100
1000
0001
1000
0100
0010
0001
1000
0010
1000
0001
0010
0100
0010
0001
,
1000
0001
0100
0010
0100
0001
1000
0001
0010
0100
0010
0001
1000
0001
1000
0001
,
0100
0010
1000
0001
1000
0010
0100
0001
1000
0100
1000
0001
1000
0100
1000
0001
,
0100
0010
1000
0001
1000
0010
0100
0001
1000
0001
1000
0100
0010
0001
0010
0100
,
1000
0001
1000
0010
0100
0001
1000
0001
1000
0010
0100
0001
1000
0100
1000
0001
,
0100
0010
1000
0100
1000
0001
0100
0010
1000
0100
1000
0001
1000
0010
1000
0010
,
0100
0001
1000
0100
1000
0001
0100
0010
1000
0100
1000
0001
0100
0010
0100
0001
,
1000
0100
1000
0001
0010
0001
1000
0010
0100
0001
0100
0010
1000
0001
1000
0001
,
0010
0100
1000
0001
1000
0100
0010
0001
1000
0010
1000
0001
0010
0100
0010
0001
,
1000
0001
0100
0010
0100
0001
1000
0001
0010
0100
0010
0001
1000
0001
1000
0001
,
0100
0010
1000
0001
1000
0010
0100
0001
1000
0100
1000
0001
1000
0100
1000
0001
,
0100
0010
1000
0001
1000
0010
0100
0001
1000
0001
1000
0100
0010
0001
0010
0100
,
1000
0001
1000
0010
0100
0001
1000
0001
1000
0010
0100
0001
1000
0100
1000
0001
,
0100
0010
1000
0100
1000
0001
0100
0010
1000
0100
1000
0001
1000
0010
1000
0010
,
0100
0001
1000
0100
1000
0001
0100
0010
1000
0100
1000
0001
0100
0010
0100
0001
,
1000
0100
1000
0001
0010
0001
1000
0010
0100
0001
0100
0010
1000
0001
1000
0001
,
0010
0100
1000
0001
1000
0100
0010
0001
1000
0010
1000
0001
0010
0100
0010
0001
,
1000
0001
0100
0010
0100
0001
1000
0001
0010
0100
0010
0001
1000
0001
1000
0001
,
0100
0010
1000
0001
1000
0010
0100
0001
1000
0100
1000
0001
1000
0100
1000
0001
,
0100
0010
1000
0001
1000
0010
0100
0001
1000
0001
1000
0100
0010
0001
0010
0100
,
1000
0001
1000
0010
0100
0001
1000
0001
1000
0010
0100
0001
1000
0100
1000
0001
,
0100
0010
1000
0100
1000
0001
0100
0010
1000
0100
1000
0001
1000
0010
1000
0010
,
0100
0001
1000
0100
1000
0001
0100
0010
1000
0100
1000
0001
0100
0010
0100
0001
,
1000
0100
1000
0001
0010
0001
1000
0010
0100
0001
0100
0010
1000
0001
1000
0001
,
0010
0100
1000
0001
1000
0100
0010
0001
1000
0010
1000
0001
0010
0100
0010
0001
,
1000
0001
0100
0010
0100
0001
1000
0001
0010
0100
0010
0001
1000
0001
1000
0001
,
0100
0010
1000
0001
1000
0010
0100
0001
1000
0100
1000
0001
1000
0100
1000
0001
,
0100
0010
1000
0001
1000
0010
0100
0001
1000
0001
1000
0100
0010
0001
0010
0001
,
0100
0000
0001
0101
0000
0001
0101
0000
,
0100
0001
0100
0001
0100
0001
0100
0001
0100
0001
0100
0001
0100
0001
0100
0001
,
0100
0001
0100
0001
0100
0001
0100
0001
0100
0001
0100
0001
0100
0001
0100
0001
,
0100
0001
0100
0001
0100
0001
0100
0001
0100
0001
0100
0001
0100
0001
0100
0001
,
0100
0010
1000
0001
1000
0010
0100
0001
1000
0010
1000
0001
0100
0010
1000
0001
,
1000
0100
0010
0001
1000
0001
0010
0100
1000
0001
0010
0001
1000
0100
0010
0001
,
0100
0010
1000
0001
0100
0001
1000
0100
0010
0001
1000
0001
0010
0100
1000
0010
,
0100
0001
0100
0001
0100
0001
0100
0001
,
1001
0000
1000
1001
0000
0001
1001
0000
,
1000
0001
1000
0001
1000
0001
1000
0001
1000
0001
1000
0001
1000
0001
1000
0001
,
1000
0001
1000
0001
1000
0001
1000
0001
1000
0001
1000
0001
1000
0001
1000
0001
,
1000
0001
1000
0001
1000
0001
1000
0001
1000
0001
1000
0001
1000
0001
1000
0001
,
1000
0100
1000
0001
0010
0100
0010
0001
1000
0100
1000
0001
0010
0100
1000
0001
,
1000
0010
0100
0001
1000
0001
0100
0010
1000
0001
0100
0001
1000
0010
0100
0001
,
0010
0100
1000
0001
0010
0001
1000
0010
0100
0001
1000
0001
0100
0010
1000
0100
,
1000
0001
1000
0001
1000
0001
1000
0001
,
0101
0000
0001
0101
0000
0001
0101
0000
,
0101
0000
1001
0000
1000
0100
1000
0001
,
0011
0000
0001
0011
0000
0001
0011
0000
,
0004
0003
0400
0300
0040
0030
0400
0300
0004
0003
0040
0030
0400
0300
4000
3000
,
1100
0000
1001
0000
0001
0010
0001
1000
,
0100
1000
0100
1000
0100
1000
0100
1000
0100
1000
0100
1000
0100
1000
0100
1000
,
0100
1000
0100
1000
0100
1000
0100
1000
0100
1000
0100
1000
0100
1000
0100
1000
,
0100
1000
0100
1000
0100
1000
0100
1000
0100
1000
0100
1000
0100
1000
0100
1000
,
0100
0010
0001
1000
0001
0010
0100
1000
0001
0010
0001
1000
0100
0010
0001
1000
,
0001
0100
0010
1000
0001
1000
0010
0100
0001
1000
0010
1000
0001
0100
0010
1000
,
0100
0010
0001
1000
0100
1000
0001
0100
0010
1000
0001
1000
0010
0100
0001
0010
,
0100
1000
0100
1000
0100
1000
0100
1000
,
1001
0000
0001
0100
0010
0100
0001
0000
,
1000
0001
1000
0001
1000
0001
1000
0001
1000
0001
1000
0001
1000
0001
1000
0001
,
1000
0001
1000
0001
1000
0001
1000
0001
1000
0001
1000
0001
1000
0001
1000
0001
,
1000
0001
1000
0001
1000
0001
1000
0001
1000
0001
1000
0001
1000
0001
1000
0001
,
1000
0100
1000
0001
0010
0100
0010
0001
1000
0100
1000
0001
0010
0100
1000
0001
,
1000
0010
0100
0001
1000
0001
0100
0010
1000
0001
0100
0001
1000
0010
0100
0001
,
0010
0100
1000
0001
0010
0001
1000
0010
0100
0001
1000
0001
0100
0010
1000
0100
,
1000
0001
1000
0001
1000
0001
1000
0001
,
0101
0000
1010
0000
0100
0001
1000
0000
,
0001
0010
0001
0010
0001
0010
0001
0010
0001
0010
0001
0010
0001
0010
0001
0010
,
0001
0010
0001
0010
0001
0010
0001
0010
0001
0010
0001
0010
0001
0010
0001
0010
,
0001
0010
0001
0010
0001
0010
0001
0010
0001
0010
0001
0010
0001
0010
0001
0010
,
0001
1000
0001
0100
0010
0100
0001
1000
0010
0100
0001
1000
0001
0100
0010
1000
,
0001
1000
0100
0010
0001
1000
0001
0010
0100
1000
0001
0010
0001
1000
0100
0010
,
0001
0100
0010
1000
0001
1000
0010
0100
0001
0010
0100
1000
0010
1000
0100
0010
,
0001
0010
0001
0010
0001
0010
0001
0010
,
0110
0000
1100
0000
1000
0100
0010
0001
,
1000
0001
1000
0001
1000
0001
1000
0001
1000
0001
1000
0001
1000
0001
1000
0001
,
1000
0001
1000
0001
1000
0001
1000
0001
1000
0001
1000
0001
1000
0001
1000
0001
,
1000
0001
1000
0001
1000
0001
1000
0001
1000
0001
1000
0001
1000
0001
1000
0001
,
1000
0010
0100
0001
1000
0001
0100
0010
1000
0001
0100
0001
1000
0010
0100
0001
,
1000
0100
0010
0100
1000
0001
0010
0001
1000
0100
0010
0001
1000
0001
0010
0100
,
1000
0010
0100
0001
1000
0001
0100
0010
1000
0100
0010
0001
1000
0001
0010
0100
,
2000
0001
3001
0200
0001
0301
2000
3100
,
1000
0001
0100
0001
1000
0010
1000
0001
0010
0100
1000
0100
1000
0001
0010
0100
,
1000
0001
1000
0001
0100
0010
1000
0010
1000
0001
0100
0001
1000
0010
1000
0001
,
1000
0100
1000
0001
0010
0100
1000
0001
0100
0010
1000
0010
1000
0001
0100
0010
,
1000
0001
1000
0001
0100
0010
1000
0010
1000
0001
1000
0010
0100
0001
0100
0010
,
1000
0001
0010
0100
1000
0001
0010
0100
1000
0001
0010
0100
0010
0100
1000
0001
,
1000
0001
0010
0001
1000
0100
1000
0001
0010
0001
0010
0100
1000
0001
1000
0001
,
1000
0010
0100
0001
1000
0010
0100
0001
1000
0100
0010
0001
0010
0001
1000
0100
,
1000
0001
0010
0001
1000
0010
1000
0010
0100
0001
1000
0001
0010
0100
0010
0001
,
1000
0010
0100
0001
1000
0010
1000
0001
0010
0100
1000
0100
1000
0001
0010
0100
,
1000
0001
1000
0001
0100
0010
1000
0010
1000
0001
0100
0001
1000
0100
0010
0001
,
1000
0010
1000
0001
0100
0010
1000
0001
0010
0100
1000
0100
1000
0001
0010
0100
,
1000
0001
1000
0001
0100
0010
1000
0010
1000
0001
1000
0100
0010
0001
0010
0001
,
1000
0001
0100
0010
1000
0001
0100
0010
1000
0001
1000
0100
0010
0001
1000
0001
,
1000
0001
0100
0001
1000
0010
1000
0001
0100
0001
0100
0010
1000
0001
1000
0001
,
1000
0100
0010
0001
1000
0100
0010
0001
1000
0100
0010
0001
0010
0001
1000
0001
,
1000
0010
0100
0001
0100
0001
1000
0010
0100
0001
0100
0001
4000
0000
3000
0000
,
0001
1000
0010
1000
0001
0100
0001
1000
0100
0010
0001
0010
0001
1000
0100
0010
,
0001
1000
0001
1000
0010
0100
0001
0100
0001
1000
0010
1000
0001
0100
0001
1000
,
0001
0010
0001
1000
0100
0010
0001
1000
0010
0100
0001
0100
0001
1000
0010
0100
,
0001
1000
0001
1000
0010
0100
0001
0100
0001
1000
0001
0100
0010
1000
0010
0100
,
0001
1000
0100
0010
0001
1000
0100
0010
0001
1000
0100
0010
0100
0010
0001
1000
,
0001
1000
0100
1000
0001
0010
0001
1000
0100
1000
0100
0010
0001
1000
0001
1000
,
0001
0100
0010
1000
0001
0100
0010
1000
0001
0010
0100
1000
0100
1000
0001
0010
,
0001
1000
0100
1000
0001
0100
0001
0100
0010
1000
0001
1000
0100
0010
0100
1000
,
0001
0100
0010
1000
0001
0100
0001
1000
0100
0010
0001
0010
0001
1000
0100
0010
,
0001
1000
0001
1000
0010
0100
0001
0100
0001
1000
0010
1000
0001
0010
0100
1000
,
0001
0100
0001
1000
0010
0100
0001
1000
0100
0010
0001
0010
0001
1000
0100
0010
,
0001
1000
0001
1000
0010
0100
0001
0100
0001
1000
0001
0010
0100
1000
0100
1000
,
0001
1000
0010
0100
0001
1000
0010
0100
0001
1000
0001
0010
0100
1000
0001
1000
,
0001
1000
0010
1000
0001
0100
0001
1000
0010
1000
0010
0100
0001
1000
0001
1000
,
0001
0010
0100
1000
0001
0010
0100
1000
0001
0010
0100
1000
0100
1000
0001
1000
,
0001
0100
0010
1000
0010
1000
0001
0100
0010
1000
0010
1000
0004
0000
0003
0000
,
0200
0000
0302
0000
2003
0000
3020
0000
0000
0000
0200
0300
0000
0000
2000
3000
,
0030
0002
0203
0320
2030
3002
0023
0230
,
2300
0000
3020
0000
0230
0000
0302
0000
0000
0000
0020
0030
0000
0000
2000
3000
,
0003
0000
0002
0000
0023
0000
0230
0000
0320
0000
0000
0000
0002
0003
0030
0000
,
0020
0000
0230
0000
2300
0000
3020
0000
0000
0000
0200
0300
0000
0000
2000
3000
,
0030
0002
0023
0230
2300
3002
0203
0320
,
2030
0000
3200
0000
0320
0000
0032
0000
0000
0000
0200
0300
0000
0000
2000
3000
,
0003
0000
0002
0000
0203
0000
0320
0000
0230
0000
0000
0000
0002
0003
0300
0000
,
1000
0000
0001
0010
0001
0000
1000
0010
1000
0001
0100
0001
1000
0000
0010
0100
,
0001
0000
1000
0100
1000
0000
0001
0100
0001
1000
0010
1000
0001
0000
0100
0010
,
1000
0000
0001
0100
0001
0000
1000
0100
1000
0001
0010
0001
1000
0000
0100
0010
,
0001
0000
1000
0010
1000
0000
0001
0010
0001
1000
0100
1000
0001
0010
0100
1000
,
0001
0000
1000
0010
1000
0000
0001
0010
0001
1000
0100
1000
0001
0000
0010
0100
,
1000
0000
0001
0100
0001
0000
1000
0100
1000
0001
0010
0001
1000
0000
0100
0010
,
0001
0000
1000
0100
1000
0000
0001
0100
0001
1000
0010
1000
0001
0000
0100
0010
,
1000
0000
0001
0010
0001
0000
1000
0010
1000
0001
0100
0001
1000
0010
0100
0001
,
1000
0000
0001
0010
0001
0000
1000
0010
1000
0001
0100
0001
1000
0000
0010
0100
,
0001
0000
1000
0100
1000
0000
0001
0100
0001
1000
0010
1000
0001
0000
0100
0010
,
1000
0000
0001
0100
0001
0000
1000
0100
1000
0001
0010
0001
1000
0000
0100
0010
,
0001
0000
1000
0010
1000
0000
0001
0010
0001
1000
0100
1000
0001
0010
0100
1000
,
0001
0000
1000
0010
1000
0000
0001
0010
0001
1000
0100
1000
0001
0000
0010
0100
,
1000
0000
0001
0100
0001
0000
1000
0100
1000
0001
0010
0001
1000
0000
0100
0010
,
0001
0000
1000
0100
1000
0000
0001
0100
0001
1000
0010
1000
0001
0000
0100
0010
,
1000
0000
0001
0010
0001
0000
1000
0010
1000
0001
0100
0001
1000
0010
0100
0001
,
1000
0000
0001
0010
0001
0000
1000
0010
1000
0001
0100
0001
1000
0000
0010
0100
,
0001
0000
1000
0100
1000
0000
0001
0100
0001
1000
0010
1000
0001
0000
0100
0010
,
1000
0000
0001
0100
0001
0000
1000
0100
1000
0001
0010
0001
1000
0000
0100
0010
,
0001
0000
1000
0010
1000
0000
0001
0010
0001
1000
0100
1000
0001
0010
0100
1000
,
0001
0000
1000
0010
1000
0000
0001
0010
0001
1000
0100
1000
0001
0000
0010
0100
,
1000
0000
0001
0100
0001
0000
1000
0100
1000
0001
0010
0001
1000
0000
0100
0010
,
0001
0000
1000
0100
1000
0000
0001
0100
0001
1000
0010
1000
0001
0000
0100
0010
,
1000
0000
0001
0010
0001
0000
1000
0010
1000
0001
0100
0001
1000
0010
0100
0001
,
1000
0000
0001
0010
0001
0000
1000
0010
1000
0001
0100
0001
1000
0000
0010
0100
,
0001
0000
1000
0100
1000
0000
0001
0100
0001
1000
0010
1000
0001
0000
0100
0010
,
1000
0000
0001
0100
0001
0000
1000
0100
1000
0001
0010
0001
1000
0000
0100
0010
,
0001
0000
1000
0010
1000
0000
0001
1000
0001
0010
0100
1000
0001
0010
0100
1000
,
0001
0000
1000
0010
1000
0000
0001
0010
0001
1000
0100
1000
0001
0000
0010
0100
,
1000
0000
0001
0100
0001
0000
1000
0100
1000
0001
0010
0001
1000
0000
0100
0010
,
0001
0000
1000
0100
1000
0000
0001
0100
0001
1000
0010
1000
0001
0000
0100
0010
,
1000
0000
0001
0010
0001
0000
1000
0010
1000
0001
0100
0001
1000
0010
0100
0001
,
1000
0000
0001
0010
0001
0000
1000
0010
1000
0001
0100
0001
1000
0000
0010
0100
,
0001
0000
1000
0100
1000
0000
0001
0100
0001
1000
0010
1000
0001
0000
0100
0010
,
1000
0000
0001
0100
0001
0000
1000
0100
1000
0001
0010
0001
1000
0000
0100
0010
,
0001
0000
1000
0010
1000
0000
0001
0010
0001
1000
0100
1000
0001
0010
0100
1000
,
0001
0000
1000
0010
1000
0000
0001
0010
0001
1000
0100
1000
0001
0000
0010
0100
,
1000
0000
0001
0100
0001
0000
1000
0100
1000
0001
0010
0001
1000
0000
0100
0010
,
0001
0000
1000
0100
1000
0000
0001
0100
0001
1000
0010
1000
0001
0000
0100
0010
,
1000
0000
0001
0010
0001
0000
1000
0010
1000
0001
0100
0001
1000
0010
0100
0001
,
1000
0010
1000
0001
1000
0100
1000
0001
,
1000
0001
0010
0001
1000
0001
0100
0001
,
M000
0000
0000
0000
0M00
0000
0000
0000
00M0
0000
0000
0000
000M
0000
0000
0000
0000
0000
0000
0000
0M00
0000
0000
0000
0000
0000
0000
0000
0000
00M0
0000
0000
,
0000
0000
0000
0000
0000
M000
0000
0000
0000
00M0
0000
0000
0000
0000
0M00
0000
0000
0000
000M
0000
0000
0000
0000
0000
0000
0000
0000
00M0
0000
0000
0000
0000
,
0000
0000
0000
0000
0000
M000
0000
0000
0000
0M00
0000
0000
0000
00M0
0000
0000
0000
000M
0000
0000
0000
0000
0000
0000
0000
0000
0000
0000
00M0
0000
0000
0000
,
0000
0000
0000
0000
0000
0M00
0000
0000
0000
0000
0000
0000
0000
0000
0000
0000
M000
0000
0000
0000
0000
0M00
0000
0000
0000
00M0
0000
0000
0000
0000
000M
0000
,
0000
0000
0000
0M00
0000
0000
0000
0000
00M0
0000
0000
0000
0000
M000
0000
0000
0000
0000
0000
000M
0000
0000
0000
00M0
0000
0000
0000
0000
0M00
0000
0000
0000
,
0000
M000
0000
0000
0000
0000
0000
0000
0000
0000
0000
0000
00M0
0000
0000
0000
0000
0000
0000
0000
0000
0000
0000
0000
0M00
0000
0000
0000
0000
0000
0000
0000
,
0000
0000
000M
0000
0000
0000
0000
0000
0M00
0000
0000
0000
0000
00M0
0000
0000
0000
0000
0000
0000
M000
0000
0000
0000
0000
0000
0000
0000
0000
0000
0000
0000
,
0M00
0000
0000
0000
0000
0000
0000
0000
0000
0000
0000
0000
M000
0000
0000
0000
0000
0000
000M
0000
0000
0000
0000
0000
0M00
0000
0000
0000
0000
0000
0000
00M0
,
0000
0000
0000
0000
,
MMMM
MMMM
MMMM
0000
0000
0000
0000
0000
;

//---------------dance-single - 18- (Archi)----------------
#NOTES:
     dance-single:
     18- (Archi):
     Challenge:
     18:
     1.000,1.000,0.290,0.635,1.000,4096.000,118.000,258.000,117.000,0.000:
0000
0000
0000
0000
,
2000
3200
0320
0032
,
0003
0000
0000
1000
0200
0000
0300
0000
0000
0000
0000
0001
0200
0000
0300
0000
,
0020
0000
0000
0030
0020
0000
0000
0030
0200
0000
0000
0301
2000
0000
0000
3000
,
0000
0000
0000
0000
0000
0000
0000
0000
2000
0000
0000
3000
0200
0000
0000
0300
,
1000
0000
0000
0000
0001
0000
0000
0000
1000
0000
0000
0000
0001
0000
0000
0000
0000
0000
0000
0000
0000
0000
0000
0000
0020
0000
0000
0000
0000
0000
0000
0000
0000
0030
0000
0000
0200
0000
0000
0000
0000
0000
0000
0000
0000
0300
0000
0000
,
0000
0000
0000
1000
0002
0000
0000
0000
0000
0000
0003
0001
0200
0000
0000
0300
,
0020
0000
0000
0030
0020
0000
0000
0030
2000
0000
0000
3000
0200
0000
0000
0300
,
0000
0000
0000
0000
,
0000
0000
1000
0001
0020
0000
0000
0100
0000
0000
0000
0000
0000
0000
0000
0030
,
0000
00M0
00M0
00M0
00M0
00M0
00M0
00M0
,
00M0
0000
0000
00M0
0000
0000
00M0
0000
0000
00M0
0000
0000
00M0
0000
0000
0000
,
1000
0000
0001
0000
0010
0000
0100
1000
0100
1000
0001
0000
0100
0000
0010
1000
,
0001
0000
1000
0000
0010
0000
0100
0001
0100
0001
1000
0000
0100
0000
0010
0001
,
1000
0000
0001
0000
0100
0000
0010
1000
0010
1000
0001
0000
0010
0000
0100
1000
,
0001
0000
1000
0000
0100
0000
0010
0001
0100
0010
M10M
0000
0010
0100
M01M
0000
,
0100
0000
0010
0000
1000
0000
0001
0100
0001
0100
0010
0000
1000
0000
0001
1000
,
0100
0000
0010
0000
0001
0000
1000
0100
1000
0100
0010
0000
0001
0000
1000
0001
,
0010
0000
0100
0000
1000
0000
0001
0010
0001
0010
0100
0000
1000
0000
0001
1000
,
0010
0000
0100
0000
0001
0000
1000
0001
0010
0100
M01M
0000
0100
0010
M10M
0000
,
1000
0000
0001
0000
0010
0000
0001
1000
0001
1000
0010
0000
0100
0000
0010
0100
,
0001
0000
1000
0000
0010
0000
1000
0001
1000
0001
0010
0000
0100
0000
0010
0100
,
1000
0000
0001
0000
0100
0000
0001
1000
0001
1000
0100
0000
0010
0000
0100
0010
,
0001
0000
1000
0000
0100
0000
1000
0001
0100
0010
M10M
0000
0010
0100
M01M
0000
,
1000
0000
0010
0000
0100
0000
0010
1000
0010
1000
0001
0000
0100
0000
0010
1000
,
0001
0000
0010
0000
0100
0000
0010
0001
0010
0001
1000
0000
0100
0000
0010
0001
,
1000
0000
0100
0000
0010
0000
0100
1000
0100
1000
0001
0000
0010
0000
0100
1000
,
0001
0000
0100
0000
0010
0000
0100
0001
0010
0100
M01M
0000
0100
0010
M10M
0000
,
1000
0000
0001
0000
1000
0000
0100
0010
0100
0010
0001
0000
0010
0000
0100
1000
,
0001
0000
1000
0000
0001
0000
0100
0010
0100
0010
1000
0000
0010
0000
0100
0001
,
1000
0000
0001
0000
1000
0000
0010
0100
0010
0100
0001
0000
0100
0000
0010
1000
,
0001
0000
1000
0000
0001
0000
0010
0001
0100
0010
M10M
0000
0010
0100
M01M
0000
,
1000
0000
0001
0000
0010
0000
0100
1000
0100
1000
0001
0000
0100
0000
0010
1000
,
0001
0100
0010
1000
0001
0100
0010
1000
0001
0100
0001
0100
0010
1000
0010
1000
,
0001
0000
0M00
0000
0000
00M0
0000
0M00
0000
0000
0000
0000
0000
00M0
0000
0M00
,
0000
00M0
0000
0000
0M00
0000
0000
00M0
0000
0000
0M00
0000
4000
0000
3004
0000
,
0103
0010
1000
0001
0100
0010
1000
0001
0010
0100
1000
0100
1000
0001
0010
0100
,
1000
0001
1000
0001
0100
0010
1000
0010
1000
0001
0100
0001
2000
0000
3002
0000
,
0013
0100
1000
0001
0010
0100
1000
0001
0100
0010
1000
0010
1000
0001
0100
0010
,
1000
0001
1000
0001
0010
0100
1000
0100
1000
0001
1000
0001
0200
0000
0000
0300
,
0010
0100
0010
1000
0001
0100
0010
1000
0001
0010
0100
1000
0100
1000
0001
0010
,
0001
1000
0100
1000
0001
0100
0001
0100
0010
1000
0010
1000
0002
0000
2003
0000
,
3100
0010
0100
1000
0001
0010
0100
1000
0001
0100
0010
1000
0010
1000
0001
0100
,
0001
1000
0010
1000
0001
0010
0001
0010
0100
1000
0001
1000
0020
0000
0000
0030
,
0100
0010
1000
0001
0100
0010
1000
0001
0010
0100
1000
0100
1000
0001
0010
0100
,
1000
0001
1000
0001
0100
0010
1000
0010
1000
0001
0100
0001
2000
0000
3002
0000
,
0013
0100
1000
0001
0010
0100
1000
0001
0100
0010
1000
0010
1000
0001
0100
0010
,
1000
0001
1000
0001
0010
0100
1000
0100
1000
0001
1000
0001
0200
0000
0000
0300
,
0010
0100
0010
1000
0001
0100
0010
1000
0001
0010
0100
1000
0100
1000
0001
0010
,
0001
1000
0100
1000
0001
0100
0001
0100
0010
1000
0010
1000
0002
0000
2003
0000
,
3100
0010
0100
1000
0001
0010
0100
1000
0001
0010
0100
1000
0100
1000
0001
0010
,
0400
0300
0000
0000
0010
0000
0010
0000
0001
1000
0001
0000
0100
0001
0100
0000
,
0010
0100
0001
1000
0010
0100
0001
1000
0010
0100
0001
0100
0001
1000
0010
0100
,
0001
1000
0001
1000
0010
0100
0001
0100
0001
1000
0010
1000
0002
0000
2003
0000
,
3100
0010
0001
1000
0100
0010
0001
1000
0100
0010
0001
0010
0001
1000
0100
0010
,
0001
1000
0001
1000
0100
0010
0001
0010
0001
1000
0001
1000
0020
0000
0000
0030
,
0100
0010
0100
0001
1000
0010
0100
0001
1000
0010
0100
0001
0100
0001
1000
0010
,
1000
0001
0100
0001
1000
0010
1000
0010
0100
0001
0100
0001
2000
0000
3002
0000
,
0013
0100
0010
0001
1000
0100
0010
0001
1000
0100
0010
0001
0010
0001
1000
0100
,
1000
0001
0010
0001
1000
0100
1000
0100
0010
0001
1000
0001
0200
0000
0000
0300
,
0010
0100
0001
1000
0010
0100
0001
1000
0010
0100
0001
0100
0001
1000
0010
0100
,
0001
1000
0001
1000
0010
0100
0001
0100
0001
1000
0010
1000
0002
0000
2003
0000
,
3100
0010
0001
1000
0100
0010
0001
1000
0100
0010
0001
0010
0001
1000
0100
0010
,
0001
1000
0001
1000
0100
0010
0001
0010
0001
1000
0001
1000
0020
0000
0000
0030
,
0200
0000
0302
0000
2003
0000
3002
0000
0203
0000
0310
1000
0010
0000
0200
0000
,
0320
0000
2030
0000
3002
0000
0103
0010
0100
0000
0010
1000
0010
0000
0200
0000
,
0302
0023
0230
0320
0032
0203
0320
0230
,
0302
0000
0M13
0000
0M10
0000
0M10
0001
,
1000
0000
0001
0010
0001
0000
1000
0000
0001
0010
0001
0000
1000
0010
0100
0001
,
1000
0000
0001
0010
0001
0000
1000
0000
0001
0010
0001
0000
1000
0010
0100
0001
,
1000
0000
0001
0010
0001
0000
1000
0000
0001
0010
0001
0000
1000
0010
0100
0001
,
1000
0100
0010
0001
1000
0010
0100
0001
2000
0000
3000
0000
0010
0100
0010
1000
,
0001
0000
1000
0010
1000
0000
0001
0000
1000
0010
1000
0000
0001
0100
0010
1000
,
0001
0000
1000
0010
1000
0000
0001
0000
1000
0010
1000
0000
0001
0100
0010
1000
,
0001
0000
1000
0010
1000
0000
0001
0000
1000
0010
1000
0000
0001
0100
0010
1000
,
0001
0010
0100
1000
0001
0100
0010
1000
0002
0000
0003
0000
0010
0100
0010
0001
,
1000
0000
0100
0010
0100
0000
1000
0000
0100
0010
0100
0000
1000
0001
0100
0001
,
1000
0000
0100
0010
0100
0000
1000
0000
0100
0010
0100
0000
1000
0001
0100
0001
,
1000
0000
0100
0010
0100
0000
1000
0000
0100
0010
0100
0000
1000
0001
0100
0001
,
1000
0001
0100
0010
1000
0001
0100
0001
2000
0000
3000
0000
0010
1000
0010
0100
,
0001
0000
0100
0010
0100
0000
0001
0000
0100
0010
0100
0000
0001
1000
0100
1000
,
0001
0000
0100
0010
0100
0000
0001
0000
0100
0010
0100
0000
0001
1000
0100
1000
,
0001
0000
0100
0010
0100
0000
0001
0000
0100
0010
0100
0000
0001
1000
0100
1000
,
0001
1MM0
0000
0000
1MM0
0000
1MM0
0001
,
1000
0000
0001
0100
0001
0000
1000
0000
0001
0100
0001
0000
1000
0100
0010
0001
,
1000
0000
0001
0100
0001
0000
1000
0000
0001
0100
0001
0000
1000
0100
0010
0001
,
1000
0000
0001
0100
0001
0000
1000
0000
0001
0100
0001
0000
1000
0100
0010
0001
,
1000
0010
0100
0001
1000
0100
0010
0001
2000
0000
3000
0000
0100
0010
0100
1000
,
0001
0000
1000
0100
1000
0000
0001
0000
1000
0100
1000
0000
0001
0100
0010
1000
,
0001
0000
1000
0100
1000
0000
0001
0000
1000
0100
1000
0000
0001
0100
0010
1000
,
0001
0000
1000
0100
1000
0000
0001
0000
1000
0100
1000
0000
0001
0100
0010
1000
,
0001
0010
0100
1000
0001
0100
0010
1000
0002
0000
0003
0000
0100
0010
0100
0001
,
1000
0000
0010
0100
0010
0000
1000
0000
0010
0100
0010
0000
1000
0001
0010
0001
,
1000
0000
0010
0100
0010
0000
1000
0000
0010
0100
0010
0000
1000
0001
0010
0001
,
1000
0000
0010
0100
0010
0000
1000
0000
0010
0100
0010
0000
1000
0001
0010
0001
,
1000
0001
0010
0100
1000
0001
0010
0001
2000
0000
3000
0000
0100
1000
0100
0010
,
0001
0000
0010
0100
0010
0000
0001
0000
0010
0100
0010
0000
0001
1000
0010
1000
,
0001
0000
0010
0100
0010
0000
0001
0000
0010
0100
0010
0000
0001
1000
0010
1000
,
0001
0000
0010
0100
0010
0000
0001
0000
0010
0100
0010
0000
0001
1000
0010
1000
,
0001
0000
1000
0000
0100
0000
0010
0000
0100
0000
M00M
0000
0040
0000
0130
1000
,
0001
0000
0000
0000
0000
0000
0000
0000
0100
0000
0000
0000
0000
0000
0000
0000
0001
0000
0000
0000
0000
0000
0000
0000
0100
0000
0000
0000
0000
0000
0000
0000
0020
0030
0000
0000
0000
0000
0000
0000
0100
0000
0000
0000
0001
0000
0000
0000
1000
0000
0000
0000
0000
0000
0000
0000
0100
0000
0000
0000
0000
0000
0000
0000
,
1000
0000
0100
0000
1000
0000
0100
1000
0001
0000
0100
0001
1000
0000
0010
0000
,
1000
0000
0000
0000
0000
0000
0000
0000
0010
0000
0000
0000
0000
0000
0000
0000
1000
0000
0000
0000
0000
0000
0000
0000
0010
0000
0000
0000
0000
0000
0000
0000
0200
0300
0000
0000
0000
0000
0000
0000
0010
0000
0000
0000
0000
0000
0000
0000
1000
0000
0000
0000
0000
0000
0000
0000
0010
0000
0000
0000
1000
0000
0000
0000
,
0001
0000
0000
0000
0000
0000
0000
0000
0010
0000
0000
0000
0000
0000
0000
0000
0200
0300
0000
0000
0000
0000
0000
0000
0010
0000
0000
0000
0000
0000
0000
0000
0001
0000
0000
0000
0000
0000
0000
0000
0010
0000
0000
0000
0001
0000
0000
0000
1000
0000
0000
0000
0000
0000
0000
0000
0010
0000
0000
0000
0000
0000
0000
0000
,
0010
0000
0000
0000
0000
0000
0000
0000
0100
0000
0000
0000
0000
0000
0000
0000
0001
0000
0000
0000
0000
0000
0000
0000
0100
0000
0000
0000
0000
0000
0000
0000
0020
0030
0000
0000
0000
0000
0000
0000
0100
0000
0000
0000
0001
0000
0000
0000
1000
0000
0000
0000
0000
0000
0000
0000
0100
0000
0000
0000
0000
0000
0000
0000
,
1000
0000
0100
0000
1000
0000
0100
1000
0001
0000
0100
0001
1000
0000
0010
0000
,
1000
0000
0000
0000
0000
0000
0000
0000
0010
0000
0000
0000
0000
0000
0000
0000
1000
0000
0000
0000
0000
0000
0000
0000
0010
0000
0000
0000
0000
0000
0000
0000
0200
0300
0000
0000
0000
0000
0000
0000
0010
0000
0000
0000
0000
0000
0000
0000
1000
0000
0000
0000
0000
0000
0000
0000
0010
0000
0000
0000
1000
0000
0000
0000
,
0001
0000
0000
0000
0000
0000
0000
0000
0010
0000
0000
0000
0000
0000
0000
0000
0200
0300
0000
0000
0000
0000
0000
0000
0010
0000
0000
0000
0000
0000
0000
0000
0001
0000
0000
0000
0000
0000
0000
0000
0010
0000
0000
0000
0001
0000
0000
0000
1000
0000
0000
0000
0000
0000
0000
0000
0010
0000
0000
0000
0000
0000
0000
0000
,
0010
0010
0110
0010
,
0010
1000
0010
0000
0010
0000
1000
0000
,
0010
0010
0110
0010
,
0010
0000
0110
0000
1010
0000
1001
0001
,
0011
0010
0110
0010
,
0010
0001
0010
0000
0010
0000
0001
0000
,
0010
0010
0110
0010
,
0010
0000
0110
0000
0011
0000
1001
1000
,
1010
0000
0010
0000
0100
0000
0010
1000
,
0010
1000
0001
0000
0010
0000
0001
0000
,
0010
0010
0100
0010
,
0010
0000
0100
0000
0100
0010
0100
1000
,
0001
0000
0000
0000
0100
0000
0000
0000
0001
0100
0010
1000
0001
0100
0010
1000
,
0001
0010
0100
1000
0001
0010
0100
1000
0001
0100
0010
1000
0001
0100
0010
1000
,
0001
0100
0010
1000
0001
0100
0010
1000
0001
0010
0100
1000
0001
0010
0100
1000
,
001M
0000
0110
0000
0M10
0000
0001
1000
,
0001
0000
1000
0100
1000
0000
0001
0000
1000
0100
1000
0000
0001
0100
0010
1000
,
0001
0000
1000
0100
1000
0000
0001
0000
1000
0100
1000
0000
0001
0100
0010
1000
,
0001
0000
1000
0100
1000
0000
0001
0000
1000
0100
1000
0000
0001
0100
0010
1000
,
0001
0010
0100
1000
0001
0100
0010
1000
0002
0000
0003
0000
0100
0010
0100
0001
,
1000
0000
0001
0100
0001
0000
1000
0000
0001
0100
0001
0000
1000
0010
0100
0001
,
1000
0000
0001
0100
0001
0000
1000
0000
0001
0100
0001
0000
1000
0010
0100
0001
,
1000
0000
0001
0100
0001
0000
1000
0000
0001
0100
0001
0000
1000
0010
0100
0001
,
1000
0100
0010
0001
1000
0010
0100
0001
2000
0000
3000
0000
0100
0010
0100
1000
,
0001
0000
0010
0100
0010
0000
0001
0000
0010
0100
0010
0000
0001
1000
0010
1000
,
0001
0000
0010
0100
0010
0000
0001
0000
0010
0100
0010
0000
0001
1000
0010
1000
,
0001
0000
0010
0100
0010
0000
0001
0000
0010
0100
0010
0000
0001
1000
0010
1000
,
0001
1000
0010
0100
0001
1000
0010
1000
0002
0000
0003
0000
0100
0001
0100
0010
,
1000
0001
0010
0100
1000
0001
0010
0100
1000
0001
1000
0100
0010
0001
1000
0100
,
1000
0001
0100
0010
1000
0001
0100
0010
1000
0001
1000
0010
0100
0001
1000
0010
,
1000
0001
0010
0001
1000
0100
0010
0001
1000
0001
0100
0010
1M0M
0000
0000
0000
,
1M0M
0000
0000
0000
,
0001
0000
1000
0010
1000
0000
0001
0000
1000
0010
1000
0000
0001
0010
0100
1000
,
0001
0000
1000
0010
1000
0000
0001
0000
1000
0010
1000
0000
0001
0010
0100
1000
,
0001
0000
1000
0010
1000
0000
0001
0000
1000
0010
1000
0000
0001
0010
0100
1000
,
0001
0100
0010
1000
0001
0010
0100
1000
0002
0000
0003
0000
0010
0100
0010
0001
,
1000
0000
0001
0010
0001
0000
1000
0000
0001
0010
0001
0000
1000
0010
0100
0001
,
1000
0000
0001
0010
0001
0000
1000
0000
0001
0010
0001
0000
1000
0010
0100
0001
,
1000
0000
0001
0010
0001
0000
1000
0000
0001
0010
0001
0000
1000
0010
0100
0001
,
1000
0100
0010
0001
1000
0010
0100
0001
2000
0000
3000
0000
0010
0100
0010
1000
,
0001
0000
0100
0010
0100
0000
0001
0000
0100
0010
0100
0000
0001
1000
0100
1000
,
0001
0000
0100
0010
0100
0000
0001
0000
0100
0010
0100
0000
0001
1000
0100
1000
,
0001
0000
0100
0010
0100
0000
0001
0000
0100
0010
0100
0000
0001
1000
0100
1000
,
0001
1000
0100
0010
0001
1000
0100
1000
0002
0000
0003
0000
0010
0001
0010
0100
,
1000
0000
0100
0010
0100
0000
1000
0000
0100
0010
0100
0000
1000
0010
0100
0001
,
1000
0010
0100
0001
1000
0010
0100
0001
2000
0000
3000
0000
0010
1000
0010
0100
,
0001
0000
0100
0010
0100
0000
0001
0000
0100
0010
0100
0000
0001
0010
0100
1000
,
0020
0030
0000
0000
0200
0000
0000
0300
0002
0000
0000
0003
0020
0000
0000
0030
,
1200
0000
0000
0300
1001
0000
0000
0000
1100
0000
0000
0000
1002
0000
0000
0003
,
0210
0000
0000
0300
1020
0000
0000
0030
2001
0000
0000
3000
0012
0000
0000
0003
,
0120
0000
0000
0030
1200
0000
0000
0300
1000
0000
0002
0000
0000
0003
0200
0000
,
0000
0300
0010
0000
2000
0000
0000
3000
0012
0000
0000
0003
1001
0000
0000
0000
,
0101
0000
0000
0000
2001
0000
0000
3000
0201
0000
0000
0300
0021
0000
0000
0030
,
1002
0000
0000
0003
1200
0000
0000
0300
1020
0000
0000
0030
2001
0000
0000
3000
,
0012
0000
0000
0003
1001
0000
0000
0000
1100
0000
0000
0000
1001
0000
0000
0000
,
1010
0000
0000
0000
0201
0000
0000
0300
1002
0000
0000
0003
0021
0000
0000
0030
,
1200
0000
0000
0300
1001
0000
0000
0000
1100
0000
0000
0000
2001
0000
0000
3000
,
0120
0000
0000
0030
0201
0000
0000
0300
1002
0000
0000
0003
2100
0000
0000
3000
,
0210
0000
0000
0300
0021
0000
0000
0030
0001
0000
2000
0000
0000
3000
0020
0000
,
0000
0030
0100
0000
0002
0000
0000
0003
2100
0000
0000
3000
1001
0000
0000
0000
,
0101
0000
0000
0000
1002
0000
0000
0003
1020
0000
0000
0030
1200
0000
0000
0300
,
2002
0003
0000
3000
0000
0000
0000
0000
0002
0000
0000
0003
0100
0000
0020
0000
,
0000
0000
0000
0000
,
0030
0000
0000
0000
2000
0000
0000
3000
0200
0000
0000
0300
0020
0000
0000
0030
,
0001
0010
0100
1000
0001
0010
0100
1000
0001
0010
0001
0010
0100
1000
0001
0010
,
0001
1000
0100
1000
0001
0010
0100
1000
0001
1000
0001
0100
0010
1000
0001
0100
,
0010
1000
0001
0100
0010
1000
0010
1000
0001
0100
0010
1000
0001
1000
0001
0100
,
0020
0000
1000
0030
0020
0000
1000
0030
0010
0000
1000
0001
1000
0000
0010
0000
,
1000
0010
0100
0001
1000
0010
0100
0001
1000
0010
1000
0010
0100
0001
1000
0010
,
1000
0001
0100
0001
1000
0010
0100
0001
1000
0001
1000
0100
0010
0001
1000
0100
,
0010
0001
1000
0100
0010
0001
0010
0001
1000
0100
0010
0001
1000
0001
1000
0100
,
0020
0000
0001
0030
0020
0000
0001
0030
2000
0000
0010
3000
2000
0000
0010
3000
,
1000
0001
0100
0010
1000
0001
1000
0010
0100
0001
1000
0001
0100
0010
1000
0001
,
0100
0010
1000
0010
1000
0001
0100
0010
1000
0001
1000
0001
0010
0100
1000
0001
,
0010
0001
1000
0100
1000
0001
0010
0100
1000
0001
1000
0001
0010
0100
1000
0001
,
0200
0000
0010
0300
0200
0000
0010
0300
2000
0000
0001
3000
2000
0000
0001
3000
,
1000
0010
0100
0001
1000
0001
1000
0010
0100
0001
1000
0001
1000
0100
1000
0001
,
0010
0100
1000
0100
1000
0001
0010
0100
1000
0001
1000
0001
0100
0010
1000
0001
,
0100
0001
1000
0010
1000
0001
0100
0010
1000
0001
1000
0001
0100
0010
1000
0001
,
0020
0030
0000
0000
0002
0000
0000
0003
0200
0000
0000
0300
0020
0000
0000
0030
,
1000
0100
0010
0001
1000
0100
0010
0001
1000
0100
1000
0100
0010
0001
1000
0100
,
1000
0001
0010
0001
1000
0100
0010
0001
1000
0001
1000
0010
0100
0001
1000
0010
,
0100
0001
1000
0010
0100
0001
0100
0001
1000
0010
0100
0001
1000
0001
1000
0010
,
0200
0000
0001
0300
0200
0000
0001
0300
2000
0000
0010
3000
2000
0000
0010
3000
,
1000
0010
0100
0001
1000
0010
0100
0001
1000
0010
1000
0010
0100
0001
1000
0010
,
1000
0001
0100
0001
1000
0010
0100
0001
1000
0001
1000
0100
0010
0001
1000
0100
,
0010
0001
1000
0100
0010
0001
0010
0001
1000
0100
0010
0001
1000
0001
1000
0100
,
0020
0000
0001
0030
0020
0000
0001
0030
2000
0000
0010
3000
2000
0000
0010
3000
,
1000
0001
0100
0010
1000
0001
1000
0010
0100
0001
1000
0001
0100
0010
1000
0001
,
0100
0010
1000
0010
1000
0001
0100
0010
1000
0001
1000
0001
0010
0100
1000
0001
,
0010
0001
1000
0100
1000
0001
0010
0100
1000
0001
1000
0001
0010
0100
1000
0001
,
0200
0000
0010
0300
0200
0000
0010
0300
2000
0000
0001
3000
2000
0000
0001
3000
,
1000
0010
0100
0001
1000
0001
1000
0010
0100
0001
1000
0001
1000
0100
1000
0001
,
0010
0100
1000
0100
1000
0001
0010
0100
1000
0001
1000
0001
0100
0010
1000
0001
,
1000
0010
0100
0001
1000
0010
0100
0001
1000
0010
1000
0010
0100
0001
0100
0001
,
1MM0
0000
1MM0
0000
1MM0
0000
1MM0
0001
,
2002
3003
0000
0000
0000
0000
0000
0000
0001
0000
0000
0000
0000
0000
0000
0000
0100
0000
0000
0000
0000
0000
0000
0000
0001
0000
0000
0000
0000
0000
0000
0000
0010
0000
0000
0000
0000
0000
0000
0000
0100
0000
0000
0000
0000
0000
0000
0000
1000
0000
0000
0000
0000
0000
0000
0000
0001
0000
0000
0000
0000
0000
0000
0000
,
0100
0000
0000
0000
0000
0000
0000
0000
0010
0000
0000
0000
0000
0000
0000
0000
0100
0000
0000
0000
0000
0000
0000
0000
0001
0000
0000
0000
0000
0000
0000
0000
0020
0030
0000
0000
0000
0000
0000
0000
0100
0000
0000
0000
0000
0000
0000
0000
2000
3000
0000
0000
0000
0000
0000
0000
0001
0000
0000
0000
0000
0000
0000
0000
,
2002
3003
0000
0000
0000
0000
0000
0000
0001
0000
0000
0000
0000
0000
0000
0000
0010
0000
0000
0000
0000
0000
0000
0000
0001
0000
0000
0000
0000
0000
0000
0000
0100
0000
0000
0000
0000
0000
0000
0000
0010
0000
0000
0000
0000
0000
0000
0000
1000
0000
0000
0000
0000
0000
0000
0000
0001
0000
0000
0000
0000
0000
0000
0000
,
0010
0100
0010
0001
0100
0010
1000
0001
,
2002
3003
0000
0000
0000
0000
0000
0000
0001
0000
0000
0000
0000
0000
0000
0000
0010
0000
0000
0000
0000
0000
0000
0000
0001
0000
0000
0000
0000
0000
0000
0000
0100
0000
0000
0000
0000
0000
0000
0000
0010
0000
0000
0000
0000
0000
0000
0000
1000
0000
0000
0000
0000
0000
0000
0000
0001
0000
0000
0000
0000
0000
0000
0000
,
0010
0000
0000
0000
0000
0000
0000
0000
0100
0000
0000
0000
0000
0000
0000
0000
0010
0000
0000
0000
0000
0000
0000
0000
0001
0000
0000
0000
0000
0000
0000
0000
0200
0300
0000
0000
0000
0000
0000
0000
0010
0000
0000
0000
0000
0000
0000
0000
2000
3000
0000
0000
0000
0000
0000
0000
0001
0000
0000
0000
0000
0000
0000
0000
,
2002
3003
0000
0000
0000
0000
0000
0000
0001
0000
0000
0000
0000
0000
0000
0000
0100
0000
0000
0000
0000
0000
0000
0000
0001
0000
0000
0000
0000
0000
0000
0000
0010
0000
0000
0000
0000
0000
0000
0000
0100
0000
0000
0000
0000
0000
0000
0000
1000
0000
0000
0000
0000
0000
0000
0000
0001
0000
0000
0000
0000
0000
0000
0000
,
0100
0010
0100
0001
0010
0100
1000
0001
,
2002
3003
0000
0000
0000
0000
0000
0000
0001
0000
0000
0000
0000
0000
0000
0000
0010
0000
0000
0000
0000
0000
0000
0000
0001
0000
0000
0000
0000
0000
0000
0000
0100
0000
0000
0000
0000
0000
0000
0000
0010
0000
0000
0000
0000
0000
0000
0000
1000
0000
0000
0000
0000
0000
0000
0000
0001
0000
0000
0000
0000
0000
0000
0000
,
0010
0000
0000
0000
0000
0000
0000
0000
0100
0000
0000
0000
0000
0000
0000
0000
0010
0000
0000
0000
0000
0000
0000
0000
0001
0000
0000
0000
0000
0000
0000
0000
0200
0300
0000
0000
0000
0000
0000
0000
0010
0000
0000
0000
0000
0000
0000
0000
2000
3000
0000
0000
0000
0000
0000
0000
0001
0000
0000
0000
0000
0000
0000
0000
,
2002
3003
0000
0000
0000
0000
0000
0000
0001
0000
0000
0000
0000
0000
0000
0000
0010
0000
0000
0000
0000
0000
0000
0000
0001
0000
0000
0000
0000
0000
0000
0000
0100
0000
0000
0000
0000
0000
0000
0000
0010
0000
0000
0000
0000
0000
0000
0000
1000
0000
0000
0000
0000
0000
0000
0000
0001
0000
0000
0000
0000
0000
0000
0000
,
0010
0100
0010
0001
0100
0010
1000
0001
,
2002
3003
0000
0000
0000
0000
0000
0000
0001
0000
0000
0000
0000
0000
0000
0000
0100
0000
0000
0000
0000
0000
0000
0000
0001
0000
0000
0000
0000
0000
0000
0000
0010
0000
0000
0000
0000
0000
0000
0000
0100
0000
0000
0000
0000
0000
0000
0000
1000
0000
0000
0000
0000
0000
0000
0000
0001
0000
0000
0000
0000
0000
0000
0000
,
0100
0000
0000
0000
0000
0000
0000
0000
0010
0000
0000
0000
0000
0000
0000
0000
0100
0000
0000
0000
0000
0000
0000
0000
0001
0000
0000
0000
0000
0000
0000
0000
0020
0030
0000
0000
0000
0000
0000
0000
0100
0000
0000
0000
0000
0000
0000
0000
2000
3000
0000
0000
0000
0000
0000
0000
0001
0000
0000
0000
0000
0000
0000
0000
,
2002
3003
0000
0000
0000
0000
0000
0000
0001
0000
0000
0000
0000
0000
0000
0000
0010
0000
0000
0000
0000
0000
0000
0000
0001
0000
0000
0000
0000
0000
0000
0000
0200
0300
0000
0000
0000
0000
0000
0000
0010
0000
0000
0000
0000
0000
0000
0000
1000
0000
0000
0000
0000
0000
0000
0000
0001
0000
0000
0000
0000
0000
0000
0000
,
0020
0030
0000
0000
0000
0000
0000
0000
0100
0000
0000
0000
0000
0000
0000
0000
0020
0030
0000
0000
0000
0000
0000
0000
0001
0000
0000
0000
0000
0000
0000
0000
0200
0300
0000
0000
0010
0000
0000
0000
0100
0000
0000
0000
0010
0000
0000
0000
1000
0000
0000
0000
0001
0000
0000
0000
0010
0000
0000
0000
0100
0000
0000
0000
,
1000
0000
0001
0010
0001
0000
1000
0000
0001
0100
0001
0000
1000
0100
1000
0000
,
0001
0000
1000
0010
1000
0000
0001
0000
1000
0100
1000
0000
0001
0100
0001
0100
,
0010
0000
1000
0010
1000
0000
0001
0000
1000
0100
1000
0000
0001
0100
0001
0000
,
1000
0000
0001
0010
0001
0000
1000
0000
0001
0100
0001
0000
1000
0001
1000
0001
,
0100
0000
0010
0100
0010
0000
1000
0000
0001
0100
0001
0000
1000
0010
1000
0000
,
0001
0000
0010
0100
0010
0000
0001
0000
1000
0100
1000
0000
0001
1000
0001
1000
,
0100
0000
0010
0100
0010
0000
0001
0000
1000
0100
1000
0000
0001
0010
0001
0000
,
1000
0000
0010
0100
0010
0000
1000
0000
0001
0100
0001
0000
1000
0010
1000
0010
,
0100
0000
0001
0100
0001
0000
1000
0000
0100
0010
0100
0000
1000
0001
1000
0000
,
0001
0000
1000
0100
1000
0000
0001
0000
0100
0010
0100
0000
0001
1000
0001
1000
,
0010
0000
1000
0001
1000
0000
0001
0000
0100
0010
0100
0000
0001
1000
0001
0000
,
1000
0000
0001
0100
0001
0000
1000
0000
0100
0010
0100
0000
1000
0001
1000
0001
,
0010
0000
0001
1000
0001
0000
1000
0000
0010
0100
0010
0000
0100
0001
0100
0000
,
0001
0000
1000
0100
1000
0000
0001
0000
0010
0100
0010
0000
0100
1000
0100
1000
,
0001
0000
1000
0100
1000
0000
0001
0000
0010
0100
0010
0000
0100
0010
0001
1000
,
0001
0000
1001
0000
1001
0001
1001
0000
,
0001
0000
1000
0010
1000
0000
0001
0000
1000
0100
1000
0000
0001
0100
0001
0000
,
1000
0000
0001
0010
0001
0000
1000
0000
0001
0100
0001
0000
1000
0100
1000
0100
,
0010
0000
0001
0010
0001
0000
1000
0000
0001
0100
0001
0000
1000
0100
1000
0000
,
0001
0000
1000
0010
1000
0000
0001
0000
1000
0100
1000
0000
0001
1000
0001
1000
,
0100
0000
0010
0100
0010
0000
0001
0000
1000
0100
1000
0000
0001
0010
0001
0000
,
1000
0000
0010
0100
0010
0000
1000
0000
0001
0100
0001
0000
1000
0001
1000
0001
,
0100
0000
0010
0100
0010
0000
1000
0000
0001
0100
0001
0000
1000
0010
1000
0000
,
0001
0000
0010
0100
0010
0000
0001
0000
1000
0100
1000
0000
0001
0010
0001
0010
,
0100
0000
1000
0100
1000
0000
0001
0000
0100
0010
0100
0000
0001
1000
0001
0000
,
1000
0000
0001
0100
0001
0000
1000
0000
0100
0010
0100
0000
1000
0001
1000
0001
,
0010
0000
0001
1000
0001
0000
1000
0000
0100
0010
0100
0000
1000
0001
1000
0000
,
0001
0000
1000
0100
1000
0000
0001
0000
0100
0010
0100
0000
0001
1000
0001
1000
,
0010
0000
1000
0001
1000
0000
0001
0000
0010
0100
0010
0000
0100
1000
0100
0000
,
1000
0000
0001
0100
0001
0000
1000
0000
0010
0100
0010
0000
0100
0001
0100
0001
,
1000
0000
0001
0100
0001
0000
1000
0000
0010
0100
0010
0000
0100
0010
1000
0001
,
1000
0000
1001
0000
1001
1000
1001
0000
,
0101
0000
0001
0101
0000
0001
0101
0000
,
0100
0001
0100
0001
0100
0001
0100
0001
0100
0001
0100
0001
0100
0000
0000
0000
,
1010
0000
1000
1010
0000
1000
1010
0000
,
0001
0100
0010
0100
0001
0010
0100
1000
,
1100
0000
1000
1100
0000
1000
1100
0000
,
1001
0000
1100
0000
1000
0100
1000
0001
,
0011
0000
0001
0011
0000
0001
0011
0000
,
0001
0010
0100
0010
0001
0100
0010
1000
,
1010
0000
1000
1010
0000
1000
1010
0000
,
0010
1000
0010
1000
0010
1000
0010
1000
0010
1000
0010
1000
0010
0000
0000
0000
,
0101
0000
0001
0101
0000
0001
0101
0000
,
1000
0010
0100
0010
1000
0100
0010
0001
,
1001
0000
0001
1001
0000
0001
1001
0000
,
1001
0000
0110
0000
0001
0100
0001
1000
,
1010
0000
1000
1010
0000
1000
1010
0000
,
1000
0100
0010
0100
1000
0010
0100
0001
,
0101
0000
0001
0101
0000
0001
0101
0000
,
0101
0000
1001
0000
1000
0100
1000
0001
,
0011
0000
0001
0011
0000
0001
0011
0000
,
0004
0003
0400
0300
0040
0030
0400
0300
0004
0003
0040
0030
0400
0300
4000
3000
,
1100
0000
1001
0000
0001
0010
0001
1000
,
0100
1000
0100
1000
0100
1000
0100
1000
0100
1000
0100
1000
0100
0000
0000
0000
,
1000
0010
0100
0010
1000
0100
0010
0001
,
1000
0010
0100
0010
1000
0100
0010
0001
,
1000
0001
1000
0001
1000
0001
1000
0001
1000
0001
1000
0001
1000
0000
0000
0000
,
0001
0100
0010
0100
0001
0010
0100
1000
,
0001
0100
0010
0100
0001
0010
0100
1000
,
0004
0003
0040
0030
0400
0300
0040
0030
0004
0003
0400
0300
0040
0030
4000
3000
,
1010
0000
1001
0000
1000
0100
1000
0001
,
0010
0001
0010
0001
0010
0001
0010
0001
0010
0001
0010
0001
0010
0000
0000
0000
,
0001
0100
0010
0100
0001
0010
0100
1000
,
0001
0100
0010
0100
0001
0010
0100
1000
,
0001
1000
0001
1000
0001
1000
0001
1000
0001
1000
0001
1000
0001
0000
0000
0000
,
1000
0010
0100
0010
1000
0100
0010
0001
,
1000
0010
0100
0010
1000
0100
0010
0001
,
4000
3000
0400
0300
0040
0030
0400
0300
4000
3000
0040
0030
0400
0300
0004
0003
,
0011
0000
1001
0000
1000
0100
1000
0001
,
0010
0001
0010
0001
0010
0001
0010
0001
0010
0001
0010
0001
0010
0000
0000
0000
,
0001
0100
0010
0100
0001
0010
0100
1000
,
0001
0100
0010
0100
0001
0010
0100
1000
,
0001
1000
0001
1000
0001
1000
0001
1000
0001
1000
0001
1000
0001
0000
0000
0000
,
1000
0010
0100
0010
1000
0100
0010
0001
,
1000
0010
0100
0010
1000
0100
0010
0001
,
4000
3000
0400
0300
0040
0030
0400
0300
4000
3000
0040
0030
0400
0300
0004
0003
,
0101
0000
1001
0000
0001
0010
0001
1000
,
0100
1000
0100
1000
0100
1000
0100
1000
0100
1000
0100
1000
0100
0000
0000
0000
,
1000
0010
0100
0010
1000
0100
0010
0001
,
1000
0010
0100
0010
1000
0100
0010
0001
,
1000
0001
1000
0001
1000
0001
1000
0001
1000
0001
1000
0001
1000
0000
0000
0000
,
0001
0100
0010
0100
0001
0010
0100
1000
,
0001
0100
0010
0100
0001
0010
0100
1000
,
0001
0010
0100
0010
0001
0100
0010
1000
,
0001
0100
0010
1000
0001
0100
0001
1000
0100
0010
0001
0010
0001
1000
0100
0010
,
0001
1000
0001
1000
0010
0100
0001
0100
0001
1000
0010
1000
0002
0000
2003
0000
,
3001
0010
0001
1000
0100
0010
0001
1000
0010
0100
0001
0100
0001
1000
0010
0100
,
0001
1000
0001
1000
0010
0100
0001
0100
0001
1000
0001
0100
0020
0000
0000
0030
,
1000
0100
0010
0001
1000
0100
0010
0001
1000
0100
0010
0001
0010
0001
1000
0100
,
1000
0001
0010
0001
1000
0100
1000
0001
0010
0001
0010
0100
2000
0000
3002
0000
,
1003
0010
0100
0001
1000
0010
0100
0001
1000
0100
0010
0001
0010
0001
1000
0100
,
1000
0001
0010
0001
1000
0010
1000
0010
0100
0001
1000
0001
0020
0000
0000
0030
,
0001
0010
0100
1000
0001
0010
0001
1000
0010
0100
0001
0100
0001
1000
0010
0100
,
0001
1000
0001
1000
0100
0010
0001
0010
0001
1000
0100
1000
0002
0000
2003
0000
,
3001
0010
0001
1000
0100
0010
0001
1000
0010
0100
0001
0100
0001
1000
0010
0100
,
0001
1000
0001
1000
0100
0010
0001
0010
0001
1000
0001
0100
0020
0000
0000
0030
,
1000
0010
0100
0001
1000
0010
0100
0001
1000
0010
0100
0001
0100
0001
1000
0010
,
1000
0001
0100
0001
1000
0010
1000
0001
0100
0001
0100
0010
2000
0000
3002
0000
,
1003
0100
0010
0001
1000
0100
0010
0001
1000
0100
0010
0001
0010
0001
1000
0001
,
1000
0100
0010
0000
0002
0003
1000
0100
0010
0000
0002
0003
0200
0000
0300
0000
,
0001
0010
0100
1000
0001
0010
0001
1000
0010
0100
0001
0100
0001
1000
0010
0100
,
0001
1000
0001
1000
0100
0010
0001
0010
0001
1000
0100
1000
0002
0000
2003
0000
,
3001
0100
0001
1000
0010
0100
0001
1000
0100
0010
0001
0010
0001
1000
0100
0010
,
0001
1000
0001
1000
0100
0010
0001
0010
0001
1000
0001
0010
0200
0000
0000
0300
,
1000
0010
0100
0001
1000
0010
0100
0001
1000
0010
0100
0001
0100
0001
1000
0010
,
1000
0001
0100
0001
1000
0010
1000
0001
0100
0001
0100
0010
2000
0000
3002
0000
,
1003
0100
0010
0001
1000
0100
0010
0001
1000
0010
0100
0001
0100
0001
1000
0010
,
1000
0001
0100
0001
1000
0100
1000
0100
0010
0001
1000
0001
0200
0000
0000
0300
,
0001
0100
0010
1000
0001
0100
0001
1000
0100
0010
0001
0010
0001
1000
0100
0010
,
0001
1000
0001
1000
0010
0100
0001
0100
0001
1000
0010
1000
0002
0000
2003
0000
,
3001
0100
0001
1000
0010
0100
0001
1000
0100
0010
0001
0010
0001
1000
0100
0010
,
0001
1000
0001
1000
0010
0100
0001
0100
0001
1000
0001
0010
0200
0000
0000
0300
,
1000
0100
0010
0001
1000
0100
0010
0001
1000
0100
0010
0001
0010
0001
1000
0100
,
1000
0001
0010
0001
1000
0100
1000
0001
0010
0001
0010
0100
2000
0000
3002
0000
,
1003
0010
0100
0001
1000
0010
1000
0001
0100
0001
1000
0001
1000
0010
0100
0001
,
1000
0010
0100
0000
0002
0003
1000
0010
0100
0000
0002
0003
0200
0000
0300
0000
,
0020
0000
2030
0000
3002
0000
0203
0000
0000
0000
0020
0030
0000
0000
0002
0003
,
0300
2000
3020
0230
0302
2003
3200
0320
,
0032
0000
0203
0000
0320
0000
2030
0000
0000
0000
0200
0300
0000
0000
0002
0003
,
3000
0000
2000
0000
3200
0000
0320
0000
0230
0000
0000
0000
2000
3000
0300
0000
,
0200
0000
0320
0000
0032
0000
0203
0000
0000
0000
0020
0030
0000
0000
0002
0003
,
0300
2000
3200
0320
0032
2003
3020
0230
,
0302
0000
0023
0000
0230
0000
2300
0000
0000
0000
0020
0030
0000
0000
0002
0003
,
3000
0000
2000
0000
3020
0000
0230
0000
0320
0000
0000
0000
2000
3000
0030
0000
,
0001
0000
1000
0100
1000
0000
0001
0100
0001
1000
0010
1000
0001
0000
0100
0010
,
1000
0000
0001
0010
0001
0000
1000
0010
1000
0001
0100
0001
1000
0000
0010
0100
,
0001
0000
1000
0010
1000
0000
0001
0010
0001
1000
0100
1000
0001
0000
0010
0100
,
1000
0000
0001
0100
0001
0000
1000
0100
1000
0001
0010
0001
1000
0100
0010
0001
,
1000
0000
0001
0100
0001
0000
1000
0100
1000
0001
0010
0001
1000
0000
0100
0010
,
0001
0000
1000
0010
1000
0000
0001
0010
0001
1000
0100
1000
0001
0000
0010
0100
,
1000
0000
0001
0010
0001
0000
1000
0010
1000
0001
0100
0001
1000
0000
0010
0100
,
0001
0000
1000
0100
1000
0000
0001
0100
0001
1000
0010
1000
0001
0100
0010
1000
,
0001
0000
1000
0100
1000
0000
0001
0100
0001
1000
0010
1000
0001
0000
0100
0010
,
1000
0000
0001
0010
0001
0000
1000
0010
1000
0001
0100
0001
1000
0000
0010
0100
,
0001
0000
1000
0010
1000
0000
0001
0010
0001
1000
0100
1000
0001
0000
0010
0100
,
1000
0000
0001
0100
0001
0000
1000
0100
1000
0001
0010
0001
1000
0100
0010
0001
,
1000
0000
0001
0100
0001
0000
1000
0100
1000
0001
0010
0001
1000
0000
0100
0010
,
0001
0000
1000
0010
1000
0000
0001
0010
0001
1000
0100
1000
0001
0000
0010
0100
,
1000
0000
0001
0010
0001
0000
1000
0010
1000
0001
0100
0001
1000
0000
0010
0100
,
0001
0000
1000
0100
1000
0000
0001
0100
0001
1000
0010
1000
0001
0100
0010
1000
,
0001
0000
1000
0100
1000
0000
0001
0100
0001
1000
0010
1000
0001
0000
0100
0010
,
1000
0000
0001
0010
0001
0000
1000
0010
1000
0001
0100
0001
1000
0000
0010
0100
,
0001
0000
1000
0010
1000
0000
0001
0010
0001
1000
0100
1000
0001
0000
0010
0100
,
1000
0000
0001
0100
0001
0000
1000
0100
1000
0001
0010
0001
1000
0100
0010
0001
,
1000
0000
0001
0100
0001
0000
1000
0100
1000
0001
0010
0001
1000
0000
0100
0010
,
0001
0000
1000
0010
1000
0000
0001
0010
0001
1000
0100
1000
0001
0000
0010
0100
,
1000
0000
0001
0010
0001
0000
1000
0010
1000
0001
0100
0001
1000
0000
0010
0100
,
0001
0000
1000
0100
1000
0000
0001
0100
0001
1000
0010
1000
0001
0100
0010
1000
,
0001
0000
1000
0100
1000
0000
0001
0100
0001
1000
0010
1000
0001
0000
0100
0010
,
1000
0000
0001
0010
0001
0000
1000
0010
1000
0001
0100
0001
1000
0000
0010
0100
,
0001
0000
1000
0010
1000
0000
0001
0010
0001
1000
0100
1000
0001
0000
0010
0100
,
1000
0000
0001
0100
0001
0000
1000
0001
1000
0100
0010
0001
1000
0100
0010
0001
,
1000
0000
0001
0100
0001
0000
1000
0100
1000
0001
0010
0001
1000
0000
0100
0010
,
0001
0000
1000
0010
1000
0000
0001
0010
0001
1000
0100
1000
0001
0000
0010
0100
,
1000
0000
0001
0010
0001
0000
1000
0010
1000
0001
0100
0001
1000
0000
0010
0100
,
0001
0000
1000
0100
1000
0000
0001
0100
0001
1000
0010
1000
0001
0100
0010
1000
,
0001
0000
1000
0100
1000
0000
0001
0100
0001
1000
0010
1000
0001
0000
0100
0010
,
1000
0000
0001
0010
0001
0000
1000
0010
1000
0001
0100
0001
1000
0000
0010
0100
,
0001
0000
1000
0010
1000
0000
0001
0010
0001
1000
0100
1000
0001
0000
0010
0100
,
1000
0000
0001
0100
0001
0000
1000
0100
1000
0001
0010
0001
1000
0100
0010
0001
,
1000
0000
0001
0100
0001
0000
1000
0100
1000
0001
0010
0001
1000
0000
0100
0010
,
0001
0000
1000
0010
1000
0000
0001
0010
0001
1000
0100
1000
0001
0000
0010
0100
,
1000
0000
0001
0010
0001
0000
1000
0010
1000
0001
0100
0001
1000
0000
0010
0100
,
0001
0000
1000
0100
1000
0000
0001
0100
0001
1000
0010
1000
0001
0100
0010
1000
,
0001
0100
0001
1000
0001
0010
0001
1000
,
0001
1000
0100
1000
0001
1000
0010
1000
,
000M
0000
0000
0000
00M0
0000
0000
0000
0M00
0000
0000
0000
M000
0000
0000
0000
0000
0000
0000
0000
00M0
0000
0000
0000
0000
0000
0000
0000
0000
0M00
0000
0000
,
0000
0000
0000
0000
0000
000M
0000
0000
0000
0M00
0000
0000
0000
0000
00M0
0000
0000
0000
M000
0000
0000
0000
0000
0000
0000
0000
0000
0M00
0000
0000
0000
0000
,
0000
0000
0000
0000
0000
000M
0000
0000
0000
00M0
0000
0000
0000
0M00
0000
0000
0000
M000
0000
0000
0000
0000
0000
0000
0000
0000
0000
0000
0M00
0000
0000
0000
,
0000
0000
0000
0000
0000
00M0
0000
0000
0000
0000
0000
0000
0000
0000
0000
0000
000M
0000
0000
0000
0000
00M0
0000
0000
0000
0M00
0000
0000
0000
0000
M000
0000
,
0000
0000
0000
00M0
0000
0000
0000
0000
0M00
0000
0000
0000
0000
000M
0000
0000
0000
0000
0000
M000
0000
0000
0000
0M00
0000
0000
0000
0000
00M0
0000
0000
0000
,
0000
000M
0000
0000
0000
0000
0000
0000
0000
0000
0000
0000
0M00
0000
0000
0000
0000
0000
0000
0000
0000
0000
0000
0000
00M0
0000
0000
0000
0000
0000
0000
0000
,
0000
0000
M000
0000
0000
0000
0000
0000
00M0
0000
0000
0000
0000
0M00
0000
0000
0000
0000
0000
0000
000M
0000
0000
0000
0000
0000
0000
0000
0000
0000
0000
0000
,
00M0
0000
0000
0000
0000
0000
0000
0000
0000
0000
0000
0000
000M
0000
0000
0000
0000
0000
M000
0000
0000
0000
0000
0000
00M0
0000
0000
0000
0000
0000
0000
0M00
,
0000
0000
0000
0000
,
MMMM
MMMM
MMMM
0000
0000
0000
0000
0000
;
