#TITLE:Overload;
#SUBTITLE:;
#ARTIST:Voodoo vs. Serano vs. DJ Hixxy vs. Re-con feat. Nightcore;
#TITLETRANSLIT:;
#SUBTITLETRANSLIT:;
#ARTISTTRANSLIT:;
#CREDIT:owenviau1;
#BANNER:../owenviau1 Simfiles 5-bn.png;
#BACKGROUND:../owenviau1 Simfiles 5-bg.png;
#LYRICSPATH:;
#CDTITLE:../ov1_title.png;
#MUSIC:Nightcore - Overload.mp3;
#OFFSET:-12.413;
#SAMPLESTART:84.500;
#SAMPLELENGTH:29.999;
#SELECTABLE:YES;
#DISPLAYBPM:212.560;
#BPMS:0.000=212.564,57.000=212.547,58.000=212.564,115.000=212.547,116.000=212.564,123.000=212.547,124.000=212.564,177.000=212.547,178.000=212.564,183.000=212.547,184.000=212.564,237.000=212.547,238.000=212.564,247.000=212.547,248.000=212.564,293.000=212.547,294.000=212.564,295.000=212.547,296.000=212.564,341.000=212.547,342.000=212.564,367.000=212.547,368.000=212.564,413.000=212.547,414.000=212.564,431.000=212.547,432.000=212.564,477.000=212.547,478.000=212.564,495.000=212.547,496.000=212.564,541.000=212.547,542.000=212.564,559.000=212.547,560.000=212.564,605.000=212.547,606.000=212.564,623.000=212.547,624.000=212.564,629.000=212.547,630.000=212.564,660.000=212.547,661.000=212.564,662.000=212.547,663.000=212.564,693.000=212.547,694.000=212.564;
#STOPS:;
#BGCHANGES:;
// cache tags:
#FIRSTBEAT:0.000;
#LASTBEAT:703.000;
#SONGFILENAME:Songs/owenviau1 Simfiles 5/Overload - [owenviau1] v1.4/Overload.sm;
#HASMUSIC:1;
#HASBANNER:1;
#MUSICLENGTH:212.035;
// end cache tags

//---------------dance-single - ----------------
#NOTES:
     dance-single:
     :
     Hard:
     10:
     0.886,0.746,0.198,0.547,0.054,1157.000,42.000,116.000,2.000,1.000:
1001
0000
2000
0000
3020
0000
0230
0302
,
0000
0000
0003
0000
,
0000
0000
2000
3200
0320
0032
2003
3020
,
0000
0230
0000
0302
0000
2003
0000
3000
,
0000
0000
0020
0000
0230
0000
0302
2003
,
0000
0000
3000
0000
,
0000
0020
0230
0000
0302
2003
3200
0320
,
0000
0032
0000
2003
0000
3020
0000
0030
,
0000
0000
2000
3020
0230
0302
2003
3020
,
0030
0200
0000
0000
0000
0000
0000
0000
,
0300
0000
2000
3002
0203
0320
2030
3002
,
0003
0020
0030
0200
0300
2000
0000
0000
,
3000
0020
0230
0300
0002
0023
0000
0230
,
0000
2300
0000
0000
0000
3000
0000
0000
,
0020
0000
0030
0200
0000
0000
0302
0003
,
2000
0000
3000
0000
,
2MM1
0000
3000
0020
0000
0030
0200
0000
,
0300
0002
0000
0003
2000
0000
3002
0000
,
0203
0000
0300
0020
0000
0030
2000
0000
,
3000
0200
0000
0300
0020
0000
0032
0000
,
2003
0000
3000
0020
0000
0030
0200
0000
,
0300
0002
0000
0003
0020
0000
0230
0000
,
2300
0000
3000
0002
0000
0003
2000
0000
,
3000
0020
0000
0030
0200
0000
0302
0000
,
2003
0000
3000
0020
0000
0030
0200
0000
,
0300
0002
0000
0003
2000
0000
3002
0000
,
0203
0000
0300
0020
0000
0030
2000
0000
,
3000
0200
0000
0300
0020
0000
0032
0000
,
2003
0000
3000
0020
0000
0030
0200
0000
,
0300
0002
0000
0003
2000
0000
3020
0000
,
0230
0000
0300
0002
0000
0003
0200
0000
,
0300
0020
0000
0030
2000
0000
3020
0000
,
1032
0000
1003
0001
1000
0010
0100
0001
,
1000
0000
0000
0001
0000
1000
0100
0000
0010
0000
0001
0000
1000
0000
0010
0000
,
0100
0000
0000
0001
0000
0000
0010
0000
0100
0000
1000
0000
0001
0000
1000
0000
,
0010
0000
0000
0100
0000
0010
1000
0000
0001
0000
0100
0000
0010
0000
1000
0000
,
0100
0000
0000
0010
0000
0001
0010
0000
0100
0000
1000
0000
0001
0000
1000
0000
,
0010
0000
0000
0100
0000
0000
0001
0000
1000
0000
0100
0000
0010
0000
0001
0000
,
1000
0000
0000
0100
0000
0010
0001
0000
0100
0000
0010
0000
0100
0000
0001
0000
,
1000
0000
0000
0010
0000
0001
0010
0000
0100
0000
1000
0000
0001
0000
0100
0000
,
1001
1010
0011
0101
,
1010
1001
0110
1010
,
0101
1100
1010
0101
,
0110
1001
0101
1010
,
1100
0101
1001
0110
,
1010
0011
1100
1001
,
0101
0110
1010
1001
,
0110
0101
1100
0110
,
1001
0000
1000
0100
0000
0000
0010
0000
0100
0000
0000
0001
0000
0000
0010
0000
,
1000
0000
0100
0010
0000
0000
0001
0000
1000
0000
0000
0100
0000
0000
0010
0000
,
0001
0000
1000
0100
0000
0000
0010
0000
0100
0000
0000
0001
0000
0000
0010
0000
,
0100
0000
1000
0001
0000
0000
0010
0000
0100
0000
0000
1000
0000
0000
0001
0000
,
0100
0000
0010
1000
0100
0000
0001
0000
0010
0000
0001
0000
1000
0000
0100
0000
,
1000
0001
0010
0100
1000
0010
0100
0001
,
0100
0010
1000
0010
0100
0001
0010
0001
,
1000
0010
0100
0001
0010
0100
1000
0010
,
0100
0001
0010
0001
0100
0010
1000
0100
,
0010
0001
1000
0010
0100
0010
1000
0001
,
0010
0100
1000
0010
0100
0001
1000
0001
,
0010
0001
0100
0010
1000
0100
1000
0001
,
0010
0100
1000
0010
0100
0001
1000
0100
,
1000
0010
1000
0100
0010
0001
0100
0001
,
0010
0001
1000
0010
0100
0001
0010
0100
,
1000
0000
0000
0000
,
0001
0010
0100
1000
0001
0100
0010
1000
,
0100
0010
0001
0100
0010
1000
0100
1000
,
0001
0100
0010
1000
0100
0010
0001
0100
,
0001
1000
0010
0100
0001
0010
0001
1000
,
0010
0100
0001
0010
0100
1000
0010
1000
,
0001
0100
0001
1000
0010
0100
0001
0010
,
0100
1000
0010
0100
0001
1000
0001
0010
,
0001
0100
0010
1000
0100
1000
0010
0100
,
0001
1000
0100
0010
0001
0010
0100
1000
,
0010
0100
0001
1000
0001
0010
0001
0100
,
0010
1000
0100
1000
0010
0100
0001
0010
,
0100
1000
0001
0100
0010
1000
0100
0010
,
0001
1000
0010
0100
0001
0010
0100
1000
,
0010
0100
0001
1000
0001
0010
0001
0100
,
0010
1000
0100
1000
0010
0100
0001
0010
,
0100
0000
0000
0000
1000
0001
0000
0000
1000
0000
0000
0000
0001
0000
0000
0000
,
1001
0001
0100
0001
0010
0100
1000
0010
,
0100
0001
1000
0001
0010
0001
1000
0010
,
0100
0001
0010
0100
1000
0001
0100
0010
,
1000
0100
0010
0001
0100
0001
0010
0100
,
1000
0010
0100
0001
1000
0001
0010
0001
,
1000
0010
0100
0001
0010
0100
1000
0010
,
0100
0001
0100
0010
1000
0010
0100
0001
,
0010
0100
1000
0010
0100
0001
1000
0001
,
0010
0001
0100
0010
1000
0100
1000
0001
,
0010
0100
1000
0001
0100
0010
1000
0100
,
0010
0001
0100
0010
1000
0001
1000
0100
,
1000
0010
0100
0001
1000
0001
0010
0001
,
1000
0010
0100
0001
0010
0100
1000
0010
,
0100
0001
1000
0001
0010
0001
0100
0010
,
1000
0100
1000
0010
0100
0001
0010
0100
,
1000
0000
0000
0000
,
1001
1000
0010
0100
0001
1000
0001
0010
,
0001
0100
0010
1000
0100
1000
0010
0100
,
0001
0010
0100
1000
0010
0100
0001
0010
,
0001
0100
0010
1000
0001
1000
0100
1000
,
0010
0100
0001
0010
0100
1000
0001
0100
,
0010
1000
0100
0010
0001
0100
0001
1000
,
0100
1000
0001
0100
0010
1000
0100
0010
,
0001
0100
0001
1000
0010
1000
0100
0010
,
0001
0100
0001
0010
0100
1000
0010
0100
,
0001
1000
0010
1000
0001
0010
0100
1000
,
0010
0100
0001
1000
0001
0010
0001
1000
,
0010
0100
0001
0010
0100
1000
0010
0100
,
0001
0010
0001
1000
0010
0100
0001
0010
,
0100
1000
0010
0100
0001
1000
0001
0010
,
0001
0100
0010
1000
0100
1000
0001
0100
,
0010
0000
0000
0000
,
1100
1000
0001
1000
0001
0100
0010
1000
,
0100
0010
0001
0100
0010
1000
0100
1000
,
0001
0100
0010
1000
0100
0010
0001
0100
,
0001
1000
0010
0100
0001
0010
0001
1000
,
0010
0100
0001
0010
0100
1000
0010
1000
,
0001
0100
0001
1000
0010
0100
0001
0010
,
0100
1000
0010
0100
0001
1000
0001
0010
,
0001
0100
0010
1000
0100
1000
0010
0100
,
0001
1000
0100
0010
0001
0010
0100
1000
,
0010
0100
0001
1000
0001
0010
0001
0100
,
0010
1000
0100
1000
0010
0100
0001
0010
,
0100
1000
0001
0100
0010
1000
0100
0010
,
0001
1000
0010
0100
0001
0010
0100
1000
,
0010
0100
0001
1000
0001
0010
0001
0100
,
0010
1000
0100
1000
0010
0100
0001
1000
,
0001
1000
0010
0001
0100
0010
1000
0100
,
1000
0010
0100
0001
0010
0001
1000
0010
,
0100
0001
0010
0100
1000
0010
1000
0001
,
0010
0100
1000
0010
0100
0001
1000
0010
,
0100
0001
1000
0100
0010
0001
0010
0100
,
1000
0010
0100
0001
0010
0001
0100
0010
,
0100
0001
1000
0010
0100
0010
1000
0100
,
0010
0001
0100
0001
1000
0100
1000
0010
,
0100
0001
0010
0100
1000
0010
0100
0001
,
2001
0000
3000
0020
0000
0030
0200
0000
,
0300
0002
0000
0003
2000
0000
3002
0000
,
0203
0000
0300
0020
0000
0030
2000
0000
,
3000
0200
0000
0300
0020
0000
0032
0000
,
1003
0100
0010
0001
1000
0010
0100
0001
,
0010
0001
1000
0001
0100
0010
1000
0100
,
0010
0001
1000
0010
1000
0100
0010
0001
,
0100
2000
3000
0000
0002
0003
0200
0300
,
1010
1000
0001
0100
0010
1000
0001
0010
,
0001
0100
0010
1000
0100
1000
0010
0100
,
0001
0010
0100
1000
0010
0100
0001
0010
,
0001
0100
0010
1000
0001
1000
0100
1000
,
0010
0100
0001
0010
0100
1000
0001
0100
,
0010
1000
0100
0010
0001
0100
0001
1000
,
0100
1000
0001
0100
0010
1000
0100
0010
,
0001
0100
0001
1000
0010
1000
0100
0010
,
0001
0100
0001
0010
0100
1000
0010
0100
,
0001
1000
0010
1000
0001
0010
0100
1000
,
0010
0100
0001
1000
0001
0010
0001
1000
,
0010
0100
0001
0010
0100
1000
0010
0100
,
0001
0010
0001
1000
0010
0100
0001
0010
,
0100
1000
0010
0100
0001
1000
0001
0010
,
0001
0100
0010
1000
0100
1000
0001
0100
,
0010
0000
0000
0000
,
0011
0010
1000
0100
0010
0001
1000
0010
,
0001
0100
0010
1000
0100
1000
0010
0100
,
0001
0010
0100
1000
0010
0100
0001
0010
,
0001
0100
0010
1000
0001
1000
0100
1000
,
0010
0100
0001
0010
0100
1000
0001
0100
,
0010
1000
0100
0010
0001
0100
0001
1000
,
0100
1000
0001
0100
0010
1000
0100
0010
,
0001
0100
0001
1000
0010
1000
0100
0010
,
0001
0100
0001
0010
0100
1000
0010
0100
,
0001
1000
0010
1000
0001
0010
0100
1000
,
0010
0100
0001
1000
0001
0010
0001
1000
,
0010
0100
0001
0010
0100
1000
0010
0100
,
0001
0010
0001
1000
0010
0100
0001
0010
,
0100
1000
0010
0100
0001
1000
0001
0010
,
0001
0100
0010
1000
0100
1000
0001
0100
,
0010
0000
0000
0000
1000
0001
0000
0000
0010
0000
0000
0000
0100
0000
0000
0000
,
0000
0000
0000
0000
;

//---------------dance-single - ----------------
#NOTES:
     dance-single:
     :
     Challenge:
     14:
     1.000,1.000,1.000,0.623,0.314,1267.000,451.000,132.000,15.000,4.000:
1001
0000
2000
0000
3020
0000
0230
0302
,
0000
0000
0003
0000
,
0000
0000
2000
3200
0320
0032
2003
3020
,
0000
0230
0000
0302
0000
2003
0000
3000
,
0000
0000
0020
0000
0230
0000
0302
2003
,
0000
0000
3000
0000
,
0000
0020
0230
0000
0302
2003
3200
0320
,
0000
0032
0000
2003
0000
3020
0000
0030
,
0000
0000
2000
3020
0230
0302
2003
3020
,
0030
0200
0000
0000
0000
0000
0000
0000
,
0300
0000
2000
3002
0203
0320
2030
3002
,
0003
0020
0030
0200
0300
2000
0000
0000
,
3000
0020
0230
0300
0002
0023
0000
0230
,
0000
2300
0000
0000
0000
3000
0000
0000
,
0020
0000
0030
0200
0000
0000
0302
0003
,
2000
0000
3000
0000
,
2MM1
0000
3000
0020
0000
0030
0200
0000
,
0300
0002
0000
0003
2000
0000
3002
0000
,
0203
0000
0300
0020
0000
0030
2000
0000
,
3000
0200
0000
0300
0020
0000
0032
0000
,
2003
0000
3000
0020
0000
0030
0200
0000
,
0300
0002
0000
0003
0020
0000
0230
0000
,
2300
0000
3000
0002
0000
0003
2000
0000
,
3000
0020
0000
0030
0200
0000
0302
0000
,
2003
0000
3000
0020
0000
0030
0200
0000
,
0300
0002
0000
0003
2000
0000
3002
0000
,
0203
0000
0300
0020
0000
0030
2000
0000
,
3000
0200
0000
0300
0020
0000
0032
0000
,
2003
0000
3000
0020
0000
0030
0200
0000
,
0300
0002
0000
0003
2000
0000
3020
0000
,
0230
0000
0300
0002
0000
0003
0200
0000
,
0300
0020
0000
0030
2000
0000
3020
0000
,
1032
0000
1003
0001
1000
0010
0100
0001
,
1000
0000
0000
0001
0000
1000
0100
0000
0010
0000
0001
0000
1000
0000
0010
0000
,
0100
0000
0000
0001
0000
0000
0010
0000
0100
0000
1000
0000
0001
0000
1000
0000
,
0010
0000
0000
0100
0000
0010
1000
0000
0001
0000
0100
0000
0010
0000
1000
0000
,
0100
0000
0000
0010
0000
0001
0010
0000
0100
0000
1000
0000
0001
0000
1000
0000
,
0010
0000
0000
0100
0000
0000
0001
0000
1000
0000
0100
0000
0010
0000
0001
0000
,
1000
0000
0000
0100
0000
0010
0001
0000
0100
0000
0010
0000
0100
0000
0001
0000
,
1000
0000
0000
0010
0000
0001
0010
0000
0100
0000
1000
0000
0001
0000
0100
0000
,
1001
1010
0011
0101
,
1010
1001
0110
1010
,
0101
1100
1010
0101
,
0110
1001
0101
1010
,
1100
0101
1001
0110
,
1010
0011
1100
1001
,
0101
0110
1010
1001
,
0110
0101
1100
0110
,
1001
0000
1000
0100
0000
0000
0010
0000
0100
0000
0000
0001
0000
0000
0010
0000
,
1000
0000
0100
0010
0000
0000
0001
0000
1000
0000
0000
0100
0000
0000
0010
0000
,
0001
0000
1000
0100
0000
0000
0010
0000
0100
0000
0000
0001
0000
0000
0010
0000
,
0100
0000
1000
0001
0000
0000
0010
0000
0100
0000
0000
1000
0000
0000
0001
0000
,
0100
0000
0010
1000
0100
0010
0001
1000
0010
1000
0100
0010
0001
0100
0001
1000
,
0010
0100
0001
0010
0100
1000
0100
0010
0001
1000
0001
0100
0010
1000
0001
0010
,
0100
1000
0001
0100
0010
1000
0001
1000
0010
0100
0001
0100
0010
1000
0010
0100
,
0001
1000
0001
0010
0100
1000
0010
0100
0001
0010
0100
1000
0001
0100
0001
1000
,
0010
1000
0010
0100
0001
0100
0010
1000
0100
0010
0001
0010
0100
1000
0001
0100
,
0001
1000
0001
0100
0010
1000
0100
0010
0001
1000
0010
0100
0010
1000
0001
0100
,
0010
0100
0001
1000
0001
0100
0010
1000
0010
0100
0001
1000
0001
0010
0100
1000
,
0010
0100
0001
1000
0001
0100
0001
0010
0100
1000
0010
1000
0001
1000
0010
0100
,
0001
1000
0100
0010
0001
0010
0100
1000
0001
0100
0001
1000
0010
0100
0010
1000
,
0001
0100
0001
1000
0001
0010
0100
1000
0010
1000
0001
0100
0001
0010
0100
1000
,
0001
1000
0010
0100
0001
0010
0100
1000
0001
1000
0010
1000
0100
0010
0001
1000
,
0M01
0000
M000
000M
0000
0000
00M0
0M00
,
1001
0010
1100
0001
0101
0010
1001
0100
,
0110
0001
1100
0001
0011
1000
0101
0010
,
1001
0100
1010
0001
0110
1000
0101
0001
,
1010
0100
1001
0100
0110
0001
1100
0001
,
0011
1000
0101
0100
1010
0001
1001
0010
,
0110
1000
0101
0010
1001
0100
1010
0001
,
0110
0100
1001
0010
1100
0001
0011
0100
,
1001
0001
1010
0100
1001
1000
0101
0010
,
1100
0001
0110
0001
1001
0010
0101
1000
,
0011
1000
1100
0010
1001
0100
1010
0001
,
0110
1000
0101
0010
1001
0010
1100
0001
,
0110
1000
0011
0100
1001
0010
0110
1000
,
1001
0100
1010
0001
1100
0100
0011
0001
,
1010
0100
0011
1000
0110
0001
1010
0100
,
1001
0010
0110
1000
0101
0010
1001
0001
,
0110
0000
0000
0000
1000
0001
0000
0000
0010
0000
0000
0000
0100
0000
0000
0000
,
1001
0010
1100
0001
0110
1000
0011
0100
,
1001
0001
0110
0001
1010
1000
0101
1000
,
0011
1000
1100
0001
0011
1000
0110
0100
,
1010
0100
1001
0010
1100
0001
0110
1000
,
0011
0001
1100
0001
0011
1000
0110
0100
,
1001
0010
0101
0010
0110
0001
1010
0001
,
1100
0001
0110
1000
0011
0100
1100
0001
,
0110
0010
1001
0100
0011
1000
0101
1000
,
0110
0001
1010
0001
1100
1000
0011
0001
,
1100
0100
0011
1000
0110
0001
1010
0100
,
1001
0010
0101
1000
0110
0001
1010
0001
,
0110
1000
0101
1000
0011
0001
1100
0001
,
0110
1000
0011
1000
0110
0001
1010
0100
,
1001
0010
0101
1000
0110
0001
1100
0001
,
0110
1000
0011
0010
1100
0001
0110
0100
,
1001
0000
M000
000M
0000
0000
000M
0M00
,
1010
0001
1100
0001
0101
0010
1001
0100
,
0110
0001
1100
0001
0011
1000
0101
0010
,
1001
0100
1010
0001
0110
1000
0101
0001
,
1010
0100
1001
0100
0110
0001
1100
0001
,
0011
1000
0101
0100
1010
0001
1001
0010
,
0110
1000
0101
0010
1001
0100
1010
0001
,
0110
0100
1001
0010
1100
0001
0011
0100
,
1001
0001
1010
0100
1001
1000
0101
0010
,
1100
0001
0110
0001
1001
0010
0101
1000
,
0011
1000
1100
0010
1001
0100
1010
0001
,
0110
1000
0101
0010
1001
0010
1100
0001
,
0110
1000
0011
0100
1001
0010
0110
1000
,
1001
0100
1010
0001
1100
0100
0011
0001
,
1010
0100
0011
1000
0110
0001
1010
0100
,
1001
0010
0110
1000
0101
0010
1001
0001
,
0120
0000
0000
0000
,
1031
0100
1010
0001
0101
0010
1001
0100
,
0110
0001
1100
0001
0011
1000
0101
0010
,
1001
0100
1010
0001
0110
1000
0101
0001
,
1010
0100
1001
0100
0110
0001
1100
0001
,
0011
1000
0101
0100
1010
0001
1001
0010
,
0110
1000
0101
0010
1001
0100
1010
0001
,
0110
0100
1001
0010
1100
0001
0011
0100
,
1001
0001
1010
0100
1001
1000
0101
0010
,
1100
0001
0110
0001
1001
0010
0101
1000
,
0011
1000
1100
0010
1001
0100
1010
0001
,
0110
1000
0101
0010
1001
0010
1100
0001
,
0110
1000
0011
0100
1001
0010
0110
1000
,
1001
0100
1010
0001
1100
0100
0011
0001
,
1010
0100
0011
1000
0110
0001
1010
0100
,
1001
0010
0110
1000
0101
0010
1001
0001
,
0110
0001
1100
0010
0011
1000
0110
0100
,
1010
0100
1001
0001
0110
1000
0101
0010
,
1100
0001
0110
1000
0011
0100
1100
0001
,
0110
0100
1001
0010
0101
1000
1010
0001
,
1100
1000
0011
1000
0110
0001
1010
0100
,
1001
0100
0011
1000
1100
0001
0110
0100
,
1001
0100
0011
1000
1100
0001
0110
1000
,
0101
0010
1100
0100
0011
1000
0110
0001
,
1010
0100
1001
0010
0101
1000
0110
0001
,
2002
0000
3003
0220
0000
0330
0202
0000
,
0303
0000
2002
0000
0000
0000
3003
0000
2020
0000
0000
3030
0202
0000
0000
0303
,
0220
0000
0330
2020
0000
3030
2200
0000
,
3300
0202
0000
0303
2020
0000
3232
0000
,
1303
0001
1000
0100
0010
0001
0100
0010
1000
0001
1000
0100
1000
0010
0100
0001
,
0010
0100
1000
0010
0100
0001
1000
0001
0010
0001
1000
0010
0100
0001
0010
0100
,
1000
0100
0010
0001
0100
0010
1000
0100
1000
0010
0100
0001
1000
0001
0010
0100
,
1000
0202
0303
0000
0220
0330
2020
3030
,
1001
0100
1010
0001
0101
0010
1001
0100
,
0110
0001
1100
0001
0011
1000
0101
0010
,
1001
0100
1010
0001
0110
1000
0101
0001
,
1010
0100
1001
0100
0110
0001
1100
0001
,
0011
1000
0101
0100
1010
0001
1001
0010
,
0110
1000
0101
0010
1001
0100
1010
0001
,
0110
0100
1001
0010
1100
0001
0011
0100
,
1001
0001
1010
0100
1001
1000
0101
0010
,
1100
0001
0110
0001
1001
0010
0101
1000
,
0011
1000
1100
0010
1001
0100
1010
0001
,
0110
1000
0101
0010
1001
0010
1100
0001
,
0110
1000
0011
0100
1001
0010
0110
1000
,
1001
0100
1010
0001
1100
0100
0011
0001
,
1010
0100
0011
1000
0110
0001
1010
0100
,
1001
0010
0110
1000
0101
0010
1001
0100
,
0010
0000
M000
000M
0000
0000
000M
M000
,
0110
0100
1001
0001
0110
1000
0101
0010
,
1100
0001
0110
1000
0011
0100
1100
0001
,
0110
0100
1001
0010
0101
1000
1010
0001
,
1100
1000
0011
1000
0110
0001
1010
0100
,
1001
0100
0011
1000
1100
0001
0110
0100
,
1001
0100
0011
1000
1100
0001
0110
1000
,
0101
0010
1100
0100
0011
1000
0110
0001
,
1010
0100
1001
0010
0101
1000
0110
0001
,
1001
0100
1010
0001
0101
0010
1001
0100
,
0110
0001
1100
0001
0011
1000
0101
0010
,
1001
0100
1010
0001
0110
1000
0101
0001
,
1010
0100
1001
0100
0110
0001
1100
0001
,
0011
1000
0101
0100
1010
0001
1001
0010
,
0110
1000
0101
0010
1001
0100
1010
0001
,
0110
0100
1001
0010
1100
0001
0011
0100
,
1001
0000
0000
0010
0100
0000
0000
0000
1000
0000
0000
0000
0001
0000
0000
0000
,
0000
0000
0000
0000
;
