#TITLE:Dark Black Forest;
#SUBTITLE:;
#ARTIST:Steve Rhyner;
#TITLETRANSLIT:;
#SUBTITLETRANSLIT:;
#ARTISTTRANSLIT:;
#CREDIT:;
#BANNER:Dark Black Forest.png;
#BACKGROUND:Dark Black Forest-bg.png;
#LYRICSPATH:Dark Black Forest (short trip).lrc;
#CDTITLE:2kM Index.png;
#MUSIC:Dark Black Forest.mp3;
#OFFSET:-1.780;
#SAMPLESTART:29.160;
#SAMPLELENGTH:12.000;
#SELECTABLE:YES;
#DISPLAYBPM:140.000;
#BPMS:0.000=140.000;
#STOPS:;
#BGCHANGES:;
// cache tags:
#FIRSTBEAT:0.000;
#LASTBEAT:210.750;
#SONGFILENAME:Songs/Fabulously Fresh Flock of Fantastic Files F5/(2kM) Dark Black Forest/Dark Black Forest.sm;
#HASMUSIC:1;
#HASBANNER:1;
#MUSICLENGTH:96.765;
// end cache tags

//---------------dance-single - Copied from----------------
#NOTES:
     dance-single:
     Copied from:
     Hard:
     10:
     0.849,0.898,0.672,0.341,0.961,477.000,65.000,33.000,0.000,0.000:
2002
0000
0000
3003
,
0202
0000
0000
0303
,
2200
0000
0000
0000
,
0000
0000
0000
3300
,
2020
0000
0000
3030
,
2002
0000
0000
3003
,
0000
0000
2000
0000
3000
0000
0000
0000
0020
0000
0030
0000
,
0000
1000
0100
0000
0000
0000
0000
0000
,
0001
0100
0000
0100
0001
0000
0001
0100
0000
0100
0010
0000
1001
0000
0100
1000
,
0010
0100
0000
0001
0100
0000
0010
0100
0000
0100
0001
0000
1010
0000
0100
0100
,
0010
0001
0000
0001
0100
0000
0100
0010
0000
0010
1000
0000
0101
0000
0010
0001
,
0100
0010
0000
0010
1000
0000
1000
0001
0000
0001
0010
0000
1001
0000
0010
0100
,
1000
0010
0000
0010
0100
0000
0100
0001
0000
0001
1000
0000
1010
0000
0100
0010
,
0001
0100
0000
0100
0010
0000
0010
1000
0000
1000
0100
0000
1010
0000
0001
0010
,
0100
1000
0100
0010
0001
0100
0010
1000
0100
0010
0100
1000
0010
0100
0001
0010
,
0100
1000
0001
0010
0100
0010
0001
1000
0010
0100
0001
0010
0100
1000
0010
0100
,
0010
1000
0000
0010
1001
0000
1000
0010
0000
0010
0100
0000
1001
0000
0010
0001
,
0100
0010
0000
1000
0110
0000
0100
0010
0000
0010
1000
0000
0101
0000
0010
0010
,
0100
1000
0000
1000
0110
0000
0010
0100
0000
0100
0001
0000
1010
0000
0100
1000
,
0010
0100
0000
0100
1001
0000
0001
1000
0000
1000
0100
0000
1001
0000
0100
0010
,
0001
0100
0000
0100
1010
0000
0010
1000
0000
1000
0001
0000
1001
0000
0010
0100
,
1000
0010
0000
0010
0101
0000
0100
0001
0000
0001
0010
0000
0101
0000
1000
0100
,
0010
0001
0010
0100
1000
0010
0100
0001
0010
0100
0010
0001
0100
0010
1000
0100
,
0010
0001
1000
0100
0010
0100
1000
0001
0100
0010
1000
0100
0010
0001
0100
0010
,
0100
0001
0000
0001
0110
0000
0100
0010
0000
0010
1001
0000
0110
0000
1000
0010
,
0100
0001
0000
0001
0110
0000
0100
0010
0000
0010
0101
0000
1010
0000
0100
1000
,
0001
0100
0000
0100
1010
0000
0010
1000
0000
1000
0101
0000
1010
0000
0001
0010
,
0100
1000
0000
1000
0110
0000
0100
0010
0000
0010
1001
0000
0110
0000
0001
0100
,
0010
1000
0000
1000
0110
0000
0010
0100
0000
0100
1010
0000
0101
0000
1000
0001
,
0010
0100
0000
0100
1010
0000
1000
0100
0000
0100
0011
0000
1100
0000
0001
0010
,
0100
1000
0010
0100
0001
1000
0010
0100
0010
1000
0001
0010
0100
1000
0010
0100
,
0001
0100
0010
1000
0100
0010
0001
1000
0010
0100
0001
0010
0100
0010
0001
1000
,
0010
0200
0000
0000
0301
0000
0010
0000
2002
0000
0000
0000
3003
0000
0000
0000
,
1000
0002
0000
0000
0103
0000
0010
0000
2002
0000
0000
0000
3003
0000
0000
0000
,
0010
0200
0000
0000
0301
0000
1000
0000
2002
0000
0000
0000
3003
0000
0000
0000
,
0100
0020
0000
0000
0030
0000
0000
0000
2000
0000
3200
0000
0302
0000
0000
0000
,
0103
1000
0100
1000
0100
0000
0000
0000
2002
0000
0000
0000
3003
0000
0000
0000
,
0100
0001
0100
0001
0100
0000
0000
0000
2002
0000
0000
0000
3003
0000
0000
0000
,
1000
0010
1000
0010
1000
0000
0000
0000
2002
0000
0000
0000
3003
0000
0000
0000
,
0010
0001
0010
0000
0001
0000
1000
0000
0100
0000
0001
0000
0100
0000
1000
0000
,
0001
0100
0101
0100
0010
1000
1010
1000
,
0001
0010
0011
0010
0100
1000
1100
1000
,
0001
1000
1001
1000
0010
0100
0110
0100
,
0001
1000
1001
1000
0100
0010
0110
0001
,
0010
0100
1000
0000
1010
0000
0010
0000
0100
0001
0010
0000
0011
0000
0001
0000
,
1000
0010
0100
0000
0110
0000
0100
0000
0010
1000
0001
0000
1001
0000
0100
0000
,
0001
0100
0010
0000
0110
0000
0001
0000
0100
1000
0010
0000
1010
0000
0010
0000
,
1000
0001
0010
0000
0011
0000
0001
0000
0010
1000
0100
0000
1100
0000
1001
0000
,
0001
0100
0010
1000
0001
0100
0010
1000
0001
0010
0100
1000
0001
0010
0100
0010
,
0001
1000
0001
0100
0010
0100
0001
1000
0100
0010
0100
1000
0001
0100
0010
0100
,
0010
1000
0001
0010
0001
0010
0001
0010
0100
1000
0100
1000
0100
1000
0010
0000
,
2002
0000
0000
0000
0003
0000
0000
0000
3000
0010
0000
0000
0100
0000
0000
0000
0001
0000
0000
0010
0000
0000
0000
0000
0000
0000
0000
0000
0000
0000
0000
0000
,
0000
0000
0100
0000
0000
0000
0000
0000
0000
1000
0000
0001
0000
0000
0000
0000
;
