#TITLE:MODEL DD6;
#SUBTITLE:;
#ARTIST:Mutsuhiko Izumi;
#TITLETRANSLIT:;
#SUBTITLETRANSLIT:;
#ARTISTTRANSLIT:;
#CREDIT:;
#BANNER:;
#BACKGROUND:;
#LYRICSPATH:;
#CDTITLE:;
#MUSIC:Model DD6.mp3;
#OFFSET:0.344;
#SAMPLESTART:40.000;
#SAMPLELENGTH:12.000;
#SELECTABLE:YES;
#BPMS:0.000=150.000;
#STOPS:;
#BGCHANGES:;
// cache tags:
#FIRSTBEAT:5.000;
#LASTBEAT:267.750;
#SONGFILENAME:Songs/Beyond Legends/Model DD6/Model DD6.sm;
#HASMUSIC:1;
#HASBANNER:0;
#MUSICLENGTH:108.912;
// end cache tags

//---------------dance-single - Hard----------------
#NOTES:
     dance-single:
     Hard:
     Hard:
     10:
     1.000,0.922,0.799,0.064,1.000,704.000,87.000,7.000,0.000,0.000:

0000
0000
0000
0000
,
0000
2002
0000
0000
,
0000
0000
3003
0000
1000
0001
0100
0010
0100
0001
1000
0001
0100
0010
0100
0001
,
1000
0001
0010
0000
2200
0000
0000
0000
0000
0000
3300
0000
0100
1000
0010
1000
,
0100
1000
0010
0000
1000
0000
0001
0010
0100
1000
0000
1000
0010
0100
0001
0010
,
0001
0100
0001
0000
1010
0000
0001
0000
0010
0000
0100
0000
0010
0001
0000
0001
,
0010
0000
0100
0000
0011
0000
1000
0000
0010
0000
0100
0000
0010
1000
0000
1000
,
0010
0000
0100
0000
0110
0000
0001
0000
1000
0000
0100
0000
0010
0100
0000
0100
,
1000
0000
0010
0000
1001
0000
0100
0000
0001
0000
0010
0000
0001
0100
0000
0100
,
1000
0100
0001
0100
0010
1000
0000
0100
1000
0000
0100
0010
0000
0001
0010
0000
,
0011
0000
1100
0000
0100
0010
0000
0001
0010
0000
0001
0100
0000
0010
1000
0000
,
1010
0000
0101
0000
0001
0010
0000
0010
0100
0000
0100
1000
0000
1000
0010
0000
,
0110
0000
1001
0000
1000
0010
0000
0010
0100
0000
0100
0001
0000
0001
0010
0000
,
0001
0010
1000
0010
0001
0100
0001
0000
0000
0110
0000
0010
1000
0100
1000
0000
,
0000
0110
0000
0010
0100
0001
0000
0100
1000
0000
0100
0001
0000
0100
1000
0000
,
0011
0000
1010
0000
1000
0100
1000
0000
0000
0110
0000
0100
0010
0001
0010
0000
,
0000
1001
0000
1000
0010
0001
0000
0010
1000
0000
0010
0001
0000
0010
1000
0000
,
0101
0000
1100
0000
0100
0010
0001
0000
0000
1001
0000
0001
1000
0010
0100
0000
,
0000
1001
0000
0001
0010
0100
0000
0010
1000
0000
0010
0100
0000
0010
0001
0000
,
1001
0000
1100
0000
0001
0100
0010
0000
0000
1001
0000
1000
0100
0010
0001
0000
,
0000
1001
0000
0001
0100
0010
0000
0100
1000
0000
0100
0001
0000
0100
0010
0000
,
1001
0000
0101
0000
1010
0000
0100
0000
0011
0000
0100
0000
1010
0000
0001
0010
,
0100
0000
1000
0000
0010
1000
0000
0100
1000
0000
0010
1000
0000
0100
1000
0000
,
0010
0100
0010
0100
0101
0000
1000
0000
0011
0000
1000
0000
0101
0000
0010
1000
,
0100
0000
0010
0000
0001
0010
0000
0001
0100
0000
0001
0010
0000
0001
0100
0000
,
0010
0100
0010
0100
1100
0000
0001
0000
1010
0000
0001
0000
1100
0000
0010
0001
,
0100
0000
0001
0000
0010
0100
0000
1000
0100
0000
0010
0100
0000
1000
0100
0000
,
0001
0100
1000
0010
0110
0000
1000
0000
0110
0000
0001
0000
0110
0000
1000
0001
,
0100
0000
0010
0000
0100
0001
0000
0100
0010
0000
0100
0001
0000
0100
0010
0000
,
0100
1000
0100
0001
0010
0000
1000
0000
0100
0000
0001
0000
1000
0010
0000
0010
,
0001
0010
1000
0000
0010
0000
0001
0000
0100
0000
1000
0000
0001
0010
0000
1000
,
0010
0001
0010
0000
1000
0000
0100
0000
0001
0000
0100
0000
1000
0001
0000
0001
,
0100
1000
0100
0000
0001
0000
0010
0000
1000
0000
0010
0000
0001
1000
0000
1000
,
0010
0001
0010
1000
1001
0000
1010
0000
0100
0001
0010
0000
0001
0100
0000
0010
,
1000
0001
1000
0000
1001
0000
0011
0000
0100
1000
0010
0000
1000
0100
0000
0010
,
0001
1000
0001
0000
1001
0000
0110
0000
1000
0100
0001
0000
0100
0010
0000
0100
,
1000
0010
0001
0000
0110
0000
1001
0000
1000
0010
0001
0000
0010
1000
0010
1000
,
0100
1000
0100
1000
0002
0000
0000
0000
0000
0000
0000
0000
0000
0000
1000
1000
,
0000
1000
0003
0000
1000
0010
0100
0001
1000
0100
0010
0001
1000
0010
0001
0010
,
1000
0100
0001
0100
2000
0000
0000
0000
0000
0000
3000
0000
1000
0100
0010
0100
,
1000
0100
0010
0000
0001
0100
0001
0000
0001
0010
0000
0010
0100
0010
0001
1000
,
0010
0100
0001
0010
0110
0000
1100
0000
0110
0000
1010
0000
0110
0000
0100
1000
,
0010
0000
0100
0000
0110
0000
0101
0000
0110
0000
0011
0000
0110
0000
0100
0001
,
0010
0000
0100
0000
1100
0000
1010
0000
0011
0000
0101
0000
0011
0000
1000
0010
,
0100
0000
0001
0000
0010
0001
0010
0001
1000
0100
0010
0001
0200
0000
0000
0000
,
0000
0000
0300
0000
0010
1000
0010
0100
0000
1001
0000
0010
0001
0010
0100
0010
,
0000
1001
0000
0001
0100
0010
0000
1000
0010
0000
0001
0010
0000
0100
0010
0000
,
0110
0000
1001
0000
0100
0001
0100
0010
0000
1001
0000
0100
0010
0100
1000
0100
,
0000
1001
0000
1000
0100
0001
0000
0100
1000
0000
0100
0010
0000
0100
0001
0000
,
1000
0001
1000
0001
1000
0010
0100
0001
0000
1001
0000
0001
0010
0100
1000
0001
,
0000
1001
0000
0001
0100
0010
0000
1000
0001
0000
0010
0100
0000
1000
0001
0000
,
0101
0000
1100
0000
0010
1000
0100
0010
0000
1001
0000
0010
0001
0100
0010
1000
,
0000
1001
0000
0001
0010
0100
0000
1000
0001
0000
0100
0010
0000
1000
0001
0000
,
1000
0001
1000
0001
1010
0000
0101
0000
1001
0000
0001
0100
1000
0100
0001
0010
,
1000
0010
0001
0000
1000
0010
0000
0100
0001
0000
1000
0010
0000
0100
0001
0000
,
0001
0010
0100
1000
0011
0000
1100
0000
1001
0000
1000
0010
0001
0010
1000
0100
,
0001
0100
1000
0000
0001
0010
0000
0100
1000
0000
0001
0010
0000
0100
1000
0000
,
1000
0001
0100
0010
1001
0000
0110
0000
1000
0100
0001
0010
0100
1000
0001
0100
,
0010
1000
0100
0000
0001
0100
0000
1000
0010
0000
0001
1000
0000
0100
0001
0000
,
0010
0100
0010
0100
1001
0000
0110
0000
1000
0010
0001
0100
0010
1000
0100
0010
,
0001
1000
0010
0000
0100
0001
0000
0010
1000
0000
0001
0100
0000
1000
0010
0000
,
0100
0010
0100
0010
0100
1000
0000
0100
0001
0000
0100
1000
0000
0100
0001
0000
,
0100
0000
1000
0000
0100
0001
0000
0100
1000
0000
0100
0001
0000
0100
1000
0000
,
0100
0001
0010
0100
1000
0010
0000
0001
0010
0000
1000
0010
0000
0001
0010
0000
,
1000
0000
0100
0010
0001
0100
0001
0100
0010
1000
0100
1000
0100
0010
0001
1000
,
0001
0000
1100
0000
0000
0000
0000
1000
0010
0100
0010
0100
0001
0010
1000
0100
,
0001
0010
1000
0000
0100
0010
0001
0100
0000
0000
0110
0000
0100
0010
1000
0100
,;
