#TITLE:Somewhere over the Rainbow;
#SUBTITLE:Heavenly Child MIX;
#ARTIST:Cosmic Gate;
#TITLETRANSLIT:;
#SUBTITLETRANSLIT:;
#ARTISTTRANSLIT:;
#CREDIT:;
#BANNER:Banasdasd.png;
#BACKGROUND:Arcoiris de Corazon_800.png;
#LYRICSPATH:;
#CDTITLE:KOMBO.png;
#MUSIC:SOMEWHERE OVER THE RAINBOW -HEAVENLY CHILD MIX-.mp3;
#OFFSET:-2.280;
#SAMPLESTART:5.152;
#SAMPLELENGTH:20.000;
#SELECTABLE:YES;
#BPMS:0.000=185.010,9.000=92.510,41.000=185.010,105.000=92.510,137.000=185.010;
#STOPS:;
#BGCHANGES:;
// cache tags:
#FIRSTBEAT:1.000;
#LASTBEAT:233.083;
#SONGFILENAME:Songs/Definitive Keyboard Megapack/SWOTR Heavenly Child MIX [KOMBO]/SOMEWHERE OVER THE RAINBOW -HEAVENLY CHILD MIX-.sm;
#HASMUSIC:1;
#HASBANNER:1;
#MUSICLENGTH:100.341;
// end cache tags

//---------------dance-single - KO KO KOMBO BREAKER!----------------
#NOTES:
     dance-single:
     KO KO KOMBO BREAKER!:
     Challenge:
     20:
     1.000,1.000,1.000,0.269,1.000,870.000,132.000,27.000,0.000,1.000:

0000
0000
0000
0000
0011
1100
0011
1100
0011
1100
0011
1100
0011
1100
0011
1100
,
0011
0000
1100
0000
0011
0000
1100
0000
0022
0033
0000
0000
0000
0000
0000
0000
0000
0000
0000
0000
0000
0000
0000
0000
0000
0000
0000
0000
0000
0000
0000
0000
,
0000
0000
0000
0000
0000
0000
0000
0000
0010
0010
0010
0010
0010
0010
0010
0010
0010
0010
0010
0010
0010
0010
0010
0010
1000
1000
1000
1000
1000
1000
1000
1000
,
1000
1000
1000
1000
1000
1000
1000
1000
0001
0001
0001
0001
0001
0001
0001
0001
0100
0100
0100
0100
0010
0010
0010
0010
0001
0001
0001
0001
0001
0001
0001
0001
,
1000
1000
1000
1000
1000
1000
1000
1000
0010
0010
0010
0010
0010
0010
0010
0010
0010
0010
0010
0010
0010
0010
0010
0010
1000
1000
1000
1000
1000
1000
1000
1000
,
1000
1000
1000
1000
1000
1000
1000
1000
0001
0001
0001
0001
0001
0001
0001
0001
0001
0001
0001
0001
0001
0001
0001
0001
0001
0001
0001
0001
0001
0001
0001
0001
,
0001
0000
0000
0000
0000
0000
0000
0000
0100
0100
0100
0100
0100
0100
0100
0100
0100
0100
0100
0100
0100
0100
0100
0100
0010
0010
0010
0010
0010
0010
0010
0010
,
0010
0010
0010
0010
0010
0010
0010
0010
1000
1000
1000
1000
1000
1000
1000
1000
0100
0100
0100
0100
0010
0010
0010
0010
0100
0100
0100
0100
0100
0100
0100
0100
,
0001
0001
0001
0001
0001
0001
0001
0001
1000
1000
1000
1000
1000
1000
1000
1000
0001
0001
0001
0001
0100
0100
0100
0100
0010
0010
0010
0010
0010
0010
0010
0010
,
1000
1000
1000
1000
1000
1000
1000
1000
0010
0010
0010
0010
0010
0010
0010
0010
0010
0010
0010
0010
0010
0010
0010
0010
0010
0010
0010
0010
0010
0010
0010
0010
,
0010
2110
0000
0000
,
0000
0000
3200
0000
,
0000
0000
0320
0000
,
0230
0320
0032
0000
,
2003
0000
3020
0000
,
0000
0000
2030
0000
,
0000
0000
3020
0000
,
0000
0000
0000
0000
,
0000
0000
2030
0000
,
0000
0000
3200
0000
,
0000
0000
0320
0000
,
0032
0203
0320
0000
,
0230
0000
0302
0000
,
0203
0320
0230
0000
,
2300
0000
3020
0000
,
0000
0000
0000
0000
,
0030
0000
0000
0000
0000
0000
0000
0000
0100
0100
0100
0100
0100
0100
0100
0100
0100
0100
0100
0100
0100
0100
0100
0100
0001
0001
0001
0001
0001
0001
0001
0001
,
0001
0001
0001
0001
0001
0001
0001
0001
1000
1000
1000
1000
1000
1000
1000
1000
0010
0010
0010
0010
0100
0100
0100
0100
1000
1000
1000
1000
1000
1000
1000
1000
,
0001
0001
0001
0001
0001
0001
0001
0001
0100
0100
0100
0100
0100
0100
0100
0100
0100
0100
0100
0100
0100
0100
0100
0100
0001
0001
0001
0001
0001
0001
0001
0001
,
0001
0001
0001
0001
0001
0001
0001
0001
1000
1000
1000
1000
1000
1000
1000
1000
1000
1000
1000
1000
1000
1000
1000
1000
1000
1000
1000
1000
1000
1000
1000
1000
,
1000
0000
0000
0000
0000
0000
0000
0000
0010
0010
0010
0010
0010
0010
0010
0010
0010
0010
0010
0010
0010
0010
0010
0010
0100
0100
0100
0100
0100
0100
0100
0100
,
0100
0100
0100
0100
0100
0100
0100
0100
0001
0001
0001
0001
0001
0001
0001
0001
0010
0010
0010
0010
0100
0100
0100
0100
0010
0010
0010
0010
0010
0010
0010
0010
,
1000
1000
1000
1000
1000
1000
1000
1000
0001
0001
0001
0001
0001
0001
0001
0001
1000
1000
1000
1000
0010
0010
0010
0010
0100
0100
0100
0100
0100
0100
0100
0100
,
0001
0001
0001
0001
0001
0001
0001
0001
0100
0100
0100
0100
0100
0100
0100
0100
0100
0100
0100
0100
0100
0100
0100
0100
0100
0100
0100
0100
0100
0100
0100
0100
,
0100
0100
0100
0100
0100
0000
0000
0000
1000
0000
0100
0000
1000
0000
0000
0000
0001
0000
0010
0000
0001
0000
0000
0000
0100
0000
0010
0000
0100
0000
0000
0000
,
0001
1000
0001
0000
1000
0010
1000
0000
0100
0010
0100
0000
1000
0100
1000
0000
,
0001
0010
0001
0000
0100
0010
0100
0000
0001
1000
0001
0000
1000
0010
1000
0000
,
0100
0010
0100
0000
1100
0000
0011
0000
1100
0000
0011
0000
0101
0000
1100
0000
,
0110
1010
0101
1100
0011
1001
0110
0011
,
1010
0011
0101
1100
0011
1100
0101
1100
,
0110
0101
1010
0101
1010
0110
1100
0011
,
0110
0000
1100
0011
1100
0011
1100
0011
1100
0011
1100
0011
1100
0011
1100
0011
,
1100
0011
1100
0011
1100
0001
0010
0001
0110
0001
0100
0001
1010
0100
0001
0100
,
0011
1000
0010
1000
0110
0001
1000
0001
1010
0100
0010
0100
0011
1000
0001
1000
,
0110
0001
0010
0001
1010
0100
0001
0100
1001
0100
1000
0100
0011
1000
0100
1000
,
0101
0010
0001
0010
1001
0100
0010
0100
0011
1000
0001
1000
0101
0010
0100
0010
,
1001
0100
0001
0100
1010
0100
0001
0100
1001
0100
1000
0100
0011
1000
0100
1000
,
0101
0010
0001
0010
1001
0100
0010
0100
0011
1000
0001
1000
0101
0010
0100
0010
,
1001
0100
0001
0100
1010
0001
0010
0001
0110
0001
0100
0001
1010
0100
0001
0100
,
0011
1000
0010
1000
0110
0001
1000
0001
1010
0100
0010
0100
0011
1000
0001
1000
,
0110
0001
0010
0001
1010
0100
0001
0100
0011
0100
0010
0100
1001
0010
0100
0010
,
0101
1000
0001
1000
0011
0100
1000
0100
1001
0010
0001
0010
0101
1000
0100
1000
,
0011
0100
0001
0100
1010
0100
0001
0100
1001
0100
1000
0100
0011
1000
0100
1000
,
0101
0010
0001
0010
1001
0100
0010
0100
0011
1000
0001
1000
0101
0010
0100
0010
,
1001
0100
0010
0100
0011
1000
0001
1000
0101
0010
0001
0010
1100
0001
0010
0001
,
1010
0100
1000
0100
1001
0010
0100
0010
1100
0001
1000
0001
1010
0100
0010
0100
,
1001
0010
1000
0010
0101
1000
0001
1000
0101
0010
1000
0010
1100
0010
0100
0010
,
0101
0010
0001
0010
1001
0100
0010
0100
0011
1000
0001
1000
0101
0010
0100
0010
,
1001
0000
0000
0100
0000
0000
0001
0000
0000
0100
0000
0000
0022
0033
0000
0000
0000
0000
0000
0000
0000
0000
0000
0000
0000
0000
0000
0000
0000
0000
0000
0000
0000
0000
0000
0000
0000
0000
0000
0000
0000
0000
0000
0000
0000
0000
0000
0000
;
