#TITLE:Machines;
#SUBTITLE:;
#ARTIST:Across The Kingdom;
#TITLETRANSLIT:;
#SUBTITLETRANSLIT:;
#ARTISTTRANSLIT:;
#CREDIT:;
#BANNER:BN.png;
#BACKGROUND:BG.png;
#LYRICSPATH:;
#CDTITLE:../CDTitleKIRBY.png;
#MUSIC:Machines.ogg;
#OFFSET:-0.037;
#SAMPLESTART:58.415;
#SAMPLELENGTH:26.000;
#SELECTABLE:YES;
#BPMS:0.000=148.000;
#STOPS:;
#BGCHANGES:;
// cache tags:
#FIRSTBEAT:16.000;
#LASTBEAT:522.000;
#SONGFILENAME:Songs/Index Gradation/Machines - [Kirby5464]/Machines.sm;
#HASMUSIC:1;
#HASBANNER:1;
#MUSICLENGTH:214.021;
// end cache tags

//---------------dance-single - ----------------
#NOTES:
     dance-single:
     :
     Challenge:
     12:
     0.858,1.000,0.051,0.584,0.956,1150.000,11.000,125.000,1.000,0.000:
0000
0000
0000
0000
,
0000
0000
0000
0000
,
0000
0000
0000
0000
,
0000
0000
0000
0000
,
1000
0000
0001
0000
0000
0000
1000
0010
0100
0000
0001
0000
0000
0000
1000
0100
,
1000
0001
0000
2000
3020
0000
0230
0000
,
0301
0000
1000
0000
0000
0000
0001
0100
0010
0000
1000
0000
0000
0000
0010
0100
,
0010
1000
0000
0002
0203
0000
0320
0000
,
2030
3000
0002
0003
0000
0000
2000
3020
2030
3000
0002
0003
0000
0000
2000
3002
,
2003
3000
0002
0003
0000
0000
2000
0000
3002
0000
0000
0000
0203
0000
0000
0000
,
0320
0030
0200
0300
0000
0000
0002
2003
3002
0003
2000
3000
0000
0000
0002
0023
,
0032
0003
0200
0300
0000
0000
1000
0010
1000
0001
0010
0001
1000
0100
0010
0001
,
1000
0010
0100
0001
1000
0001
0100
0010
1000
0100
0010
0001
1000
0010
1000
0001
,
0010
0001
1000
0100
1000
0001
0100
0010
1000
0100
0010
0100
1000
0001
0010
0001
,
1000
0010
0100
0001
1000
0001
0010
0100
1000
0001
0010
0001
0100
0010
1000
0001
,
0010
0100
1000
0001
0010
0100
0010
0001
2000
0000
3002
0000
0203
0000
0000
0000
,
0301
1000
0010
0100
0001
0010
0100
0010
0001
1000
0010
1000
0100
0010
0001
1000
,
0100
1000
0001
0010
0001
0100
0010
1000
0001
0010
0100
1000
0001
0010
0100
0010
,
0001
1000
0100
1000
0001
0010
0001
0100
0010
0100
0001
1000
0100
0010
0001
0100
,
0010
0100
0001
1000
0001
0010
0100
1000
0001
0100
0010
1000
0002
0000
0000
0000
,
0103
0001
1000
0100
0010
0001
0200
0320
,
0000
0030
0000
0000
0000
0000
0002
0000
,
1003
0010
0100
0001
1000
0001
0200
0320
,
0000
0030
0000
0000
0000
0000
1000
0000
,
0001
0000
1000
0100
0010
0001
1000
0020
,
0000
0230
0000
0302
0000
0003
0000
1000
,
0010
0100
0001
0010
,
0100
0000
1000
0001
0000
0100
0000
0000
,
0001
1000
0001
0100
0010
1000
0001
0200
,
0000
0300
0000
0000
0000
0000
0000
0000
,
0001
0010
0100
1000
0001
0100
0010
2000
,
0000
3000
0000
0000
0000
0000
0001
0100
,
0001
1000
0010
0100
,
0001
0000
1000
0001
0000
1000
0000
0020
,
0000
0000
0000
0230
0000
0000
0000
0000
0302
0000
2003
0000
0000
0000
3002
0000
,
0000
0000
0000
0003
,
1000
0100
0010
0001
1000
0100
1000
0001
0010
0100
0010
0001
1000
0010
0100
0001
,
1000
0001
0010
0100
1000
0010
0100
0010
1000
0100
1000
0001
0010
0001
1000
0100
,
0010
0100
1000
0001
0100
0001
0010
0100
1000
0010
0100
0010
1000
0100
1000
0001
,
0200
0320
2030
3200
0320
0032
2003
3020
,
0130
0001
0010
0100
1000
0001
0100
0010
1000
0001
1000
0010
0100
0010
1000
0100
,
1000
0001
0010
0001
1000
0100
0010
0100
1000
0001
0100
0001
0010
0100
1000
0001
,
0100
0010
1000
0100
1000
0001
0010
0001
1000
0010
0100
0001
0010
0100
0010
0001
,
2000
3200
0320
0032
,
1003
0010
0100
0001
0010
0100
1000
0001
0010
0001
1000
0100
1000
0001
0100
0010
,
1000
0100
0010
0001
1000
0100
0010
0100
1000
0001
0100
0001
0010
0100
1000
0010
,
0100
0010
1000
0100
1000
0001
0010
0001
1000
0010
0100
0001
1000
0001
0010
0100
,
1000
0010
0100
0010
1000
0001
0100
0010
1000
0001
1000
0001
1000
0001
1000
0001
,
1000
0010
0100
0001
0010
0100
1000
0010
0100
0010
1000
0100
1000
0001
0010
0001
,
1000
0100
0010
0100
1000
0001
0100
0001
1000
0010
0100
0001
1000
0100
0010
0001
,
1000
0100
1000
0001
0010
0001
1000
0010
0100
0010
1000
0001
0010
0100
1000
0010
,
0100
0010
1000
0100
1000
0001
0100
0010
1000
0001
1000
0001
1000
0001
1000
0001
,
1000
0000
0010
0000
0100
0000
0001
0010
,
0100
1000
0001
0100
0010
0000
0000
0000
,
1000
0100
0010
0001
1000
0010
0100
0001
,
0010
0100
1000
0001
0100
0010
2000
0000
0000
3000
0000
0000
,
0001
0000
1000
0000
0001
0000
1000
0100
,
0010
0001
1000
0010
0100
0000
0000
0000
,
0001
0100
0001
1000
0100
0010
0001
1000
,
0010
0100
0001
0000
1000
0000
0010
0000
0200
0000
0000
0000
0300
0000
0000
0000
,
0001
0100
0010
1000
0100
0010
0001
1000
0100
1000
0001
0010
0001
1000
0010
0100
,
0001
1000
0001
0010
0100
1000
0010
0100
0010
1000
0100
1000
0001
0010
0001
1000
,
0100
0010
0001
1000
0100
0010
0100
1000
0001
0100
0001
0010
0100
1000
0001
0100
,
0020
2030
3002
0023
0230
2300
3002
0203
,
0310
1000
0100
0010
0001
1000
0100
1000
0001
0010
0001
1000
0010
0100
0001
1000
,
0001
0010
0100
1000
0010
0100
0010
1000
0100
1000
0001
0010
0001
1000
0100
0010
,
0001
1000
0100
0010
0100
1000
0001
0100
0001
0010
0100
1000
0010
0100
0010
1000
,
0002
0000
0000
0203
0000
0000
0320
0000
0000
0000
0000
0000
0030
0000
0000
0000
,
1000
0100
0010
0001
1000
0100
1000
0001
0100
0001
0010
0100
1000
0010
0100
0010
,
1000
0100
1000
0001
0010
0001
1000
0010
1000
0100
0010
0001
1000
0100
0010
0100
,
1000
0001
0010
0001
1000
0100
1000
0010
0100
0010
1000
0001
0010
0100
1000
0001
,
0200
0320
2030
3200
0320
0032
2003
3020
,
0130
0001
1000
0001
0010
0100
1000
0001
0100
0010
1000
0100
0010
0100
1000
0001
,
0010
0001
1000
0010
1000
0100
0010
0001
1000
0010
0100
0001
0010
0001
1000
0100
,
1000
0010
0100
0010
1000
0001
0010
0100
1000
0010
0100
0001
1000
0100
0010
0001
,
2000
3020
0230
0302
,
1003
0000
0010
0000
0100
0000
0001
1000
,
1001
0000
0100
0000
0010
0000
1000
0010
,
1010
0000
0001
0000
0100
0000
0010
0100
,
0110
0000
1000
0000
0001
0000
0100
0001
,
0101
0000
0010
0000
0100
0000
0001
1000
,
1100
0000
0010
0000
0100
0000
0001
0010
,
0011
0000
1000
0000
0001
0000
1000
0010
,
1010
0000
0001
0000
0100
0000
0001
1000
,
1001
0000
0100
0000
0010
0000
1000
0010
,
1010
0000
0001
0000
0100
0000
0010
0100
,
0110
0000
1000
0000
0001
0000
0100
0001
,
0101
0000
0010
0000
0100
0000
0001
1000
,
0001
0100
0010
1000
0100
1000
0001
0100
,
0001
0010
0100
1000
0010
0100
0010
1000
,
0100
1000
0001
0010
0001
1000
0100
0010
,
0001
0000
0000
0000
0000
0000
0000
0000
1000
0000
0000
0000
0000
0000
0000
0000
0010
0000
0000
0000
0000
0000
0000
0000
0100
0000
0000
0001
0000
0000
1000
0000
0000
0001
0000
0000
0010
0000
0000
0100
0000
0000
1000
0000
0000
0001
0000
0000
,
0100
0010
1000
0100
0010
0100
1000
0001
0100
0001
0010
0100
1000
0010
0100
0010
,
1000
0100
1000
0001
0010
0001
1000
0100
0010
0001
1000
0010
1000
0001
0010
0100
,
0010
0001
1000
0100
1000
0001
0010
0001
1000
0010
0100
0001
0010
0100
1000
0001
,
0200
0320
2030
3002
2003
3020
0230
0302
,
1003
0010
0100
0001
0010
0100
1000
0001
0100
0001
1000
0100
1000
0010
0100
0010
,
1000
0001
0010
0100
1000
0001
0100
0010
1000
0001
1000
0100
0010
0001
1000
0010
,
0100
0001
1000
0001
0100
0010
1000
0100
1000
0001
0100
0001
0010
0100
1000
0001
,
0200
0000
0000
0320
0000
0000
2030
0000
0000
0000
0000
0000
3000
0000
0000
0000
,
0001
0010
0001
1000
0100
1000
0001
0010
0100
1000
0010
0100
0010
1000
0001
0100
,
0010
1000
0100
0010
0100
1000
0001
0010
0001
1000
0010
1000
0100
0010
0001
1000
,
0010
0100
0001
1000
0001
0010
0100
1000
0010
0100
0010
1000
0001
0100
0010
1000
,
0002
0023
0230
2300
3002
0203
0320
2030
,
3001
0100
0010
1000
0100
0010
0001
1000
0010
1000
0001
0010
0100
0010
0001
1000
,
0100
1000
0001
0010
0001
1000
0010
0100
0001
0010
0100
1000
0001
0100
0010
1000
,
0001
1000
0100
0010
0001
1000
0010
0100
0001
0010
0001
1000
0100
1000
0001
0100
,
0020
0230
0302
2003
,
3001
0000
1000
0000
0000
0000
0001
0100
0010
0000
1000
0000
0000
0000
0001
0010
,
0001
1000
0000
0002
0203
0000
0320
0000
,
1030
0000
0001
0000
0000
0000
1000
0010
0100
0000
0001
0000
0000
0000
1000
0100
,
1000
0000
0001
0000
0000
0000
2000
0000
3010
0100
0001
0010
0100
1000
0010
0100
,
0001
0000
1000
0000
0000
0000
0001
0100
0001
0000
1000
0000
0000
0000
0001
0010
,
0001
1000
0000
0002
2003
0000
3020
0000
,
0130
0000
0010
0000
0000
0000
1000
0001
1000
0000
0001
0000
0000
0000
1000
0100
,
1000
0000
0010
0000
0000
0000
0100
0000
0010
1000
0100
0010
0001
1000
0010
0100
,
0001
0000
1000
0000
0000
0000
0001
0010
0001
0000
1000
0000
0000
0000
0001
0100
,
0001
1000
0000
0002
0203
0000
0320
0000
,
1030
0000
0001
0000
0000
0000
1000
0001
1000
0000
0010
0000
0000
0000
0001
0100
,
0010
1000
0000
0002
2003
0000
3020
0000
,
0230
0302
2003
3020
,
0000
0000
0000
0000
,
0000
0030
0000
0000
,
0000
0000
0000
0000
,
0000
0000
0000
0000
,
0000
0000
0000
0000
,
0000
0000
0000
0000
,
0000
0000
0000
0000
,
0000
0000
0000
0000
,
0000
0000
0000
0000
,
0000
0000
0M00
0000
,
0000
0000
0000
0000
;
