#TITLE:Nebula Grasper;
#SUBTITLE:;
#ARTIST:L.E.D.;
#TITLETRANSLIT:;
#SUBTITLETRANSLIT:;
#ARTISTTRANSLIT:;
#CREDIT:;
#BANNER:Nebula Grasper bn.png;
#BACKGROUND:Nebula Grasper bg.png;
#LYRICSPATH:;
#CDTITLE:cdtitle.png;
#MUSIC:Nebula Grasper.mp3;
#OFFSET:-1.050;
#SAMPLESTART:106.500;
#SAMPLELENGTH:11.760;
#SELECTABLE:YES;
#BPMS:0.000=153.000;
#STOPS:;
#BGCHANGES:;
// cache tags:
#FIRSTBEAT:0.000;
#LASTBEAT:301.000;
#SONGFILENAME:Songs/Community Keyboard Megapack - Volume 2/(skauert) Nebula Grasper/Nebula Grasper.sm;
#HASMUSIC:1;
#HASBANNER:1;
#MUSICLENGTH:121.661;
// end cache tags

//---------------dance-single - ----------------
#NOTES:
     dance-single:
     :
     Hard:
     11:
     1.000,1.000,1.000,0.279,1.000,728.000,156.000,34.000,0.000,0.000:
2002
0000
0000
0000
,
0000
0000
0000
3003
,
0110
0000
1100
0000
0001
0010
0100
0010
0000
0000
1100
0000
0110
0001
0000
0110
,
1000
0000
0100
0010
0100
0000
0020
0130
0000
0000
0100
0000
0100
0010
0000
0100
,
0101
0000
0011
0000
0100
1000
0100
0010
0000
0000
1001
0000
1010
0100
0000
0101
,
0010
0000
1000
0010
1000
0000
0002
0013
0000
0000
0010
0000
0100
0010
1100
0000
,
1100
0010
0001
1000
0010
0100
0010
0001
0010
0100
1000
0001
0100
0010
1000
0010
,
1001
0100
0010
0001
1000
0010
0100
0001
0010
0100
1000
0010
0100
0001
1010
0000
,
1010
0000
0100
0010
1000
0000
0101
0000
0101
0000
0010
0100
0010
0000
1100
0000
,
1100
0000
0000
0000
0010
0000
0000
0000
0110
0000
0000
0000
0100
0000
0000
0000
1100
0000
0000
0000
1100
0000
0000
0000
0010
0100
0010
0100
0010
0100
0010
0100
,
0020
0000
0000
0000
0000
0000
0000
0000
0030
0000
0000
0100
0010
0101
0000
0100
,
1010
0000
0001
0000
1100
0010
0001
0100
1010
0000
0010
0000
1100
0010
0000
0001
,
1010
0000
0100
0010
1100
0000
0010
0010
0101
0000
1000
0000
0011
0100
0000
0100
,
1001
0000
0100
0000
1010
0100
0010
0001
1100
0000
0001
0000
1010
0100
0000
1000
,
0110
0000
1000
0100
0011
0000
0001
0001
0110
0000
0001
0000
1100
0010
0000
0010
,
0100
0000
0011
0000
0010
0100
0010
0100
1000
0000
0110
0000
0100
0010
0000
0010
,
0100
0000
0001
0010
0001
0000
1100
1100
0010
0000
0110
0000
0010
1000
0000
1000
,
0011
0000
1000
0000
0110
1000
0100
1000
0110
0000
0001
0000
1100
0010
0000
0010
,
2001
0000
0000
0000
0000
0000
0010
0001
0000
0000
3000
0000
0201
0000
0300
0000
,
1001
0000
1001
0000
0100
0010
0100
0010
0000
0100
0000
0000
1001
0000
0100
0010
,
0000
0000
0011
0100
1000
0100
0001
0010
0100
0010
0100
1000
0001
0100
0010
1000
,
0110
0000
0001
0000
1000
0100
0010
0001
0000
0100
0000
0000
0110
0000
1000
0100
,
0000
0000
0011
0100
0010
0001
1000
0100
0010
0001
0100
0010
1000
0010
0100
0001
,
1010
0000
0110
0000
1001
0010
0100
1001
0000
0010
0000
0000
1100
0000
0110
0001
,
0000
0000
0110
0001
0010
0100
1000
0001
0100
0010
1000
0001
0010
0100
0010
0001
,
0110
0000
1010
0000
0001
0010
0001
0000
0101
0000
0110
0000
1000
0100
1000
0000
,
0110
1000
0010
0100
0001
0010
0110
0100
,
1002
0000
1003
0000
0001
0010
0100
0020
1000
0000
0001
0000
0100
0000
1030
0000
,
0101
0000
0100
0010
0000
0010
0001
0000
2000
0000
3100
0000
0020
0000
0130
0000
,
2010
0000
3010
0000
0100
0010
0100
2000
0010
0000
0001
0000
0010
0000
3100
0000
,
0011
0000
1000
0100
0000
0001
0010
0000
0200
0000
0301
0000
0020
0000
1030
0000
,
0012
0000
0013
0000
1000
0100
0010
0001
0000
0110
0000
0000
1100
0000
0010
1100
,
0000
0000
0010
0100
0010
0100
1000
0100
0011
0000
1000
0000
0110
0000
1000
0100
,
0011
0000
1100
0000
0010
0100
0010
0001
0110
1000
0000
0000
0010
0000
0010
0001
,
1100
0000
0000
0000
0010
0000
0100
0000
1010
0000
0100
0000
0010
0000
0001
0000
0110
0000
1000
0000
0100
0000
0000
0000
0001
1000
0001
1000
0001
1000
0001
1000
,
0210
0000
0000
0000
,
0320
0000
0000
0000
0000
0000
0000
0030
,
2001
0000
0000
0000
,
3002
0000
0000
0000
0000
0000
0000
0003
,
2010
0000
0000
3000
0020
0000
0000
0030
,
0200
0000
0000
0000
0000
0000
0000
0300
,
2002
0000
0000
0000
,
0000
0000
0000
3003
,
1100
0102
0010
0000
0100
0000
1000
0000
,
0010
0000
1000
0000
0100
0000
0010
0003
,
1000
0100
1000
0000
0011
0000
0000
0000
0100
0000
0000
0000
0010
0000
0000
0000
,
0100
0010
0100
0000
0011
0000
0100
0000
1000
0000
0010
0000
0001
0000
0100
0000
,
2010
0001
0010
0100
0001
0100
0010
3001
,
0102
1000
0010
0100
0010
1000
0100
0010
,
0103
0110
1100
1010
,
0210
0000
0000
0000
0000
0000
0000
0000
0300
0000
0000
1000
0010
0100
0010
0100
,
1001
0100
0010
0001
0010
0100
1000
0001
0110
1000
0100
0010
0001
0100
0010
0100
,
1001
0010
0100
1000
0001
0100
0010
1000
0110
0001
0010
0100
0010
0001
1000
0100
,
1010
0001
0010
0100
1000
0010
0100
0010
0101
1000
0100
0010
0001
0010
0100
1000
,
0110
0001
0010
0100
0010
0001
1000
0010
1100
0001
0010
0100
1000
0100
0010
0001
,
1010
0000
0100
0000
0011
0000
1000
0100
1000
0000
0001
0000
1010
0000
0100
0000
,
0011
0000
0010
0000
1100
0000
0001
0010
0100
0000
0100
0000
0011
0000
1000
0000
,
0110
0000
0001
0000
1010
0000
0100
0010
0001
0000
0100
0000
0011
0000
1000
0000
,
0110
0000
0001
0000
1100
0000
0010
0100
0010
0000
0001
0000
0110
0000
1000
0000
,
0101
0010
0100
1000
0010
0100
0010
0001
1010
0100
0010
0001
0100
0010
0100
1000
,
0110
0001
0010
0100
1000
0010
0100
0001
1100
0010
1000
0100
0010
0001
0010
0001
,
0110
1000
0100
0010
0100
0010
0001
0010
1001
0100
1000
0100
0010
0100
1000
0100
,
0011
0100
1000
0100
0010
0001
0100
0010
1100
0001
0010
0100
1000
0001
0100
0010
,
0200
0000
0310
0000
1100
0010
0001
0000
0020
0000
0130
0000
0011
0100
1000
0000
,
0200
0000
1300
0000
0110
0001
0010
0000
0020
0000
0031
0000
0110
1000
0100
0000
,
1001
0110
0011
1100
,
0001
0000
0000
0000
0100
0000
0000
0000
0010
0000
0000
0000
1000
0000
0000
0000
0100
0000
0000
0000
0001
0000
0000
0000
0100
0010
0100
0010
0100
0010
0100
0010
,
1001
0000
1001
0000
0100
0010
0100
0010
0000
1100
0000
0000
0010
0000
0101
0010
,
0000
0000
0101
0010
0100
1000
0100
0010
0100
0010
0001
1000
0100
0010
0001
0010
,
1001
0000
1010
0000
0100
0010
0001
0010
0000
0110
0000
0000
1000
0000
0110
1000
,
0000
0000
1010
0100
0010
0001
0100
0010
1000
0010
0100
0001
0010
0100
1000
0100
,
0011
0000
0110
0000
0100
0010
0100
1000
0000
0011
0000
0000
0100
0000
0011
0100
,
0000
0000
0110
1000
0100
0010
0100
1000
0100
0010
0001
0100
0010
1000
0100
0010
,
1001
0100
0010
0100
0010
0100
0010
0100
1001
0010
0100
0010
0100
0010
0100
0010
,
1001
0000
0000
0000
0100
0000
0000
0000
0110
0000
0000
0000
0010
0000
0000
0000
1000
0100
0010
0001
1000
0100
0010
0001
1000
0100
0010
0001
1000
0100
0010
0002
,
0000
0003
0000
0000
;
