#TITLE:Evil Sweeper Evolution;
#SUBTITLE:v2;
#ARTIST:Godspeed;
#TITLETRANSLIT:;
#SUBTITLETRANSLIT:;
#ARTISTTRANSLIT:;
#CREDIT:;
#BANNER:ESE-BN.png;
#BACKGROUND:ESE-BG.png;
#LYRICSPATH:;
#CDTITLE:;
#MUSIC:Godspeed - Evil Sweeper Evolution.ogg;
#OFFSET:-0.342;
#SAMPLESTART:51.521;
#SAMPLELENGTH:12.000;
#SELECTABLE:YES;
#BPMS:0.000=137.500;
#STOPS:;
#BGCHANGES:;
// cache tags:
#FIRSTBEAT:6.000;
#LASTBEAT:714.000;
#SONGFILENAME:Songs/SSSC Pack 2/Evil Sweeper Evolution [Zarkonis]/02 Godspeed - Evil Sweeper Evolution.sm;
#HASMUSIC:1;
#HASBANNER:1;
#MUSICLENGTH:318.667;
// end cache tags

//---------------dance-single - Zarkonis----------------
#NOTES:
     dance-single:
     Zarkonis:
     Challenge:
     15:
     1.000,1.000,0.408,0.421,1.000,2546.000,130.000,134.000,2.000,0.000:

0000
0000
0000
0000
,
0000
0000
0000
0000
0000
0000
2001
3100
0010
0001
1000
0100
,
0010
0000
0100
0000
1000
0000
0002
0000
2000
3003
0000
0000
1002
0000
0013
0000
0100
0000
1000
0000
0001
0000
0010
0000
,
0100
0000
0010
0000
0001
0000
0200
0000
0020
0330
0000
0000
2001
0000
3100
0000
0010
0000
0001
0000
1000
0000
0100
0000
,
0010
0100
1000
0010
0100
0001
1000
0010
1000
0001
0100
0001
,
1000
0100
1000
0001
0000
0000
2001
3001
0100
0010
1000
0100
,
0010
0000
0001
0000
1000
0000
0002
0000
2000
3003
0000
0000
1002
0000
1003
0000
0010
0000
0100
0000
0001
0000
0010
0000
,
0100
0000
1000
0000
0001
0000
0200
0000
0020
0330
0000
0000
1001
0000
0001
0000
0100
0000
0010
0000
1000
0000
0100
0000
,
0010
0000
0001
0000
0010
0000
0100
0000
1000
0000
0001
0000
0010
0100
0010
0100
1000
0001
1000
0001
1000
0010
1000
0010
,
0100
0010
1000
0001
1000
0100
0010
0000
0000
0000
0000
0000
0012
0000
1003
0000
0001
0000
0010
0000
0001
0000
1000
0000
,
0100
0000
0010
0000
0001
0010
0001
0000
0010
0000
0000
0000
2100
0000
3001
0000
0010
0000
0001
0000
1000
0000
0100
0000
,
0010
0000
0100
0000
1000
0001
1000
0000
0001
0000
0000
0000
2001
0000
3010
0000
0100
0000
0001
0000
1000
0000
0100
0000
,
0010
0100
1000
0001
0010
0100
0010
0001
0100
0010
1000
0001
,
1000
0010
0100
0001
0000
0000
1020
0130
0001
0100
0010
1000
,
0100
0000
0010
0000
0001
0000
2000
0000
0002
3003
0000
0000
0102
0000
0103
0000
0010
0000
1000
0000
0001
0000
1000
0000
,
0100
0000
0010
0000
0100
0000
2000
0000
0002
3003
0000
0000
0021
0000
0031
0000
1000
0000
0010
0000
0100
0000
0001
0000
,
0010
0000
0100
0000
0010
0000
0001
0000
1000
0000
0010
0000
0100
0001
0100
0001
1000
0010
1000
0010
1000
0001
1000
0001
,
0010
0100
1000
1100
0000
0000
2010
3010
0100
0001
0010
0100
,
0010
0000
0001
0000
1000
0000
0002
0000
2000
3003
0000
0000
0102
0000
0103
0000
0010
0000
1000
0000
0100
0000
0010
0000
,
0100
0000
1000
0000
0001
0000
0020
0000
0200
0330
0000
0000
2100
0000
3100
0000
0010
0000
0001
0000
1000
0000
0010
0000
,
0100
0000
0001
0000
1000
0000
0001
0000
0100
0000
0010
0000
1000
0010
1000
0010
0100
0010
0100
0010
0100
0001
0100
0001
,
0010
0001
1000
0001
0100
0010
1000
0000
0000
0000
0000
0000
1002
0000
1003
0000
0100
0000
1000
0000
0010
0000
0100
0000
,
0001
0010
0001
1000
0040
0030
2001
3001
0010
0001
0100
0010
,
1000
0100
0010
0001
0400
0301
0102
0103
0010
1000
0100
0010
,
0100
1000
0001
0010
0100
1000
1001
0000
0000
1010
0000
0000
,
0101
0000
0000
0011
0010
0100
1100
0000
0000
2002
0000
0000
,
0000
3003
0101
2002
,
0000
0000
0000
3003
0000
0000
1000
0000
0010
0000
0100
0000
0001
0000
0000
0000
0000
0000
0022
0000
0000
0000
0000
0000
,
0000
0000
0033
0000
2200
3300
2002
0003
,
3001
0010
0001
0100
0010
1000
0100
0100
0100
1000
1000
1000
,
0010
0010
0010
0100
0100
0100
0001
0001
0001
0010
0010
0010
,
0100
0100
0100
1000
1000
1000
1010
0010
0010
0110
0100
0100
,
0101
0001
0001
0011
0010
0010
0110
0100
0100
1100
1000
1000
,
1001
0000
0001
0000
0001
0000
1001
0000
0000
0000
1010
0000
1000
0100
0010
0001
1000
0001
1000
0010
0100
0010
1000
0001
,
1000
0100
0010
0001
1000
0001
1000
0010
0100
0010
1000
0001
1000
0100
0010
0001
1000
0001
1000
0100
0010
0100
1000
0001
,
1000
0010
0100
0001
1000
0001
1000
0010
0100
0010
1000
0001
1000
0010
0100
0001
1000
0001
1000
0100
0010
0100
1000
0001
,
1000
0010
0100
0001
1000
0001
1000
0100
0010
0100
1000
0001
1000
0010
0100
0001
1000
0001
1000
0010
0100
0010
1000
0001
,
0010
0100
0010
0100
1000
0001
1000
0001
0100
0001
0100
0001
0020
0031
0100
0001
,
2000
0000
0000
3001
0000
0000
0100
0000
0000
0001
0000
0000
0020
0000
0000
0031
0000
0000
0100
0000
0000
0001
0000
0000
1000
0000
0100
0000
0010
0000
0001
0000
0010
0000
0100
0000
1000
0000
0001
0000
0100
0000
0001
0000
1000
0000
0001
0000
,
1000
0000
0100
0000
0010
0000
0001
0000
0010
0000
0100
0000
1000
0000
0001
0000
0100
0000
0001
0000
1000
0000
0100
0000
1000
0000
0000
0100
0000
0000
0010
0000
0000
0001
0000
0000
0200
0000
0000
0301
0000
0000
0010
0000
0000
0001
0000
0000
,
2000
0000
0000
3001
0000
0000
0010
0000
0000
0001
0000
0000
0200
0000
0000
0301
0000
0000
0010
0000
0000
0001
0000
0000
1000
0000
0010
0000
0100
0000
0001
0000
0100
0000
0010
0000
1000
0000
0001
0000
0010
0000
0001
0000
1000
0000
0001
0000
,
1000
0010
0100
0001
0100
0010
1000
0001
0010
0001
1000
0001
1000
0010
0100
0001
1000
0001
1000
0100
0010
0100
1000
0001
,
1000
0010
0100
0010
1000
0001
1000
0100
0010
0100
1000
0001
1000
0010
0100
0001
0100
0010
1000
0100
0010
0001
0010
0100
,
1000
0010
0100
0001
0100
0010
2000
0000
0000
3000
0000
0000
0001
0010
0100
0010
0001
1000
0001
0100
0010
0100
0001
1000
,
0001
0010
0100
1000
0100
0010
0001
0100
0010
0100
0001
1000
0001
0010
0100
1000
0100
0010
0001
0100
0010
1000
0010
0100
,
0001
1000
1000
0001
0010
0010
0100
1000
0001
0010
0100
1000
0020
1030
0100
1000
,
0002
0000
0000
1003
0000
0000
0100
0000
0000
1000
0000
0000
0020
0000
0000
1030
0000
0000
0100
0000
0000
1000
0000
0000
0001
0000
0010
0000
0100
0000
1000
0000
0100
0000
0010
0000
0001
0000
1000
0000
0010
0000
1000
0000
0001
0000
1000
0000
,
0001
0000
0010
0000
0100
0000
1000
0000
0100
0000
0010
0000
0001
0000
1000
0000
0010
0000
1000
0000
0001
0000
1000
0000
0001
0000
0000
0100
0000
0000
0001
0000
0000
0100
0000
0000
2000
0000
0000
3100
0000
0000
0001
0000
0000
0100
0000
0000
,
0020
0000
0000
0130
0000
0000
0001
0000
0000
0100
0000
0000
2000
0000
0000
3100
0000
0000
0001
0000
0000
0100
0000
0000
0001
0000
0100
0000
0010
0000
1000
0000
0010
0000
0100
0000
0001
0000
1000
0000
0100
0000
1000
0000
0001
0000
1000
0000
,
0001
0100
0010
1000
0010
0100
0001
1000
0100
1000
0001
1000
0001
0100
0010
1000
0001
1000
0001
0010
0100
0010
0001
1000
,
0001
0100
0010
0100
0001
1000
0001
0010
0100
0010
0001
1000
0001
0100
0010
1000
0010
0100
0001
0010
0100
1000
0100
0010
,
0001
0100
0010
1000
0010
0100
0002
0000
0000
0003
0000
0000
1000
0100
0010
0100
1000
0001
1000
0010
0100
0010
1000
0001
,
1000
0100
0010
0001
0010
0100
1000
0010
0100
0010
1000
0001
1000
0100
0010
0001
0010
0100
1000
0010
0100
0001
0100
0010
,
1000
0001
1000
0001
0010
0100
0010
0100
1100
0000
0001
0000
0101
0000
0000
1000
,
0010
0000
0000
0100
0000
0000
0001
0000
0000
0000
0000
0000
0010
0000
0000
0001
0000
0000
0000
0000
0000
0100
0000
0000
0000
0000
0000
0001
0000
0000
0010
0000
0100
0000
1000
0000
0001
0000
0000
0100
0000
0000
0000
0000
0000
0010
0000
0000
,
1000
0000
0100
0000
0010
0000
0001
0000
1000
0000
0100
0000
0010
0000
0001
0000
1000
0000
0010
0000
0100
0000
0001
0000
1000
0000
0000
0100
0000
0000
0010
0000
0000
0001
0000
0000
0100
0000
0000
0001
0000
0000
1000
0000
0000
0100
0000
0000
,
0010
0001
0100
0001
1000
0100
0010
0001
0100
0010
1000
0100
0010
0001
0100
0010
,
1010
0000
0000
1001
0000
0000
0011
0000
1100
0100
0010
0001
0100
0010
1000
0100
,
0010
0001
0100
0010
1000
0010
0100
0001
1000
0010
1000
0001
0010
0001
1000
0001
,
1001
0000
0000
1100
0000
0000
1001
0000
0101
0100
0010
1000
0001
0010
0001
0100
,
0010
1000
0001
0010
0001
0100
0010
1000
0100
1000
0010
0100
0001
0010
0100
0010
,
0011
0000
0000
0000
0000
0000
0101
0000
0000
0000
0000
0000
1010
0000
0000
0000
0000
0000
1100
0000
0000
0000
0000
0000
1001
0000
0000
1000
0000
0000
0100
0000
0000
0010
0000
0000
0001
0000
0000
0100
0000
0000
0001
0000
0010
0000
0100
0000
,
1000
0000
0010
0000
0100
0000
0001
0000
0000
1000
0000
0000
0001
0000
0000
0010
0000
0000
0100
0000
0000
1000
0000
0000
0010
0000
0000
0100
0000
0000
0001
0000
0000
1000
0000
0000
0100
0000
0000
1000
0000
0000
0010
0000
0000
0100
0000
0000
,
0001
0010
0001
0010
0100
1000
0100
1000
1001
0001
1000
0100
1000
0010
0100
0001
,
0010
0001
0100
0010
1000
0100
0010
0001
1000
0010
1000
0001
1000
0100
1000
0010
,
1010
0000
0000
0101
0000
0000
0011
0000
1100
0100
0010
0001
0010
0100
1000
0100
,
0010
0001
0010
0100
1000
0100
0010
0100
1000
0001
0100
0001
0010
0001
1000
0001
,
1001
0000
0000
0011
0000
0000
0101
0000
0110
0010
1000
0010
0100
0001
0010
0001
,
0100
0010
1000
0010
0100
0001
0010
0100
0010
0001
1000
0001
0010
0001
0100
0010
,
1010
0000
0000
0000
0000
0000
1100
0000
0000
0000
0000
0000
0011
0000
0000
0000
0000
0000
0101
0000
0000
0000
0000
0000
1001
0000
0000
0001
0000
0000
0010
0000
0000
0100
0000
0000
1000
0000
0000
0010
0000
0000
0100
0000
0001
0000
1000
0000
,
0100
0000
0010
0000
0001
0000
1000
0000
0000
0010
0000
0000
0100
0000
0000
0001
0000
0000
0010
0000
0000
0001
0000
0000
0010
0000
0000
0100
0000
0000
1000
0000
0000
0010
0000
0000
0100
0000
0000
0001
0000
0000
1000
0000
0000
0010
0000
0000
,
0100
0000
0000
0000
0000
0000
0010
0000
0000
0000
0000
0000
0100
0000
0010
0000
0100
0000
0010
0000
0000
0000
0000
0000
1000
0000
0000
0100
0000
0000
0010
0000
0000
0001
0000
0000
0100
0000
0000
0001
0000
0000
0010
0000
0000
0001
0000
0000
,
1000
0010
0100
0001
0010
0001
0100
0001
0010
0100
1000
0010
0100
0001
0100
0010
,
1000
0100
0010
0001
0100
0010
1000
0001
0200
0000
0301
0100
0010
1000
0100
1000
,
0001
0010
0100
1000
0001
0100
0010
0100
0001
1000
0100
0010
0100
1000
0001
1000
,
0004
0010
0000
0100
0000
1000
0000
0103
0020
0000
1030
0001
1000
0100
0010
0200
,
0000
0310
0001
0100
0010
1000
0100
0010
0001
0100
0010
0100
0001
1000
0100
1000
,
0001
0010
0100
0010
0001
1000
0010
0100
0002
0000
1003
0001
0010
0001
0100
0001
,
1000
0100
0010
0001
0100
0001
0010
0001
0100
0010
1000
0001
0100
0010
1000
0100
,
2000
0000
0000
0000
0000
0000
0000
0000
3020
1030
0100
1000
0002
1003
0100
1000
,
0020
0000
0000
1030
0000
0000
0100
0000
0000
1000
0000
0000
0002
0000
0000
1003
0000
0000
0100
0000
0000
1000
0000
0000
0001
0000
0100
0000
0010
0000
1000
0000
0010
0000
0100
0000
0001
0000
0010
0000
0100
0000
0010
0000
0001
0000
1000
0000
,
0001
0000
0100
0000
0010
0000
1000
0000
0010
0000
0100
0000
0001
0000
0010
0000
0100
0000
0010
0000
0001
0000
1000
0000
0001
0000
0000
0100
0000
0000
0001
0000
0000
0100
0000
0000
2000
0000
0000
3100
0000
0000
0001
0000
0000
0100
0000
0000
,
0020
0000
0000
0130
0000
0000
0001
0000
0000
0100
0000
0000
2000
0000
0000
3100
0000
0000
0010
0000
0000
0100
0000
0000
0001
0000
0010
0000
0100
0000
1000
0000
0001
0000
1000
0000
0001
0000
0100
0000
0010
0000
0100
0000
0001
0000
1000
0000
,
0001
0010
0100
1000
0100
0010
0001
0100
0010
0100
0001
1000
0001
0100
0010
1000
0001
1000
0001
0010
0100
0010
0001
1000
,
0001
0100
0010
0100
0001
1000
0001
0010
0100
0010
0001
1000
0001
0100
0010
1000
0010
0100
0001
0010
0100
1000
0100
0010
,
0001
0100
0010
1000
0010
0100
0002
0000
0000
0003
0000
0000
1000
0100
0010
0100
1000
0001
1000
0010
0100
0010
1000
0001
,
1000
0100
0010
0001
0010
0100
1000
0010
0100
0010
1000
0001
1000
0100
0010
0001
0010
0100
1000
0010
0100
0001
0100
0010
,
1000
0010
0100
0001
0010
0001
0100
0010
0100
0001
1000
0001
0020
0031
0100
0001
,
2000
0000
0000
3001
0000
0000
0100
0000
0000
0001
0000
0000
0020
0000
0000
0031
0000
0000
0100
0000
0000
0001
0000
0000
1000
0000
0100
0000
0010
0000
0001
0000
0010
0000
0100
0000
1000
0000
0001
0000
0100
0000
0001
0000
1000
0000
0001
0000
,
1000
0000
0100
0000
0010
0000
0001
0000
0010
0000
0100
0000
1000
0000
0001
0000
0100
0000
0001
0000
1000
0000
0001
0000
1000
0000
0000
0100
0000
0000
1000
0000
0000
0100
0000
0000
0020
0000
0000
0130
0000
0000
1000
0000
0000
0100
0000
0000
,
0002
0000
0000
0103
0000
0000
0010
0000
0000
0100
0000
0000
2000
0000
0000
3010
0000
0000
0100
0000
0000
0010
0000
0000
1000
0000
0010
0000
0100
0000
0001
0000
0100
0000
0010
0000
1000
0000
0001
0000
0010
0000
0001
0000
1000
0000
0001
0000
,
1000
0010
0100
0001
0100
0010
1000
0001
0010
0001
1000
0001
1000
0010
0100
0001
1000
0001
1000
0100
0010
0100
1000
0001
,
1000
0010
0100
0010
1000
0001
1000
0100
0010
0100
1000
0001
1000
0010
0100
0001
0100
0010
1000
0100
0010
0001
0010
0100
,
1000
0010
0100
0001
0100
0010
2000
0000
0000
3000
0000
0000
0001
0010
0100
0010
0001
1000
0001
0100
0010
0100
0001
1000
,
0001
0010
0100
1000
0100
0010
0001
0100
0010
0100
0001
1000
0001
0010
0100
1000
0100
0010
0001
0100
0010
1000
0010
0100
,
0001
0010
0100
1000
1001
0000
0000
0000
0001
0100
0010
1000
0100
1000
0010
1000
,
0001
0010
0100
1000
0010
1000
0100
1000
0010
0100
0001
0010
0100
1000
0100
0010
,
0001
0100
0010
1000
0100
0010
0001
1000
0200
0000
1300
0100
0010
0001
0100
0001
,
1000
0010
0100
0001
1000
0100
0010
0100
1000
0001
0100
0010
0100
0001
1000
0001
,
2000
0000
3010
0100
0001
0010
0100
1000
0020
0000
1030
0001
1000
0100
0010
0200
,
0000
0310
0001
0100
0010
1000
0100
0010
0001
0100
0010
0100
0001
1000
0100
1000
,
0001
0010
0100
0010
0001
1000
0010
0100
0002
0000
1003
0001
0010
0001
0100
0001
,
1000
0100
0010
0001
0100
0001
0010
0001
0100
0010
1000
0001
0100
0010
1000
0100
,
0010
0000
0000
0001
0000
0000
0010
0000
0000
0001
0000
0000
1000
0000
0000
0100
0000
0000
1000
0000
0000
0100
0000
0000
1000
0000
0100
0000
0010
0000
0001
0000
1000
0000
0010
0000
1000
0000
0000
0010
0000
0000
0100
0000
0000
0001
0000
0000
,
0020
0000
0000
0000
0000
0000
0031
0100
0201
0000
0000
0000
0000
0000
0000
0000
,
0000
0320
0000
0000
0000
0030
1000
0000
2200
0000
0000
0000
0300
0000
3100
0010
,
0001
0020
0000
0000
0000
0000
0031
1000
2020
0000
3000
0000
0130
0010
1000
0010
,
0100
0000
0000
0000
0000
0000
0001
0000
0010
0000
0100
0000
1000
0000
0000
0000
0000
0000
0100
0000
0000
0000
0000
0000
1000
0000
0000
0100
0000
0000
1000
0000
0000
0010
0000
0000
0100
0000
0000
0001
0000
0000
0010
0000
0000
0001
0000
0000
,
1000
0000
0001
0000
0010
0000
0001
0000
0100
0000
0010
0000
1000
0000
0001
0000
0020
0000
0000
0000
0000
0000
0000
0000
0031
0000
1000
0000
0001
0010
0100
1000
,
0002
0000
0000
0000
0003
0000
1000
0010
1010
0000
0001
0100
0101
0000
0001
1000
,
2002
0000
3003
0000
0000
0000
0001
0010
0011
0000
1000
0100
1100
0000
0001
1000
,
2002
3003
0000
0000
1001
2001
0010
0000
,
0001
0000
3100
1000
0100
0000
0000
0000
1100
0000
0011
0000
0001
0100
0001
0000
,
0000
0000
0000
0000
1000
0000
0000
0000
0100
0000
0000
0000
0010
0000
0000
0000
0001
0010
0001
0010
0001
0000
0000
0000
0100
0000
0000
0000
0010
0000
0000
0000
,
1000
0000
0000
0000
0000
0000
0010
0000
0000
0000
0000
0000
1000
0000
0000
0000
0000
0000
0010
0000
0000
0000
0000
0000
1000
0000
0000
0000
0000
0000
0000
0000
0000
0000
0000
0000
0000
0000
0000
0000
0000
0000
0000
0000
0000
0000
0000
0000
0100
0000
0000
0000
0000
0000
0000
0000
0000
0000
0000
0000
0000
0000
0000
0000
0000
0000
0000
0000
0000
0000
0000
0000
1000
0000
0000
0000
0000
0000
0000
0000
0010
0000
0000
0000
0000
0000
0000
0000
0100
0000
0000
0000
0000
0000
0000
0000
0001
0000
0000
0000
0000
0000
1000
0000
0000
0000
0000
0000
0001
0000
0000
0000
0000
0000
1000
0000
0000
0000
0000
0000
0001
0000
0000
0000
0000
0000
0000
0000
0000
0000
0000
0000
0000
0000
0000
0000
0000
0000
0000
0000
0000
0000
0000
0000
0010
0000
0000
0000
0000
0000
0000
0000
0000
0000
0000
0000
0000
0000
0000
0000
0000
0000
0000
0000
0000
0000
0000
0000
0001
0000
0000
0000
0000
0000
0000
0000
0000
0000
0000
0000
0000
0000
0000
0000
0000
0000
0000
0000
0000
0000
0000
0000
,
0100
0010
0100
0010
0100
0000
0000
0000
0001
1000
0001
1000
0001
0000
0000
0000
1100
0000
0000
0000
0011
0000
0000
0000
0202
0000
0000
0000
0300
0000
0000
0000
,
1003
0000
0001
1000
0001
0000
0000
0000
1100
0000
0011
0000
0010
0001
0100
0000
,
0000
0000
0000
0000
0000
0000
0000
0000
0000
0000
0000
0000
0000
0000
0000
0000
0000
0000
0000
0000
0000
0000
0000
0000
0001
0000
0000
0000
0000
0000
0000
0000
0000
0000
0000
0000
0000
0000
0000
0000
0000
0000
0000
0000
0000
0000
0000
0000
0010
0000
0000
0000
0000
0000
0000
0000
0000
0000
0000
0000
0000
0000
0000
0000
0000
0000
0000
0000
0000
0000
0000
0000
0100
0000
0000
0000
0000
0000
0000
0000
0000
0000
0000
0000
0000
0000
0000
0000
0000
0000
0000
0000
0000
0000
0000
0000
1000
0000
0000
0000
0000
0000
0100
0000
0000
0000
0000
0000
1000
0000
0000
0000
0000
0000
0100
0000
0000
0000
0000
0000
1000
0000
0000
0000
0000
0000
0000
0000
0000
0000
0000
0000
0000
0000
0000
0000
0000
0000
0000
0000
0000
0000
0000
0000
0100
0000
0000
0000
0000
0000
0000
0000
0000
0000
0000
0000
0000
0000
0000
0000
0000
0000
0000
0000
0000
0000
0000
0000
1000
0000
0000
0000
0000
0000
0000
0000
0001
0000
0000
0000
0000
0000
0000
0000
1000
0000
0000
0000
0000
0000
0000
0000
,
0001
0100
0001
0100
0001
0000
0000
0000
1000
0000
0000
0000
0010
0000
0000
0000
0101
0000
0000
0000
0110
0000
0000
0000
1010
0000
0000
0000
1100
0000
0000
0000
,
1001
0001
0100
0001
1000
0001
0010
0001
1000
0100
0010
0001
1000
0001
0010
0100
,
1000
0001
0100
0010
1000
0010
0100
0001
1000
0100
0010
0001
0100
0001
0010
0100
,
1000
0010
0100
0001
0010
0001
0100
0010
1000
0100
0010
0001
1000
0001
0010
0100
,
1000
0010
0100
0001
1000
0001
0100
0010
1000
0001
0010
0001
0100
0001
0010
0001
,
1000
0100
1000
0010
1000
0100
0010
0001
1000
0001
0100
0001
0010
0100
1000
0001
,
1000
0001
0010
0001
0100
0010
1000
0001
1000
0100
0010
0001
0100
0001
0010
0100
,
1000
0010
0100
0001
0010
0001
1000
0010
0200
0000
0000
0000
0000
0000
0310
0000
,
2000
0000
3100
0010
0002
0000
0013
0001
,
1000
0010
0100
0001
1000
0001
1000
0001
1000
0100
0010
0001
1000
0001
0010
0100
,
1000
0010
0100
0001
1000
0001
0100
0010
1000
0100
0010
0001
1000
0010
0100
0010
,
1000
0100
0010
0001
0100
0010
0100
0001
1000
0010
0100
0001
0010
0100
0010
0001
,
1000
0010
0100
0001
1000
0100
0010
0100
1000
0010
0100
0001
0010
0001
0100
0010
,
1000
0000
0000
0100
0000
0000
0010
0000
0000
0001
0000
0000
0100
0000
0000
0001
0000
0000
0010
0000
0000
0100
0000
0000
1000
0000
0100
0000
0010
0000
0001
0000
0010
0000
0100
0000
1000
0000
0001
0000
0100
0000
0001
0000
1000
0000
0001
0000
,
1000
0100
0010
0001
0010
0100
1000
0001
0100
0001
1000
0001
1000
0010
0100
0001
0100
0010
1000
0001
0010
0001
1000
0001
,
1000
0000
0010
0000
0100
0000
0001
0000
0100
0000
0010
0000
1000
0000
0001
0000
0010
0000
0100
0000
0000
0010
0000
0000
0002
0000
0000
0000
0000
0000
0000
0000
0000
0000
0000
0000
0003
0000
0000
0000
0000
0000
1000
0000
0000
0000
0000
0000
,
0020
0000
0000
0030
0100
0000
0001
0000
2000
0000
0000
3000
0100
0000
0010
0000
,
0001
0010
0100
1000
0010
0100
0001
1000
2001
0000
0000
0000
0000
0000
3020
0000
,
0230
0000
0000
0000
0000
0000
0000
0000
0000
0000
0000
0000
0000
0000
0000
0000
0000
0000
0301
0000
0000
0010
0000
0000
0100
0000
0000
0000
1000
0000
0000
0000
0010
0000
0000
0000
0100
0000
0000
0000
0001
0000
0000
0000
0010
0000
0000
0000
,
0001
0000
0000
0000
1000
0000
0000
0000
0010
0000
0000
0000
0200
0000
0000
0000
0000
0000
0000
0000
0000
0301
0100
0010
,
2000
0000
0000
0000
0000
0000
0000
0000
0000
0000
0000
0000
0000
0000
0000
0000
0000
0000
3100
0000
0000
0010
0000
0000
0001
0000
0000
0000
1000
0000
0000
0000
0010
0000
0000
0000
0100
0000
0000
0000
0001
0000
0000
0000
0010
0000
0000
0000
,
0011
0000
0001
0000
1001
0000
1000
0000
1010
0000
0010
0000
0210
0000
0000
0000
0000
0000
0300
0000
0000
0001
0000
0000
,
0020
0000
0000
0000
0000
0000
0000
0000
0000
0000
0000
0000
0031
0010
0100
1000
0100
0010
0001
0100
0010
1000
0010
0100
,
0001
0010
0100
1000
0001
0000
0100
0000
0010
0000
1000
0000
0001
0100
0010
1000
0010
0100
0001
0010
0100
1000
0100
0010
,
0001
0000
1000
0000
0010
0000
0100
0000
0010
0000
0100
0000
0001
0000
0000
0010
0000
0000
0100
0000
0000
1000
0000
0000
0010
0000
0000
0100
0000
0000
0001
0000
0000
0010
0000
0000
0001
0000
0000
1000
0000
0000
0100
0000
0000
0010
0000
0000
,
0001
0000
1000
0000
0001
0000
1000
0000
0010
0000
1000
0000
0001
0000
0100
0000
0001
0000
0100
0000
0010
0000
1000
0000
0200
0000
0000
0000
0000
0000
0000
0000
0000
0000
0000
0000
0000
0000
0000
0000
0000
0000
1300
0000
0000
0010
0000
0000
,
0200
0000
0000
0000
0000
0310
0100
0001
0010
0001
1000
0100
,
0010
0000
0000
0000
0001
0000
0000
0000
1000
0000
0000
0000
0020
0000
0000
0000
0000
0000
0000
0000
0000
0130
0000
0000
,
0002
0000
0000
1003
0100
0010
0001
0100
0001
1000
0010
0100
,
0101
0000
0000
0000
0011
0000
0000
0000
1100
0000
0000
0000
2001
0000
0000
0000
0000
0000
0000
0000
0000
3001
0000
0000
,
0020
0000
0000
0000
0000
0000
0000
0000
0031
0100
0010
1000
0100
0010
0001
1000
,
0010
0000
0100
0000
0010
0000
0100
0000
0000
0000
0000
0000
0001
0000
0000
0100
0000
0000
0010
0000
0000
1000
0000
0000
0001
0000
0010
0000
0100
0000
0010
0000
0000
0001
0000
0000
0100
0000
0000
0000
0010
0000
0000
0000
1000
0000
0000
0000
,
0010
0100
0001
0010
0100
1000
0010
0100
0001
0010
0100
1000
0100
0010
0001
1000
,
0001
0010
0001
1000
0010
0100
0001
1000
0100
0010
0001
0010
0100
0000
1000
0000
0100
0000
0010
0000
0100
0000
1000
0000
,
0001
0000
1000
0000
0010
0000
2000
0000
0002
3003
0000
0000
1002
0000
0013
0000
0100
0000
1000
0000
0001
0000
0100
0000
,
0010
0000
0100
0000
0001
0000
2000
0000
0002
3003
0000
0000
2001
0000
3100
0000
0010
0000
0001
0000
1000
0000
0010
0000
,
0100
0010
1000
0100
0010
0001
1000
0010
0010
0100
0001
0001
,
0010
0100
1000
0001
0000
0000
0102
0103
0010
1000
0001
0010
,
0100
0000
1000
0000
0001
0000
2000
0000
0002
3003
0000
0000
2100
0000
3100
0000
0010
0000
0001
0000
1000
0000
0010
0000
,
0100
0001
1000
0002
2000
0000
0000
0000
0000
0000
0000
0000
,
0000
0000
0MM0
0000
,
0000
0000
0000
0000
3003
0000
0000
0000
1001
1000
0010
0100
0001
0010
0001
1000
,
1100
0100
0010
0001
0100
0010
1000
0100
0110
0010
0001
1000
0010
0100
0001
0100
,
0110
0010
0100
0001
0010
0100
1000
0001
0101
0100
0010
1000
0100
0010
0100
1000
,
1100
0100
0010
0001
1000
0010
0100
0001
1001
1000
0100
1000
0001
0100
0010
1000
,
0001
0000
0100
0000
0010
1000
0100
0010
0011
0001
1000
1010
0010
0100
0001
1000
,
1100
0100
0010
0011
0001
1000
0010
0100
0110
0010
1000
1001
0001
0010
0100
1000
,
1100
0100
1000
1001
0001
0100
0010
1000
1001
0001
0010
0110
0100
1000
0001
0100
,
0110
0010
1000
1010
0010
0100
0001
0010
0011
0001
1000
0010
0100
0001
1000
0100
,
0010
0000
0000
0001
0000
0000
1000
0000
0000
0001
0000
0000
1000
0000
0010
0000
0100
0000
0001
0000
0100
0000
0010
0000
1000
0000
0000
0100
0000
0000
0010
0000
0000
0001
0000
0000
1000
0000
0000
0010
0000
0000
0100
0000
0000
0010
0000
0000
,
1000
0100
0010
0001
0100
0010
0100
0001
1000
0100
1000
0001
0100
0010
0100
0001
,
1000
0100
1000
0001
0100
0010
0100
0001
0020
0000
0130
1000
0010
0100
0001
0010
,
0100
1000
0010
0100
0010
1000
0100
0010
0001
0010
0100
1000
0001
0100
0010
1000
,
0010
0000
0000
0100
0000
0000
0001
0000
0000
0010
0000
0000
0001
0000
0010
0000
0100
0000
1000
0000
0001
0000
0010
0000
0001
0000
0000
0010
0000
0000
0100
0000
0000
1000
0000
0000
0001
0000
0000
0100
0000
0000
0010
0000
0000
0100
0000
0000
,
0001
0010
0100
1000
0010
0100
0010
1000
0001
0010
0001
1000
0010
0100
0010
1000
,
0001
0010
0001
1000
0010
0100
0010
1000
0200
0000
0310
0001
0100
0010
1000
0100
,
0010
0001
0100
0010
0100
0001
0010
0100
1000
0001
1000
0001
0010
0100
0010
0100
,
1000
0000
0000
0001
0000
0000
1000
0000
0000
0001
0000
0000
0100
0000
0001
0000
0100
0000
0010
0000
1000
0000
0010
0000
0100
0000
0000
0001
0000
0000
1000
0000
0000
0100
0000
0000
0010
0000
0000
0001
0000
0000
1000
0000
0000
0010
0000
0000
,
0110
0100
0001
0010
0001
0010
0100
1000
1001
0001
0100
0010
1000
0100
0010
0001
,
1000
0001
1000
0001
0000
0000
0010
0100
0010
0100
0000
0000
2002
0000
0000
0000
0000
0000
0000
0000
0000
0000
0000
0000
,
0000
0000
3003
0000
;
