#TITLE:What a Horrible Night to Have a Curse;
#SUBTITLE:;
#ARTIST:The Black Dahlia Murder;
#TITLETRANSLIT:;
#SUBTITLETRANSLIT:;
#ARTISTTRANSLIT:;
#CREDIT:;
#BANNER:Horrible Night - bn.png;
#BACKGROUND:Horrible Night - bg.png;
#LYRICSPATH:;
#CDTITLE:;
#MUSIC:What a Horrible Night to Have a Curse.ogg;
#OFFSET:-0.012;
#SAMPLESTART:80.760;
#SAMPLELENGTH:12.000;
#SELECTABLE:YES;
#BPMS:0.000=215.980;
#STOPS:;
#BGCHANGES:;
// cache tags:
#FIRSTBEAT:24.000;
#LASTBEAT:821.500;
#SONGFILENAME:Songs/Beast Aoreo BEAST! 2/What a Horrible Night to Have a Curse - [Aoreo]/What a Horrible Night to Have a Curse.sm;
#HASMUSIC:1;
#HASBANNER:1;
#MUSICLENGTH:229.166;
// end cache tags

//---------------dance-single - J. Nero----------------
#NOTES:
     dance-single:
     J. Nero:
     Challenge:
     16:
     1.000,1.000,0.118,0.449,1.000,2370.000,27.000,103.000,0.000,0.000:
0000
0000
0000
0000
,
0000
0000
0000
0000
,
0000
0000
0000
0000
,
0000
0000
0000
0000
,
0000
0000
0000
0000
,
0000
0000
0000
0000
,
1000
0001
1000
0000
0001
0100
0001
0000
0000
0000
0000
0000
0100
0010
0100
0000
,
0010
1000
0010
0000
2000
0000
3001
0000
0100
0001
0100
0000
0010
1000
0010
0000
,
2000
0000
3001
0000
0010
0001
0010
0000
0100
1000
0100
0000
2000
0000
3001
0000
,
0100
0001
0100
0000
0010
0100
0010
0000
2000
0000
3100
0000
0020
0000
0130
0000
,
2000
0000
3001
0000
0200
0000
0301
0000
1000
0001
0100
0000
0001
1000
0001
0000
,
0200
0000
0310
0000
0100
0001
1000
0000
0001
1000
0001
0000
2000
0000
3100
0000
,
1000
0001
0100
0000
0010
0100
0001
0000
1000
0001
1000
0000
0010
0100
0001
0000
,
1000
0001
1000
0000
0002
0000
0103
0000
0001
1000
0001
0000
1000
0100
1000
0000
,
0020
0000
0130
0000
0001
1000
0001
0000
1000
0010
0100
0000
0002
0000
0013
0000
,
0100
1000
0010
0000
0100
0001
0100
0000
0002
0000
1003
0000
0200
0000
1300
0000
,
0020
0000
0130
0000
0002
0000
1003
0000
0001
0010
0100
0000
1000
0010
1000
0000
,
0020
0000
0130
0000
0001
1000
0100
0000
1000
0001
1000
0000
0002
0000
0103
0000
,
0010
1000
0010
0000
0100
0001
1000
0000
0001
0100
0001
0000
0100
0010
1000
0000
,
0010
0100
0001
0000
0010
0100
0010
0000
0100
1000
0001
0000
2000
0000
3001
0000
,
0100
0001
1000
0000
0001
0100
0001
0000
0200
0000
0310
0000
1000
0010
0100
0000
,
0001
0010
0100
0000
2000
0000
3010
0000
0200
0000
0301
0000
0020
0000
0031
0000
,
2000
0000
3001
0000
0100
0001
0010
0000
0100
1000
0100
0000
2000
0000
3001
0000
,
0100
0001
0010
0000
0001
1000
0100
0000
2000
0000
3001
0000
0100
0001
0100
0000
,
0010
1000
0010
0000
2000
0000
3001
0000
0100
0001
0100
0010
1000
0001
0010
0100
,
1000
0010
0100
0001
2000
0000
3001
0000
0100
0010
0100
0000
0001
1000
0001
0000
,
2000
0000
3001
0000
0010
0100
1000
0000
0100
1000
0001
0000
0200
0000
0301
0000
,
1000
0010
0100
0000
0001
0100
0010
0000
0000
0000
0000
0000
0100
0001
1000
0000
,
0001
0100
0010
0000
0200
0000
0301
0000
1000
0001
0100
0000
0001
0100
0001
0000
,
2000
0000
3001
0000
0100
0001
1000
0000
0001
1000
0001
0000
0200
0000
0301
0000
,
0010
0100
0010
0000
0100
1000
0100
0000
2000
0000
3200
0000
0320
0000
0032
0000
,
0203
0000
0320
0000
2030
0000
3010
0000
0100
0001
0100
0000
0001
1000
0001
0000
,
2000
0000
3001
0000
0100
0001
1000
0000
0001
0100
0001
0000
0200
0000
0301
0000
,
0010
0100
1000
0000
0100
1000
0001
0000
0100
0001
0100
0000
0001
1000
0001
0000
,
1000
0100
1000
0000
0010
0100
0010
0000
0100
0001
1000
0000
0002
0000
0013
0000
,
0100
1000
0100
0000
1000
0001
1000
0000
0002
0000
0100
0003
0010
1000
0010
0000
,
0100
0010
0100
0000
0001
0000
0100
0000
0010
0100
0010
1000
0001
1000
0001
0010
,
0100
1000
0001
1000
0001
0000
0000
0000
1000
0001
1000
0010
0100
0001
0100
0001
,
1000
0100
0010
0100
0010
0001
1000
0100
0010
0001
0010
0001
1000
0100
1000
0001
,
0100
0010
0100
0001
1000
0010
1000
0001
0100
0010
0100
0001
1000
0001
0100
0010
,
1000
0001
0100
0010
0100
0001
1000
0100
1000
0001
0100
0010
0100
0001
1000
0001
,
1000
0010
0100
0001
0100
0001
1000
0100
0010
0001
1000
0001
1000
0000
0000
0000
,
0001
0100
0001
0100
0010
1000
0001
0100
0010
1000
0010
0100
0001
0000
0000
0000
,
1000
0100
1000
0001
0100
0000
0000
0000
0001
0100
0010
0100
0001
1000
0001
1000
,
0001
0010
0100
1000
0001
1000
0010
0100
0001
1000
0001
1000
0100
0010
0100
0010
,
0001
1000
0100
0010
0001
1000
0001
1000
0001
0100
0010
0100
0001
1000
0010
1000
,
0010
0100
0001
0100
0001
1000
0010
1000
0010
0100
0001
0100
0001
1000
0001
1000
,
0100
0010
0001
1000
0010
1000
0001
0010
0100
1000
0001
1000
0001
0000
0000
0000
,
1000
0100
1000
0010
0100
0001
1000
0001
0100
0010
1000
0001
1000
0100
0010
0001
,
1000
0100
1000
0001
0200
0000
0310
0000
0100
0001
0100
0000
0001
1000
0001
0000
,
2000
0000
3001
0000
0100
0001
1000
0000
0001
0100
0001
0000
0200
0000
0301
0000
,
0010
0100
1000
0000
0100
1000
0100
0000
1000
0001
0100
0000
0010
0100
0001
0000
,
1000
0001
1000
0000
0002
0000
1003
0000
0010
0100
0010
0000
1000
0001
0100
0000
,
0002
0000
1003
0000
0010
1000
0010
0000
0100
0001
1000
0000
0002
0000
1003
0000
,
0001
1000
0100
0000
1000
0001
0100
0000
0000
0000
0000
0000
0001
1000
0100
0000
,
1000
0001
0100
0000
0002
0000
1003
0000
0100
1000
0001
0000
0100
0001
0100
0000
,
0002
0000
1003
0000
0001
0100
0010
0000
1000
0001
1000
0000
0002
0000
0103
0000
,
0001
1000
0010
0000
0100
0001
0100
0000
0002
0000
1003
0000
0001
0100
0001
0000
,
1000
0010
0100
0000
0002
0000
1003
0000
0100
1000
0100
0000
1000
0001
0100
0000
,
0020
0000
0130
0000
0001
0010
0001
0000
1000
0010
0100
0000
0002
0000
1003
0000
,
0010
1000
0001
0000
1000
0001
0010
0000
0000
0000
0000
0000
0001
1000
0001
0000
,
0100
0001
0100
0000
0010
1000
0001
0000
0100
0001
0100
0000
0002
0000
1003
0000
,
0100
1000
0001
0000
0100
0001
0100
0000
0002
0000
1003
0000
0010
0100
0001
0000
,
1000
0001
0100
0000
0020
0000
0130
0000
0002
0000
1003
0000
0200
0000
1300
0000
,
0020
0000
0130
0000
0001
0100
0010
0000
0100
0001
1000
0000
0002
0000
1003
0000
,
0001
0100
0010
0000
1000
0001
0100
0000
0002
0000
1003
0000
0001
0100
0010
0000
,
1000
0001
1000
0000
0002
0000
0003
0000
0100
0001
0100
0001
1000
0010
0100
0001
,
1000
0001
1000
0010
0100
0010
0100
0000
0001
1000
0001
0000
0200
0000
0310
0000
,
1000
0001
1000
0000
0001
0100
0010
0000
0200
0000
0301
0000
0010
0001
0010
0000
,
0100
0010
0100
0000
2000
0000
3010
0000
0200
0000
0301
0000
0020
0000
0031
0000
,
2000
0000
3001
0000
0100
0001
1000
0000
0001
1000
0001
0000
2000
0000
3010
0000
,
0100
0001
1000
0000
0001
0100
0010
0000
0200
0000
0301
0000
1000
0001
1000
0000
,
0100
1000
0100
0000
2000
0000
3001
0000
0100
0001
0100
0010
1000
0001
1000
0001
,
0100
0010
0100
0001
1000
0000
0001
0000
0010
0000
0100
0000
1000
0000
0010
0000
,
0110
0100
0001
1000
0100
1000
0010
0100
,
0001
0010
0100
1000
1001
0001
0100
0010
,
1000
0100
0010
0001
0010
0100
1000
0001
,
0101
0100
0010
1000
0100
0010
0001
0100
,
0001
0000
1000
0000
0100
0000
1000
0000
0010
0000
0100
0000
0001
0100
0001
0100
,
0001
0100
0010
1000
0100
0010
0001
0100
,
0101
0001
1000
0100
1000
0010
0100
0001
,
0010
0100
1000
0010
0110
0100
0001
1000
,
0100
0010
0001
0100
0010
1000
0100
1000
,
1001
0001
0100
0010
0100
0001
0010
0100
,
1000
0000
0010
0000
0100
0000
0001
0000
1000
0001
1000
0000
0001
0000
0100
0000
,
0010
1000
0001
0010
0100
1000
0010
1000
,
1001
0001
0100
0001
0010
0100
1000
0100
,
0010
0000
0001
0000
0010
0000
0001
0000
1001
0000
1000
0100
1000
0000
0010
0000
,
0100
0001
0010
0100
1000
0010
0100
0010
,
0110
0100
0001
0010
0100
1000
0010
0100
,
0001
0000
1000
0000
0001
0000
0100
0000
0101
0000
0001
0000
1000
0100
1000
0100
,
1000
0100
0010
0001
1000
0010
0100
0001
,
0011
0010
0100
1000
0010
0100
0001
1000
,
0001
0100
0010
1000
1010
0010
0100
0001
,
0010
0100
1000
0010
0100
0001
1000
0010
,
0110
0100
0001
0010
0100
1000
0010
0100
,
0010
1000
0010
0000
1000
0001
1000
0000
0001
0100
0001
0100
0010
1000
0010
1000
,
0001
0010
0100
1000
0001
1000
0001
1000
0001
1000
0001
1000
0001
1000
0001
1000
,
0001
0100
0001
0100
0001
0100
0001
0100
0001
1000
0010
1000
0010
1000
0100
0010
,
0001
1000
0001
0010
0100
1000
0010
1000
0001
0100
0010
1000
0001
0010
0100
1000
,
0001
0100
0010
1000
0001
1000
0001
1000
0001
1000
0001
1000
0001
1000
0001
1000
,
0100
1000
0100
1000
0100
1000
0100
0010
0001
0010
0001
1000
0001
1000
0010
0100
,
0001
1000
0100
0010
0001
0100
0001
0100
0010
1000
0001
0010
0100
1000
0001
0100
,
0010
0100
0001
1000
0001
0100
0001
0100
0001
0100
0001
0100
0001
0100
0001
0100
,
0001
1000
0001
1000
0001
1000
0001
1000
0001
1000
0100
1000
0100
1000
0010
1000
,
0010
0100
0001
0010
0100
1000
0010
0100
0001
0100
0010
1000
0001
1000
0100
0010
,
0001
0100
0010
1000
0001
1000
0100
0010
0001
1000
0010
1000
0010
0100
0001
0100
,
0001
1000
0010
1000
0001
1000
0100
0010
0001
0010
0100
1000
0100
1000
0001
0100
,
0001
0100
0010
1000
0001
1000
0010
0100
0001
1000
0001
0010
0100
1000
0100
1000
,
0001
1000
0001
1000
0001
0000
1000
0000
0001
0100
0001
1000
0100
1000
0100
0010
,
0001
0010
0001
1000
0010
0100
0010
1000
0001
0100
0001
0100
0010
0100
0001
1000
,
0010
0100
0010
1000
0001
1000
0100
0010
0100
0010
0001
1000
0100
0010
0100
0010
,
0001
1000
0100
1000
0001
0010
0001
0100
0001
0100
0010
1000
0010
1000
0001
0010
,
0001
1000
0001
0010
0100
1000
0001
0010
0001
1000
0100
1000
0001
0100
0001
1000
,
0001
0010
0100
1000
0001
0100
0010
0100
0001
1000
0001
1000
0001
0000
0000
0000
,
0100
0001
0100
0001
0100
0000
0000
0000
0001
0100
0010
0100
0001
1000
0100
1000
,
0001
1000
0100
0010
0001
1000
0001
0100
0010
0100
0001
1000
0010
0100
0010
1000
,
0001
0010
0100
1000
0001
1000
0100
0010
0001
1000
0001
0100
0010
0100
0001
1000
,
0001
1000
0001
0010
0100
1000
0100
1000
0001
0100
0010
0100
0001
0100
0010
0100
,
0001
1000
0001
1000
0100
0010
0001
1000
0100
0010
0100
0010
0001
1000
0100
0010
,
0001
0010
0001
1000
0100
0010
0001
1000
0001
1000
0010
1000
0010
0100
0010
0100
,
0001
1000
0100
1000
0001
0000
0000
0000
0100
0001
1000
0001
1000
0100
0010
0100
,
0010
0001
1000
0001
1000
0100
0010
0001
1000
0001
0010
0100
1000
0001
0100
0010
,
0100
0001
1000
0100
0010
0100
1000
0001
0100
0010
0100
0001
1000
0010
0100
0010
,
1000
0001
1000
0010
0100
0010
1000
0001
1000
0100
1000
0001
0010
0100
1000
0001
,
0010
0100
0010
0100
1000
0001
1000
0100
0010
0100
0010
0001
1000
0001
1000
0010
,
0100
0010
1000
0001
0100
0010
1000
0100
1000
0001
0100
0001
0100
0010
1000
0100
,
1000
0001
0010
0001
0100
0001
1000
0100
1000
0001
0010
0100
1000
0001
1000
0100
,
0010
0001
1000
0100
1000
0001
0100
0001
0100
0010
1000
0010
1000
0001
0100
0010
,
0100
0001
1000
0010
0100
0001
1000
0100
1000
0001
0100
0001
1000
0010
1000
0001
,
0100
0010
0100
0001
1000
0001
0010
0100
1000
0001
0100
0001
1000
0010
1000
0010
,
0100
0001
1000
0010
0100
0001
1000
0010
0100
0010
1000
0001
1000
0001
0100
0001
,
0100
0010
1000
0001
1000
0010
0100
0010
0100
0001
1000
0001
1000
0100
0010
0100
,
1000
0001
0010
0100
1000
0000
0001
0000
1000
0000
0010
0000
0100
0000
0010
0000
,
0110
0100
0001
0010
0100
1000
0010
0100
,
0001
0000
1000
0000
0100
1000
0100
1000
0100
0000
1000
0000
0010
0000
0100
0000
,
0001
0000
0010
0000
0100
0000
1000
0000
0010
0000
0100
0000
0001
0100
0001
0100
,
0001
0100
0010
1000
0100
0010
0100
1000
,
0010
0000
1000
0000
0010
0000
0100
0001
0100
0000
0001
0000
1000
0000
0001
0000
,
1000
0001
1000
0001
1000
0010
0100
0010
1000
0001
1000
0100
0010
0001
0100
0010
,
1000
0010
0100
0001
1000
0010
0100
0001
0010
0100
1000
0100
1000
0001
0100
0001
,
0100
0010
1000
0010
1000
0100
0010
0001
0010
0100
1000
0001
1000
0010
0100
0001
,
0010
0100
1000
0001
1000
0001
0100
0010
0100
0001
1000
0001
0100
0001
0100
0010
,
1000
0001
1000
0100
0010
0001
0100
0010
1000
0010
0100
0001
1000
0010
0100
0001
,
0010
0100
1000
0100
1000
0001
0100
0010
1000
0001
1000
0001
0100
0010
0100
0010
,
1000
0001
1000
0001
0010
0100
0010
0000
0100
1000
0100
0000
2000
0000
3001
0000
,
0100
0001
1000
0000
0001
0100
0010
0000
0200
0000
0301
0000
1000
0001
1000
0000
,
0010
1000
0010
0000
0200
0000
0301
0000
0020
0000
0130
0000
2000
0000
3001
0000
,
0200
0000
0301
0000
1000
0001
1000
0000
0001
0100
0010
0000
0200
0000
0301
0000
,
1000
0001
1000
0000
0010
0100
0001
0000
2000
0000
3010
0000
0100
0001
0100
0000
,
0001
1000
0001
0000
2000
0000
3001
0000
1000
0100
1000
0001
0100
0010
0100
0001
,
1000
0000
0000
0000
0001
1000
0010
1000
0010
0100
0001
1000
0001
0010
0100
1000
,
0010
0100
0010
1000
0001
0100
0010
0100
0001
1000
0001
1000
0100
0010
0001
1000
,
0001
1000
0010
1000
0010
0100
0001
0100
0001
0010
0100
1000
0001
1000
0100
0010
,
0001
1000
0001
1000
0001
0100
0001
0100
0010
1000
0010
0100
0001
0010
0100
1000
,
0100
1000
0010
0100
0001
0100
0001
1000
0010
0100
0001
0010
0100
1000
0100
1000
,
0001
0100
0001
0100
0010
1000
0100
1000
0010
0100
0001
0100
0001
1000
0100
0010
,
0001
1000
0100
0010
0001
0000
1000
0000
0100
0000
0010
0000
0001
0000
0100
0000
,
0110
0010
1000
0001
0010
0001
0010
0100
,
1000
0100
0010
0001
1001
1000
0010
0100
,
0001
0010
0100
1000
0100
0010
0001
1000
,
1010
0010
0100
0001
1000
0010
1000
0001
,
0100
0000
0001
0000
0010
0000
0001
0000
0010
0000
0100
0000
1000
0010
1000
0010
,
1000
0010
0100
0001
0010
0100
1000
0010
,
0110
0100
0001
0010
0100
1000
0010
0100
,
0001
1000
0001
0100
0110
0010
1000
0001
,
0010
0100
1000
0010
0100
0001
0010
0001
,
1001
1000
0010
0100
0010
1000
0100
0010
,
0001
0000
0100
0000
0010
0000
1000
0000
0001
1000
0001
0000
1000
0000
0010
0000
,
0100
0001
1000
0100
0010
0001
0100
0010
,
1010
1000
0001
1000
0100
0010
0001
0010
,
0100
0000
1000
0000
0100
0000
1000
0000
1001
0000
0001
0010
0100
0000
1000
0000
,
0010
1000
0100
0010
0001
0100
0010
0100
,
0110
0010
1000
0100
0010
0001
0100
0010
,
1000
0000
0001
0000
1000
0000
0001
0000
0101
0000
0100
0000
0001
0100
0001
0100
,
0001
0010
0100
1000
0001
0100
0010
1000
,
1100
0100
0010
0001
0100
0010
1000
0001
,
1000
0100
0010
0100
1100
1000
0001
0100
,
0010
0100
0001
0010
0100
1000
0001
0100
,
0110
0010
1000
0100
0010
0001
0100
0010
,
1000
0000
0001
0000
0010
0000
0100
0000
1000
0100
1000
0001
0010
0100
0010
0100
,
1000
0001
0100
0001
1000
0001
1000
0001
1000
0001
1000
0001
1000
0001
1000
0001
,
1000
0100
1000
0100
1000
0100
1000
0100
1000
0001
0100
0001
0100
0001
0010
0100
,
1000
0001
1000
0100
0010
0001
0100
0001
1000
0010
0100
0001
1000
0100
0010
0001
,
1000
0010
0100
0001
1000
0001
1000
0001
1000
0001
1000
0001
1000
0001
1000
0001
,
0100
0001
0100
0001
0100
0001
0100
0010
1000
0001
0100
0010
0100
0001
1000
0010
,
1000
0001
0010
0100
1000
0010
1000
0010
0100
0001
1000
0100
0010
0001
1000
0010
,
0100
0010
1000
0001
1000
0100
1000
0100
1000
0100
1000
0100
1000
0100
1000
0100
,
1000
0001
0100
0001
0100
0001
0100
0001
0100
0001
1000
0001
1000
0010
0100
0010
,
0100
0001
1000
0100
0010
0001
0100
0010
1000
0010
0100
0001
1000
0001
0010
0100
,
1000
0010
0100
0001
1000
0001
0010
0100
1000
0001
0100
0001
0100
0010
1000
0010
,
1000
0001
1000
0001
1000
0001
0010
0100
1000
0100
0010
0001
0010
0001
1000
0010
,
1000
0010
0100
0001
1000
0001
0100
0010
1000
0001
1000
0100
0010
0001
0010
0001
,
1000
0001
1000
0001
2000
0000
3001
0000
0100
0001
0100
0000
0010
1000
0010
0000
,
2000
0000
3001
0000
0100
0001
1000
0000
0001
0100
0010
0000
0200
0000
0301
0000
,
1000
0100
1000
0000
0001
0010
0001
0000
0020
0000
0130
0000
2000
0000
3001
0000
,
0200
0000
0301
0000
2000
0000
3001
0000
1000
0001
1000
0000
0001
0100
0001
0000
,
0200
0000
0301
0000
1000
0001
0100
0000
0001
1000
0100
0000
2000
0000
3010
0000
,
0100
0001
0010
0000
0001
1000
0100
0000
1000
0001
1000
0000
0001
0100
0001
0000
,
0100
0010
0100
0000
0002
0000
1003
0000
0001
0100
0001
0000
1000
0100
1000
0000
,
0002
0000
0103
0000
0010
1000
0001
0000
1000
0001
0100
0000
0002
0000
1003
0000
,
0100
1000
0001
0000
0100
0001
1000
0000
0002
0000
0013
0000
0200
0000
0310
0000
,
0002
0000
1003
0000
0200
0000
1300
0000
0001
0100
0001
0000
1000
0001
0100
0000
,
0002
0000
1003
0000
0010
0100
0001
0000
0010
0001
1000
0000
0002
0000
0103
0000
,
0001
1000
0100
0000
1000
0001
0100
0000
0001
0010
0001
0000
1000
0100
1000
0000
,
0001
0100
0010
0000
0200
0000
0300
0000
0000
0000
0000
0000
0000
0000
0000
0000
;
