#TITLE:A Quick Death;
#SUBTITLE:;
#ARTIST:kkrusty;
#TITLETRANSLIT:;
#SUBTITLETRANSLIT:;
#ARTISTTRANSLIT:;
#CREDIT:;
#BANNER:quickdeath-banner.png;
#BACKGROUND:aqd-bg.png;
#LYRICSPATH:;
#CDTITLE:WC cdtitle.png;
#MUSIC:11.A Quick Death.mp3;
#OFFSET:-0.085;
#SAMPLESTART:100.000;
#SAMPLELENGTH:11.920;
#SELECTABLE:YES;
#BPMS:0.000=62.500,24.000=66.522,25.000=125.000;
#STOPS:;
#BGCHANGES:;
// cache tags:
#FIRSTBEAT:0.000;
#LASTBEAT:286.000;
#SONGFILENAME:Songs/Hard Songs Megapack Volume 9/A Quick Death/A Quick Death.sm;
#HASMUSIC:1;
#HASBANNER:1;
#MUSICLENGTH:150.000;
// end cache tags

//---------------dance-single - ----------------
#NOTES:
     dance-single:
     :
     Hard:
     15:
     1.000,1.000,1.000,0.567,1.000,1367.000,279.000,85.000,0.000,13.000:
0100
0000
0000
0000
0000
0000
0000
0000
0000
0000
1000
0000
0001
0010
0100
1000
,
0100
0000
0000
0000
0000
0000
0000
0000
0000
0000
0000
0000
0001
0100
1000
0000
,
0010
0100
0000
0100
0000
0100
0000
0100
0000
1000
0100
1000
0001
0010
0100
1000
,
0100
0010
0000
0010
0000
0010
0000
0010
0000
0001
0000
0001
0001
0100
1000
0001
,
1010
0010
0000
0010
1100
0010
0000
0010
0110
0100
0010
0100
0001
0010
0100
1000
,
0101
0010
0000
0010
0011
0010
0000
0010
1010
0001
0000
0001
0001
0100
1000
0000
,
0000
0000
0000
0000
0000
0000
0000
0000
1100
0000
0000
0000
0001
0100
0001
0100
1010
0000
0100
0000
1000
0100
1000
0000
0100
0000
0000
0000
0001
0000
0010
0000
,
0101
0000
0010
0000
0001
0100
0001
0000
1000
0000
0010
1000
0010
0000
0100
0000
0011
0000
1000
0100
1000
0000
1000
0000
1000
0000
0011
0000
0010
0000
0100
0000
,
0011
0000
0100
0000
1000
0000
0010
0000
1000
0000
0000
0000
0001
0010
0100
0000
1010
0000
0100
0000
1000
0100
1000
0000
1000
0000
0000
0000
0001
0000
1000
0000
,
0011
0000
0100
0000
0010
0100
1000
0100
0010
0000
1000
0010
1000
0000
0010
0000
0101
0000
1000
0100
0010
0000
0001
0000
1000
0000
0101
0000
1000
0000
0010
0000
,
0101
0000
0001
0000
0010
0000
0100
0000
1000
0000
0000
0000
0010
0001
0100
0010
1100
0000
1000
0000
0001
0010
0001
0000
1000
0000
0010
0000
0001
0000
1000
0000
,
0011
0000
1000
0000
0010
0100
1000
0010
0100
0000
0010
1000
0001
0000
0000
0000
1001
0000
0010
1000
0001
0000
0001
0000
0001
0000
1100
0000
0010
0000
0100
0000
,
1000
0001
0010
0100
1000
0000
0000
0000
1000
0100
0010
0001
1000
0000
0000
0000
0100
0000
0010
0000
0100
0000
0010
0000
0100
0000
0001
0000
1000
0000
0000
0000
1100
0000
0001
0000
1000
0000
0001
0000
1000
0000
0010
0000
0100
0000
0000
0000
0010
0000
0100
0000
0010
0000
0100
0000
0010
0000
0000
0000
1000
0000
0000
0000
,
0011
1000
0001
1000
0001
0010
0100
0000
1000
0000
1000
0010
0100
0000
0000
0000
0011
0000
0100
1000
0100
0000
0100
0000
1000
0100
0001
0000
1000
0010
0101
0000
,
0011
0000
0000
0000
0100
0000
0001
0010
1100
0000
0000
0000
0100
0010
0001
0010
1100
0001
1100
0000
0010
1000
0100
0000
1001
0100
0010
1000
0001
1000
0010
0100
,
0011
0000
0000
0000
0001
0010
0100
1000
0100
0000
0011
0000
0100
1000
0011
0000
0100
1000
0001
0010
0100
1000
0001
0010
1100
0000
0011
0000
1000
0010
1000
0010
,
0101
0000
0000
0000
0000
0000
0000
0000
0000
0000
0000
0000
1010
0000
0000
0000
0000
0000
0000
0000
0000
0000
0000
0000
0001
0000
0000
0000
0000
0000
0010
0000
0000
0000
0000
0000
0100
0000
0000
0000
0000
0000
1000
0000
0000
0000
0000
0000
0101
0000
0000
0000
0000
0000
0000
0000
0000
0000
0000
0000
0101
0000
0000
0000
0000
0000
0000
0000
0000
0000
0000
0000
0010
0000
0000
0000
0000
0000
0001
0000
0000
0000
0000
0000
0100
0000
0000
0000
0000
0000
1000
0000
0000
0000
0000
0000
0011
0000
0000
0000
0000
0000
0000
0000
0000
0000
0000
0000
0000
0000
0000
0000
0000
0000
0000
0000
0000
0000
0000
0000
0100
0000
0000
0010
0000
0000
0001
0000
0000
1000
0000
0000
0100
0000
0000
0010
0000
0000
0001
0000
0000
1000
0000
0000
0100
0000
0000
0000
0010
0000
0000
0000
0001
0000
0000
0000
1000
0000
0000
0000
0100
0000
0000
0000
0000
0000
0000
0000
0011
0000
0000
0000
0000
0000
0100
0000
0000
0000
0000
0000
1010
0000
0000
0000
0000
0000
0000
0000
0000
0000
0000
0000
,
1001
0000
0101
0000
0000
0011
0000
0000
1001
0010
0100
1000
0101
0000
0101
0000
0011
0000
0100
1000
0100
0001
0100
0001
0100
0010
1001
0100
1000
0001
0010
0100
,
1001
0000
0000
0000
0010
0000
0100
0000
1001
0000
0000
0000
1000
0000
0000
0000
0010
0000
0100
0000
1000
0000
0100
0000
0010
0000
0001
0000
0010
0000
1000
0000
0100
0010
0001
0000
1000
0000
0000
0000
1000
0000
0000
0000
0100
0010
0001
0000
1000
0000
0000
0000
0010
0000
0001
0000
0010
0000
0100
0000
1000
0000
0110
0000
,
1001
0100
1010
0000
1000
0101
0000
0100
0011
0000
0100
0000
0001
0000
1000
0000
0001
0010
0001
1000
0100
1000
0110
0000
0101
0000
1100
0000
0001
0000
1010
0000
,
0101
0000
0000
0000
1001
0000
0000
0000
1001
0000
0000
0000
1001
0000
0000
0000
0101
0000
0010
0000
1000
0000
0100
0000
0011
0000
0000
0000
0011
0000
0000
0000
0011
0000
0000
0000
0002
0023
0230
2300
3200
0320
0032
0023
0230
0300
0000
0000
0010
0000
0001
0000
0010
0000
0100
0000
1000
0000
0100
0000
0010
0000
0001
0000
,
0110
0000
0000
0000
0000
0000
1000
0000
0000
0000
0000
0000
0110
0000
0000
0000
0000
0000
0000
0000
0000
0000
0000
0000
0001
0000
0000
0000
0000
0000
1000
0000
0000
0000
0000
0000
0110
0000
0000
0000
0000
0000
0000
0000
0000
0000
0000
0000
1000
0000
0000
0000
0000
0000
0000
0000
0000
0000
0000
0000
0100
0000
0000
0000
0000
0000
0010
0000
0000
0000
0000
0000
0001
0000
0000
0000
0000
0000
1000
0000
0000
0000
0000
0000
0110
0000
0000
0000
0000
0000
0000
0000
0000
0000
0000
0000
1000
0000
0000
0000
0000
0000
0001
0000
0000
0000
0000
0000
0010
0000
0000
0000
0000
0000
0100
0000
0000
0000
0000
0000
1001
0000
0000
0000
0000
0000
0010
0000
0000
0000
0000
0000
0100
0000
0000
0000
0000
0000
0010
0000
0000
0000
0000
0000
0100
0000
0000
0000
0000
0000
0000
0000
0010
0000
0000
0000
0000
0000
0000
0000
0100
0000
0000
0000
0000
0000
0000
0000
1000
0000
0000
0000
0000
0000
0000
0000
0010
0000
0000
0000
0000
0000
0000
0000
0100
0000
0000
0000
0000
0000
0000
0000
,
1001
0000
0100
0000
0010
1000
0010
1000
0011
0000
0000
0000
0100
0000
0000
0000
1000
0000
0001
0000
0010
0000
0100
0000
1000
0001
0010
0100
1000
0001
0010
0100
,
1000
0001
0010
0100
1000
0001
0010
0100
1000
0000
0000
0000
0000
0000
0000
0000
0000
0000
0000
0000
0000
0000
0000
0000
0000
0000
0000
0000
0000
0000
0000
0000
0000
0000
0000
0000
0000
0000
0000
0000
0000
0000
0000
0000
0000
0000
0000
0000
0001
0000
0000
0000
0000
0000
0000
0000
0010
0000
0000
0000
0000
0000
0000
0000
,
0100
1000
0010
0000
0000
0000
2002
3003
,
2002
0000
0000
0000
3103
0000
0000
0000
2002
0000
0000
0000
3103
0000
0000
0000
2002
0000
0000
0000
3013
0001
0010
0100
0010
0000
1000
0100
1000
0000
1000
0000
,
0010
1000
1000
0010
1000
0000
0010
0100
0011
0100
0100
0000
1000
0000
1000
0100
,
0000
0100
0000
0011
1000
0000
0100
1000
0100
0000
0000
0000
0000
1000
0011
0100
,
0000
0000
0000
0000
0011
0000
0000
0000
0100
0000
0000
0000
0000
0000
0000
0000
1000
0000
0000
0000
1000
0000
0000
0000
0100
0000
0000
0000
1000
0000
0000
0000
0011
0000
0000
0000
0011
0000
0000
0000
0000
0000
0000
0000
0100
0000
0000
0000
2002
0000
0000
0000
0000
0000
0000
3003
0011
0000
0000
0000
0100
0000
0000
0000
,
2002
0000
0100
0000
3013
0000
0100
0000
2002
0000
0000
0000
3013
0000
0100
0000
2002
0000
0010
0000
3103
0000
0000
0000
1000
0000
0100
0010
1000
0000
1000
0000
,
0001
0000
0010
0000
0100
0000
0000
0000
2002
0000
0100
0000
3003
0000
0000
0000
0011
0000
1000
0000
0001
0010
0100
1000
0101
0000
1000
0000
0010
0000
1000
0000
,
0011
0000
0000
0000
1000
0000
0000
0000
0010
0000
0100
0000
1000
0000
0000
0000
0001
0000
0010
0000
0100
0000
0000
0000
0001
0000
0000
0000
1000
0000
0000
0000
0001
0010
0100
1000
0001
0010
0100
1000
0001
0000
0000
0000
0100
0000
0000
0000
1000
0000
0000
0000
0010
0000
0000
0000
1000
0000
0000
0000
0000
0000
0000
0000
,
0100
1000
0010
1000
0110
0000
0101
1000
0011
0000
0000
0000
0000
0000
0000
0000
,
0100
0000
0000
0000
0000
0000
0000
0000
1001
0000
0000
0000
0100
0000
1000
0000
0100
0000
0011
0000
0000
0000
0000
0000
1000
0000
0010
1000
0100
0000
0100
0000
,
1010
0000
0000
0000
0000
0000
0001
0000
0000
0000
0000
0000
0010
0000
0000
0000
0000
0000
0100
0000
0000
0000
0000
0000
0010
0000
0000
0000
0000
0000
0100
0000
0000
0000
0000
0000
1000
0000
0000
0000
0000
0000
0100
0000
0000
0000
0000
0000
0011
0000
0000
0000
0000
0000
0100
0000
0000
0000
0000
0000
1010
0000
0000
0000
0000
0000
0001
0000
0000
0000
0000
0000
1010
0000
0000
0000
0000
0000
0000
0000
0100
0000
0000
0000
0000
0000
0000
0000
0010
0000
0000
0000
0000
0000
0000
0000
0101
0000
0000
0000
0000
0000
0010
0000
0000
0000
0000
0000
0100
0000
0000
0000
0000
0000
1000
0000
0000
0000
0000
0000
0011
0000
0000
0000
0000
0000
0000
0000
0000
0000
0000
0000
0101
0000
0000
0000
0000
0000
0000
0000
0000
0000
0000
0000
0010
0000
0000
0000
0000
0000
0001
0000
0000
0000
0000
0000
0100
0000
0000
0000
0000
0000
0010
0000
0000
0000
0000
0000
1000
0000
0000
0000
0000
0000
0100
0000
0000
0000
0000
0000
0010
0000
0000
0000
0000
0000
0001
0000
0000
0000
0000
0000
,
1010
0000
1100
0000
1001
0000
0010
0000
0101
1000
0100
0010
0001
0010
1100
0000
0001
0000
1010
0000
0100
0000
0010
0000
0001
0000
1000
0000
0101
0000
0010
0000
,
0101
0000
0010
0100
1001
0100
0011
0000
1001
0000
0000
0100
1001
0000
0101
0010
1100
0000
0011
0100
1000
0100
0010
0001
1100
0000
0010
1000
0010
0100
0001
0000
,
1001
0000
0010
0000
0101
0000
0010
0000
1100
0010
0101
0000
1000
0000
1100
0000
0101
0000
0011
0000
1000
0010
0100
0000
1010
0000
0011
0000
1100
0000
0011
0000
,
0010
0000
1000
0000
0100
0000
0011
0000
1001
0010
0001
0100
0010
1000
0100
0010
1001
0000
0010
0100
1000
0000
0000
0000
0101
0010
0001
0100
0010
1000
0100
0010
,
1001
0000
0000
0000
1000
0000
0000
0000
1001
0010
0100
1000
0001
0000
0100
0000
1010
0000
0100
0000
0001
0010
0100
0000
0011
0000
0000
0000
0011
0000
0000
0000
1001
0000
0000
0000
0000
0000
0000
0000
0001
0000
0100
0000
0001
0000
0100
0000
0010
0000
1000
0000
0010
0100
1000
0001
0010
0000
0000
0000
0100
0000
0010
0000
,
0101
0000
1000
0000
0101
0000
0000
0000
1000
0100
0010
0001
1100
0000
0000
0000
0011
0000
0100
0000
1000
0000
0000
0000
0010
0000
0100
0000
1000
0000
0000
0000
1001
0000
0000
0000
1010
0000
0000
0000
0101
0000
0000
0000
0001
0000
0010
0000
1100
0000
0000
0000
1100
0000
0000
0000
0001
0000
1000
0000
0001
0000
0100
0000
,
0011
0000
0100
0000
1000
0000
0001
0000
0000
0000
1010
0000
0001
0000
0100
0000
1010
0000
0001
0000
0100
0000
0010
0000
0001
0000
0100
0000
1000
0000
0010
0000
1100
0000
0001
0000
0110
0000
0000
0000
1000
0000
0001
0000
0110
0000
0000
0000
1001
0010
0100
1000
0001
0010
0100
0000
0001
0010
0100
1000
0001
0010
0100
0000
,
0010
0000
1000
0000
0011
0000
0100
0000
1001
0000
0000
0000
0010
0000
0000
0000
0001
0000
0010
0000
0100
0000
1000
0000
0010
0000
0100
0000
0001
0000
1000
0000
0010
0100
1000
0001
0010
0100
1000
0001
0110
0000
0000
0000
0100
0000
1000
0000
0010
0000
0000
0000
0100
0000
1000
0000
0010
0000
0100
0000
0010
0000
0100
0000
,
1001
0000
0000
0000
0000
0000
0000
0000
0000
0000
0000
0000
0101
0000
0000
0000
0000
0000
0000
0000
0000
0000
0000
0000
0010
0000
0000
0000
0000
0000
1000
0000
0000
0000
0000
0000
0010
0000
0000
0000
0000
0000
1000
0000
0000
0000
0000
0000
0110
0000
0000
0000
0000
0000
0001
0000
0000
0000
0000
0000
0100
0000
0000
0000
0000
0000
1001
0000
0000
0000
0000
0000
0010
0000
0000
0000
0000
0000
1100
0000
0000
0000
0000
0000
0001
0000
0000
0000
0000
0000
0010
0000
0000
0000
0000
0000
0100
0000
0000
0000
0000
0000
0000
0000
0010
0000
0000
0000
0000
0000
0000
0000
0100
0000
0000
0000
0000
0000
0000
0000
1010
0000
0000
0000
0000
0000
0000
0000
0000
0000
0000
0000
0000
0000
0000
0000
0000
0000
0000
0000
0000
0000
0000
0000
1000
0000
0000
0000
0000
0000
0100
0000
0000
0000
0000
0000
1000
0000
0000
0000
0000
0000
0100
0000
0000
0000
0000
0000
0010
0000
0000
0000
0000
0000
0001
0000
0000
0000
0000
0000
0010
0000
0000
0000
0000
0000
0100
0000
0000
0000
0000
0000
,
1001
0000
0000
0000
0010
0000
0000
0000
1100
0000
0000
0000
0010
0000
0001
0000
0010
0000
0001
0000
1000
0000
0100
0010
0001
0000
0000
0000
0100
0000
1000
0000
0001
0000
0000
0000
1000
0100
0010
0001
1000
0000
0000
0000
0001
0010
0100
1000
0001
0100
0010
0001
1000
0100
0010
0001
2200
0000
0000
0000
3310
0000
1000
0000
,
0202
0000
0303
0000
0011
0000
0000
0000
0220
0000
0330
0000
0220
0330
0000
0000
0200
1300
0001
0010
0100
1000
0001
0010
1100
0000
0010
0000
0001
0000
0100
0000
0011
0000
1000
0000
0001
0000
0100
0000
1010
0000
0001
0000
1000
0000
0001
0000
0110
0000
1000
0000
0010
0000
0100
0000
0011
0000
1000
0000
0001
0000
0100
0000
,
0010
0000
0000
0000
0100
0000
1000
0000
0100
0000
0010
0000
0100
0000
0000
0000
1001
0000
0000
0000
0000
0000
0000
0000
1001
0000
0000
0000
0000
0000
0000
0000
0101
0000
0010
0000
0100
0000
0000
0000
1000
0100
0010
0001
1000
0000
0000
0000
0001
0000
1000
0000
0100
0000
0010
0000
0001
0000
0010
0000
1000
0000
0100
0000
,
0011
0000
1100
0000
0001
0100
0010
1000
0101
0000
0000
0101
0000
0000
0010
0100
1000
0010
0100
0001
0010
0100
0010
0001
0110
0000
1000
0000
1000
0000
1000
0010
,
0101
0000
0010
0001
1100
0000
1000
0000
1000
0000
0010
0001
1010
0000
0001
0010
1001
0000
0110
0000
0001
0010
1000
0000
1000
0000
0010
0001
1010
0100
1000
0000
,
0010
0000
0000
0000
0001
1000
0100
0010
0001
0000
0000
0000
0001
0000
0010
0000
0100
0000
1000
0000
0001
0000
1000
0000
0100
0010
0001
1000
0110
0000
0000
0000
0011
0000
0000
0000
0100
0000
0010
0000
0001
0000
0000
0000
1100
0000
0000
0000
0010
0000
0001
0000
1000
0000
0000
0000
1000
0000
0000
0000
1000
0000
0000
0000
,
0110
0000
0001
0000
0010
0000
0100
0000
0002
0000
0000
0000
0000
0000
0000
0003
0002
0000
0000
0000
0000
0000
0003
0000
0002
0000
0000
0000
0003
0000
0000
0000
0002
0000
0003
0000
0000
0000
0000
0000
0002
0003
0000
0000
0000
0000
0000
0000
0000
0000
0000
0000
0000
0000
0000
0000
0000
0000
0000
0000
0000
0000
0000
0000
,
0000
0000
0000
0000
0000
0000
0000
0000
0000
0000
0000
0000
0000
0000
0000
0000
0200
0000
0000
0000
0000
0000
0000
0300
0200
0000
0000
0000
0000
0000
0300
0000
0200
0000
0000
0000
0300
0000
0000
0000
0200
0000
0300
0000
0000
0000
0000
0000
0200
0300
0000
0000
0000
0000
0000
0000
0000
0000
0000
0000
0000
0000
0000
0000
,
0000
0000
0000
0000
0000
0000
0000
0000
0000
0000
0000
0000
0000
0000
0000
0000
0020
0000
0000
0000
0000
0000
0000
0030
0020
0000
0000
0000
0000
0000
0030
0000
0020
0000
0000
0000
0030
0000
0000
0000
0020
0000
0030
0000
0000
0000
0000
0000
0020
0030
0000
0000
0000
0000
0000
0000
0000
0000
0000
0000
0000
0000
0000
0000
,
0000
0000
0000
0000
0000
0000
0000
0000
0000
0000
0000
0000
0000
0000
0000
0000
2000
0000
0000
0000
0000
0000
0000
3000
2000
0000
0000
0000
0000
0000
3000
0000
2000
0000
0000
0000
3000
0000
0000
0000
2000
0000
3000
0000
0000
0000
0000
0000
2000
3000
0000
0000
0000
0000
0000
0000
0000
0000
0000
0000
0000
0000
0000
0000
,
0000
0000
0000
0000
0000
0000
0000
0000
0000
0000
0000
0000
0000
0000
0000
0000
0201
0000
0000
0000
0000
0000
0000
0300
0200
0000
0000
0000
0300
0000
0000
0000
1200
0000
0300
0000
0000
0000
0000
0000
0200
0300
0000
0000
0000
0000
0000
0000
0010
0000
0000
0000
0000
0000
0000
0000
0000
0000
0000
0000
0000
0000
0000
0000
,
0100
0000
0000
0000
0000
0000
0000
0000
0000
0000
0000
0000
0000
0000
0000
0000
0002
0000
0000
0000
0000
0000
0000
0003
0002
0000
0000
0000
0000
0000
0003
0000
1002
0000
0000
0000
0003
0000
0000
0000
0002
0000
0003
0000
0000
0000
0000
0000
0002
0003
0000
0000
0000
0000
0000
0000
0010
0000
0000
0000
0000
0000
0000
0000
,
0100
0000
0000
0000
1000
0000
0000
0000
0100
0000
0000
0000
0100
0000
0000
0000
1100
0000
0001
0000
0010
0000
1000
0100
0010
0000
0010
0000
0100
1000
0100
1000
,
0001
0010
0100
1000
0010
0100
0000
0001
1010
0100
1000
0000
0010
0100
1000
0000
0010
0100
0001
0000
0010
0100
0001
0000
1100
0000
0000
0000
1100
0000
0000
0000
,
1000
0000
0000
0100
0000
0000
0010
0000
0000
0001
0000
0000
1000
0000
0000
0100
0000
0000
0010
0000
0000
0001
0000
0000
1000
0000
0000
0100
0000
0000
0010
0000
0000
0001
0000
0000
1000
0000
0000
0100
0000
0000
0010
0000
0000
0001
0000
0000
1000
0000
0000
0000
0000
0000
0010
0000
0000
0000
0000
0000
1000
0000
0000
0000
0000
0000
0010
0000
0000
0000
0000
0000
0001
0000
0000
0000
0000
0000
0000
0000
0010
0000
0000
0000
0000
0000
0000
0000
0100
0000
0000
0000
0000
0000
0000
0000
1000
0000
0000
0000
0000
0000
0100
0000
0000
0000
0000
0000
0001
0000
0000
0000
0000
0000
0100
0000
0000
0000
0000
0000
0011
0000
0000
0000
0000
0000
0000
0000
0000
0000
0000
0000
0011
0000
0000
0000
0000
0000
0000
0000
0000
0000
0000
0000
0100
0000
0000
0000
0000
0000
1000
0000
0000
0000
0000
0000
0100
0000
0000
0000
0000
0000
1000
0000
0000
0000
0000
0000
0100
0000
0000
0000
0000
0000
0010
0000
0000
0000
0000
0000
0001
0000
0000
0000
0000
0000
0010
0000
0000
0000
0000
0000
,
0101
0000
0110
0000
1010
0000
1000
0000
0100
1000
0010
0001
0100
0010
0101
0000
1000
0000
1000
0000
1001
0000
0100
0000
0001
0000
0100
0000
0011
0000
1000
0000
,
0011
0000
0100
0010
0001
0000
1000
0000
0001
0000
1000
0000
0011
0000
0000
0000
0100
0000
0000
0000
0100
0000
1000
0000
0010
0000
0000
0000
0100
0000
0010
0000
1001
0000
0000
0000
0010
0000
0001
0000
0010
0000
0100
0000
1000
0000
0100
0000
1010
0000
0000
0000
1000
0000
0001
0000
0110
0000
0000
0000
1000
0000
0000
0000
,
0101
0000
1000
0000
0011
0000
1000
0000
0010
1000
0010
0000
0001
0000
1010
0000
0100
0000
1010
0000
0001
0010
0001
0000
1100
0000
0010
0000
1001
0000
0100
0000
,
1010
0000
0001
0100
1000
0000
0100
0000
0010
0000
0001
0100
1010
0000
0001
0000
1100
0000
0010
0000
0100
0000
0010
0000
0100
0000
1000
0000
0100
0000
0010
0000
1001
0000
0000
0000
0010
0000
1000
0000
0100
0000
0000
0000
1000
0000
0000
0000
0001
0000
0010
0000
0001
0000
0100
0000
0010
0000
1000
0000
0100
0000
0010
0000
,
0001
0000
0010
0000
0001
0000
0000
0000
1000
0100
0010
0001
1000
0000
0100
0000
0010
0000
1000
0000
0010
0100
1000
0000
0011
0000
0000
0000
1010
0000
0000
0000
0110
0000
0000
0000
0001
0000
0010
0000
0100
0000
1000
0000
0100
0000
1000
0000
0010
0000
0001
0000
0010
0100
1000
0001
0110
0000
0000
0000
0100
0000
1000
0000
,
0010
0000
0001
0010
1100
0000
0000
0000
0001
0010
0100
1000
0011
0000
0000
0000
0101
0000
1000
0000
0100
0000
0000
0000
0110
0000
0001
0000
1000
0000
0000
0000
1000
0000
0000
0000
0100
0000
0000
0000
0001
0000
0000
0000
1000
0000
0100
0000
1001
0000
0000
0000
0100
0000
0000
0000
1000
0000
0001
0000
1000
0000
0001
0000
,
1000
0010
0100
1000
0101
0010
1000
0001
0110
0000
0100
1000
0001
0010
0001
0010
1000
0010
1100
0000
1010
0001
0110
0000
2002
0000
3103
0010
2002
0100
3013
0000
,
0001
0000
0010
1000
0100
0000
0010
0000
0001
0000
1000
0100
0010
0000
0000
0000
1001
0000
0000
0000
0100
0000
0010
0000
0101
0000
0000
0000
0010
0000
0000
0000
1100
0000
0000
0000
0100
0000
0010
0000
0101
0000
0000
0000
0010
0000
0000
0000
2002
0000
0000
0000
0000
0000
0000
3003
2002
0000
0000
0000
0000
0000
3003
0000
,
2002
0000
3003
0000
2002
3003
0000
0000
1100
0000
0001
0010
1100
0000
0010
0000
0101
0000
0001
0010
1100
0000
0010
0000
0101
0000
0001
0010
1100
0000
0010
0000
,
0101
0000
0010
0100
1000
0000
0010
0000
0101
0000
0010
0100
1000
0000
0010
0000
1001
0000
0000
0000
0010
0000
0100
0000
1010
0000
0000
0000
0001
0000
0000
0000
1001
0000
0000
0000
0010
0000
0100
0000
1010
0000
0000
0000
0001
0000
0000
0000
2002
0000
0000
0000
0000
0000
0000
3003
2002
0000
0000
0000
0000
0000
3003
0000
,
2002
0000
3003
0000
2002
3003
0000
0000
1100
0000
0100
0010
0101
0000
1000
0000
1100
0000
0100
0010
0101
0000
1000
0000
1100
0000
0100
0010
0101
0000
1000
0000
,
1100
0011
1010
0000
0000
0000
0000
0000
,
0000
0000
0000
0000
0000
0000
0000
0100
1010
0000
0000
0000
0000
0000
0000
0000
;
