#TITLE:Checking You Out;
#SUBTITLE:;
#ARTIST:good-cool feat. JP Miles;
#TITLETRANSLIT:;
#SUBTITLETRANSLIT:;
#ARTISTTRANSLIT:;
#CREDIT:;
#BANNER:Checking You Out.png;
#BACKGROUND:Checking You Out-bg.png;
#LYRICSPATH:;
#CDTITLE:Jimbo.png;
#MUSIC:Checking You Out.mp3;
#OFFSET:0.200;
#SAMPLESTART:76.910;
#SAMPLELENGTH:18.000;
#SELECTABLE:YES;
#BPMS:0.000=108.000,139.000=216.000,203.000=108.000;
#STOPS:;
#BGCHANGES:;
// cache tags:
#FIRSTBEAT:1.000;
#LASTBEAT:211.500;
#SONGFILENAME:Songs/Fabulously Fresh Flock of Fantastic Files F5/(Jimbo) Checking You Out/Checking You Out.sm;
#HASMUSIC:1;
#HASBANNER:1;
#MUSICLENGTH:103.079;
// end cache tags

//---------------dance-single - ----------------
#NOTES:
     dance-single:
     :
     Hard:
     11:
     1.000,1.000,1.000,0.553,1.000,518.000,186.000,57.000,0.000,0.000:

0000
0000
0000
0000
0000
0000
0000
0000
0000
0000
0000
0000
1000
0000
0000
0000
0001
0000
1100
0000
0000
0000
0000
0000
0001
0000
0000
0000
1000
0000
0110
0000
0000
0000
0000
0000
1001
0000
0000
0000
0000
0000
1010
0000
0000
1000
0000
0000
,
1001
0000
1000
0000
1100
0000
1000
0000
1001
0000
1000
0000
1000
0000
1000
0010
0100
0000
0100
0000
0101
0000
0100
0000
0110
0000
0100
0000
0101
0000
0010
0000
,
1000
0100
0010
0000
0001
0100
0010
0000
1100
0000
1010
0000
1001
0000
1000
0000
1100
0000
1001
0000
1100
0000
1001
0000
1010
0000
0000
0000
1000
0000
0100
0000
,
0011
0100
0000
0000
0001
0010
0100
1000
0110
0000
0000
0000
1001
0100
0010
0001
,
0010
0100
1000
0001
0110
0110
1000
0202
0000
0303
0010
0000
0110
0000
1000
0001
,
0110
0000
1000
0000
0000
0000
0000
0000
0001
0000
1000
0000
0010
0000
0100
0000
1001
0000
0000
0000
0000
0000
0000
0000
0001
1000
0001
0000
0011
0000
0001
0000
,
0101
0000
0001
0000
1001
0000
0001
0000
0101
0000
0001
0000
1000
0100
1000
0000
0001
0000
0001
0000
0001
0000
0001
0000
0110
0000
0000
0000
1000
0000
1000
0000
,
0011
1000
0000
0000
0001
0001
1010
0001
0000
0000
0000
0000
1100
0001
1000
0001
,
0110
1000
0100
0010
0101
0101
1000
0220
0000
0330
0110
0000
1001
0000
0010
0000
,
0110
0000
1000
0000
0101
0000
0000
0001
0101
0000
0101
0000
1010
1000
1001
0100
,
0010
0000
0000
0000
0010
0000
0001
0000
0100
0100
1010
0100
1001
0000
0000
0000
,
1010
0000
0010
0000
0101
0000
0001
0000
1100
0000
0001
0000
0110
0000
0000
0110
,
1000
0001
1000
0000
0001
0100
0010
1000
0101
0000
0000
0000
1000
0000
0110
0000
,
0101
1001
1100
0110
0000
1001
0000
0100
,
0010
0000
0001
0000
1000
1000
0100
0100
0010
0010
0001
0001
1001
0000
0100
0000
,
0110
1000
0100
0010
1001
0000
0010
0000
0011
0000
0001
1100
0000
0000
0110
0000
,
1100
0000
0010
0001
1100
0000
0010
0001
1100
0001
0101
0000
1001
0000
1000
0000
,
1010
0000
0101
0000
0001
1100
0000
1100
0000
0000
0000
0010
1001
1000
1000
1000
,
0101
0000
0001
0000
0001
1000
0001
0000
0110
0000
0100
0000
0100
0000
0100
0000
1010
0000
0010
0000
0010
0000
0010
0000
1001
0000
0000
0000
0000
0000
0000
0000
,
2000
0000
0000
3100
0200
0000
0000
0310
0020
0000
0000
0031
1001
0100
1010
0100
,
0001
1000
0010
0100
1001
0110
1010
0001
0100
0010
1000
0100
1001
0000
1000
0000
,
0200
0000
0000
0310
0020
0000
0000
0031
0002
0000
0000
1003
1000
0000
0220
0000
,
0330
0202
0000
0303
2020
0000
3030
2002
0000
3003
0110
0000
1001
0000
0010
0000
,
1000
0100
0000
0100
0010
0000
0010
0001
0000
0000
0000
0010
1001
0100
1001
0100
,
0010
0001
0100
0010
1001
0110
0101
0010
1000
0100
0010
0001
1000
0000
1100
0000
,
0110
0000
0011
0000
0000
0000
0011
0000
0110
0000
1100
0000
1010
0001
1100
0010
,
1001
0000
1000
1000
1100
1010
1001
0000
1001
0001
0101
0001
2002
0000
3003
0220
,
0000
0330
2002
0000
3003
2020
0000
3030
0101
0000
1010
0000
1100
0001
0101
0010
,
1000
0100
0010
0001
0110
0110
1000
0202
0000
0303
0001
0000
2200
0000
3300
0022
,
0000
0000
0033
0000
2002
0000
0000
0000
3003
0000
0220
0000
0000
0000
0330
0000
2002
0000
0000
0000
0000
0000
3003
0000
1010
0000
1000
0000
1000
0001
1000
0000
,
1000
0010
1000
0000
1000
0000
1000
0000
0101
0000
0001
0000
1001
0000
0001
0000
0011
0000
0001
0000
0101
0000
0001
0000
2002
0000
0000
0000
3003
0000
2020
0000
,
0000
3030
0202
0000
0303
0022
0000
0033
1001
0000
0110
0000
1010
0001
1000
0001
,
0110
1000
0001
0100
1010
1010
0001
2200
0000
3300
0110
0000
2002
0000
3003
0220
,
0000
0330
2020
0000
3030
0202
0000
0303
1010
0000
0101
0000
1001
0000
0100
0000
,
0110
0000
0000
0001
0000
0000
0101
0000
0000
0010
0000
0000
1001
0000
0000
1001
0000
0000
1001
0000
0100
0000
0010
0000
,
0101
0000
0001
0100
0000
0010
1000
0000
0000
0101
0010
0100
,
1001
0000
0100
0100
0000
0000
0100
0000
0000
1100
0001
1000
,
0110
0000
0001
1000
0001
1000
0110
0000
0000
1000
0100
0010
,
0001
0010
0100
1000
0000
1000
0001
0100
0010
1001
0000
1000
,
1000
0001
0010
0100
0000
1000
0010
0000
1000
0001
0000
0100
,
1010
0000
1000
0010
1000
1000
1001
1000
,
1001
0000
0000
1000
0000
0000
1001
0000
0000
0000
0000
0000
1000
0000
0001
0000
0100
0000
0010
0000
1000
0000
0100
0000
,
1001
0000
0000
0010
0000
0000
1000
0000
0001
0000
1000
0000
0001
0000
0000
0000
0100
0000
0010
0000
0100
0000
0010
0000
,
0100
0000
0000
1000
0100
0010
0001
0000
0000
1001
0000
0000
,
1001
0010
0100
0000
0001
0100
1001
0001
,
1001
0000
0000
0000
0000
0000
0001
0000
0100
0000
0010
0000
1000
0000
0000
0000
1000
0000
0101
0000
0000
0001
0000
0000
,
1000
0000
0001
0000
0100
0000
1001
0000
0000
0000
0000
0000
0100
0000
0000
0000
0000
0000
0101
0000
0000
1000
0000
0000
,
0010
0000
0000
0100
0000
0000
0001
0000
0000
1000
0000
0000
0001
0000
0000
0000
0000
0000
1000
0000
0001
0000
1000
0000
,
0001
0000
0000
0100
0001
0100
0010
0000
0000
1000
0100
0010
,
0010
0000
0000
0001
0100
0010
0010
0000
0000
1001
0000
0000
,
0002
0000
0000
0000
0000
0000
0103
0010
,
0110
0000
0000
0000
1100
0010
0001
0010
0100
0001
0000
0010
1001
0000
0100
1010
,
0000
0100
0001
0000
1100
0110
0001
0101
0000
0001
0010
0100
1001
0000
1001
0000
;
