#TITLE:The Skies Above;
#SUBTITLE:(FINAL FANTASY X);
#ARTIST:The Black Mages;
#TITLETRANSLIT:;
#SUBTITLETRANSLIT:;
#ARTISTTRANSLIT:;
#CREDIT:;
#BANNER:The Skies Above (FINAL FANTASY X)-banner.JPG;
#BACKGROUND:The Skies Above (FINAL FANTASY X)-bg.jpg;
#LYRICSPATH:The Skies Above (FINAL FANTASY X).lrc;
#CDTITLE:xDasd.png;
#MUSIC:The Skies Above (FINAL FANTASY X).mp3;
#OFFSET:-0.340;
#SAMPLESTART:99.180;
#SAMPLELENGTH:12.000;
#SELECTABLE:YES;
#BPMS:0.000=45.000,13.500=47.000,15.000=47.200,26.750=48.500,33.000=43.000,36.000=44.500,40.500=48.100,59.500=41.000,68.000=155.000,611.000=130.500,679.000=130.000,771.000=56.000;
#STOPS:1.667=2.020
,3.667=1.900
,6.000=0.140
,8.625=1.880
,11.000=0.140
,14.750=0.300
,26.750=0.200
,40.250=0.300
,59.250=0.220
,66.500=4.340
;
#BGCHANGES:;
// cache tags:
#FIRSTBEAT:0.000;
#LASTBEAT:810.750;
#SONGFILENAME:Songs/toune 3/The Skies Above (FINAL FANTASY X)/The Skies Above (FINAL FANTASY X).sm;
#HASMUSIC:1;
#HASBANNER:1;
#MUSICLENGTH:438.940;
// end cache tags

//---------------dance-single - ----------------
#NOTES:
     dance-single:
     :
     Hard:
     10:
     0.870,1.000,1.000,0.720,0.920,1748.000,562.000,316.000,0.000,283.000:
1100
0000
0000
0001
0000
0000
0010
0000
0000
0100
0000
0000
0011
0000
0000
0000
0100
0000
0000
0000
1000
0000
0000
0000
0011
0000
0000
1000
0000
0000
0100
0000
0000
0010
0000
0000
1100
0000
0000
0000
0010
0000
0000
0000
0001
0000
0000
0000
,
1100
0010
1100
0001
1100
0010
1100
0000
1100
0000
0000
0001
1100
0001
0010
0100
,
0011
0000
0100
0000
0000
1000
0000
0000
0011
0000
0100
0000
0011
0000
1000
0000
0011
0000
0100
0000
0011
0000
0000
0000
0011
0000
0000
0000
0000
0000
1000
0000
,
0011
1000
0100
0010
0001
0010
1000
0100
0010
0001
0010
0100
0011
1000
0100
0010
,
0100
1000
0011
0100
0011
1000
0011
0100
0011
1000
0100
0011
0110
0001
1100
0010
,
0100
1000
0100
0010
1100
0001
0010
0100
0010
0001
1100
0010
1100
0001
1100
0010
,
1100
0001
0010
1100
0110
1000
0011
0100
0010
0001
0010
0100
0011
1000
0100
0010
,
0100
1000
0011
0100
0011
1000
0011
0100
0011
1000
0100
0011
0110
0001
1100
0001
,
0010
0100
0010
0001
1100
0010
1100
0001
1100
0010
1100
0000
1100
0000
0001
0000
,
1100
0010
0100
1000
0100
0010
1000
0100
0010
0001
0010
0100
0001
0010
0100
1000
,
0100
0000
0000
0000
0010
0000
0000
0000
1100
0000
0000
0000
0001
0000
0000
0000
0010
0000
0000
0000
0100
0000
0000
0000
0011
0000
0000
0000
1000
0000
0000
0000
0001
0010
0000
0000
0100
0000
0000
0000
0011
0000
0000
0000
1000
0000
0000
0000
0011
0000
0000
0000
0100
0000
0000
0000
0011
0000
0000
0000
1000
0000
0000
0000
,
0100
0000
0000
0000
0010
0000
0000
0000
1100
0000
0000
0000
0001
0000
0000
0000
1000
0100
0000
0000
0010
0000
0000
0000
1000
0000
0000
0000
0100
0000
0000
0000
1000
0000
0000
0000
0010
0000
0000
0000
1100
0000
0000
0000
0001
0000
0000
0000
0010
0000
0000
0000
0100
0000
0000
0000
0011
0000
0000
0000
1000
0000
0000
0000
,
0001
0010
0000
0000
0000
0000
0000
0000
0000
0000
0000
0000
0000
0000
0000
0000
0000
0000
0000
0000
0000
0000
0000
0000
0000
0000
0000
0000
0000
0000
0000
0000
0011
0000
0000
0000
1000
0000
0000
0000
0100
0000
0000
0000
1000
0000
0000
0000
0011
0000
0000
0000
0100
0000
0000
0000
0001
0010
0000
0000
0000
0000
0000
0000
,
0000
0001
0000
0000
0100
0010
1100
0001
0010
0001
1100
0010
1100
0001
1100
0010
,
1100
0001
1100
0010
0100
1000
0011
0100
0011
1000
0100
0010
0001
0010
1100
0000
,
0110
0000
0000
0011
0000
0000
0110
0000
0000
0011
0000
0000
1100
0000
0000
0110
0000
0000
0000
0000
0001
0000
0010
0000
,
0000
0000
0000
0000
1100
0000
0000
0000
0001
0000
0000
0000
0010
0000
0000
0100
0000
0000
0010
0000
0000
0001
0000
0000
0000
0000
0000
0000
0000
0000
0100
0000
0000
0000
0000
0000
0000
0000
0000
0000
0000
0000
0000
0000
0000
0000
0000
0000
,
0001
0001
0001
0001
0001
0001
0020
0000
0030
1000
1000
1000
,
1000
1000
1000
0200
0000
0300
0010
0010
0010
0010
0010
0010
,
0100
0100
0100
0100
0100
0100
0020
0000
0030
1000
1000
1000
,
1000
1000
1000
0020
0000
0030
0001
0001
0001
0001
0001
0001
,
0110
0010
0010
0010
0010
0010
2000
0000
3000
0100
0100
0100
,
0100
0100
0100
0002
0000
0003
1100
1100
1100
1010
1010
1010
,
0101
0001
1001
0001
0011
0001
2000
0000
3000
0100
0100
0100
,
0100
0100
0100
0002
0000
0003
1100
1100
1100
1001
1001
1001
,
0110
0100
0100
0101
0100
0100
1020
0000
0030
1001
0001
0001
,
0101
0001
0001
0210
0000
0300
0011
0001
0001
0101
0001
0001
,
1100
1000
1000
1010
1000
1000
0201
0000
0300
0011
0001
0001
,
0101
0001
0001
1020
0000
0030
1100
1100
1100
1010
1010
1010
,
0101
0001
0001
0011
0001
0001
1200
0000
0300
0011
0001
0001
,
0101
0001
0001
1020
0000
0030
1001
0001
0001
0101
0001
0001
,
1010
1000
1000
1001
1000
1000
0210
0000
0300
1010
0010
0010
,
0011
0010
0010
2100
0000
3000
0101
0101
0101
1100
1100
1100
,
0012
0000
0010
0010
0000
0000
0100
0000
0100
0100
0000
0000
,
1000
0000
1000
1000
0000
0000
0100
0000
0100
0100
0000
0000
,
1003
0100
0010
1000
0100
0010
0001
0010
0100
0001
0010
0100
,
0011
0011
0011
1100
1100
1100
0000
0000
0000
1001
0000
0000
,
0210
0000
0300
1001
1000
1000
1010
1000
1000
1100
1000
1000
,
0210
0000
0300
0011
0010
0010
0110
0010
0010
1010
0010
0010
,
0102
0000
0003
1100
0100
0100
0101
0100
0100
0110
0100
0100
,
2001
0000
3000
0011
0010
0010
1010
0010
0010
0110
0010
0010
,
2001
0000
3000
0110
0100
0100
1100
0100
0100
0101
0100
0100
,
2010
0000
3000
1100
0100
0100
0101
0100
0100
1100
0100
0100
,
1002
0000
0003
0110
0010
0010
1010
0010
0010
0011
0010
0010
,
0102
0000
0003
1010
0010
0010
0110
0010
0010
0011
0010
0010
,
0102
0000
0003
1100
1000
1000
1010
1000
1000
1001
1000
1000
,
0210
0000
0300
0011
0001
0001
1001
0001
0001
0101
0001
0001
,
1020
0000
0030
0101
0100
0100
0110
0100
0100
1100
0100
0100
,
2001
0000
3000
0011
0010
0010
0110
0010
0010
1010
0010
0010
,
0201
0000
0000
0011
0001
0001
1001
0001
0001
0011
0001
0001
,
1320
0000
0000
1100
0100
0100
0101
0100
0100
1100
0100
0100
,
1132
1000
1000
1010
1000
1000
1123
0100
0100
0101
0100
0100
,
2131
0001
0001
0101
0001
0001
0110
0110
0110
0101
0101
0101
,
3110
0010
0010
0011
0010
0010
0102
0000
0003
1010
1000
1000
,
1001
1000
1000
0210
0000
0300
0011
0010
0010
1010
0010
0010
,
0011
0001
0001
1001
0001
0001
0210
0000
0300
0011
0010
0010
,
1010
0010
0010
0102
0000
0003
1100
1100
1100
0011
0011
0011
,
1200
0010
1000
0010
,
1320
0001
0100
1000
,
0132
0010
0100
0010
,
1203
0001
0010
0001
,
2310
0100
0010
0001
,
3210
1000
0001
1000
,
0321
0100
1000
0001
,
1032
0123
1230
2301
,
3012
1000
0100
0010
,
1203
0001
0010
0001
,
1320
0100
0001
1000
,
2130
0001
0100
0010
,
3211
0010
0010
1010
0010
0010
1001
1000
1000
1010
1000
1000
,
1321
0001
0001
0001
0001
0001
1100
1000
1000
1000
1000
1000
,
2130
3021
1230
0312
,
2103
0010
0001
0010
0100
0010
0001
0010
0100
0010
0001
0010
,
3102
0000
0100
0100
0100
0000
0010
0000
0010
0213
0010
0000
,
1320
0000
1000
1000
1000
0000
2031
0000
0001
3201
0001
0000
,
1320
0000
1000
1000
1000
0000
0001
0000
0001
2031
0001
0000
,
3120
0000
0100
0100
0100
0000
0001
0000
0001
0001
1100
1100
,
0132
0000
0100
0100
0100
0000
1000
0000
1000
1023
1000
0000
,
0231
0000
0001
0001
0001
0000
1010
0000
0011
0011
0011
0011
,
1302
0000
1000
1000
1000
0000
0123
0000
0100
0100
0100
0000
,
1231
0000
1000
1000
1000
0000
2310
0000
0010
0010
0010
0000
,
3102
0000
0100
0100
0100
0000
1000
0000
1000
1023
1000
0000
,
2130
0000
0100
0100
0100
0000
3201
0000
0001
0321
0001
0000
,
0132
0000
0100
0100
0100
0000
1000
0000
1000
1023
1000
0000
,
0231
0000
0001
0001
0001
0000
1001
1001
1001
0011
0011
0011
,
2301
0000
0000
0000
0000
0000
3021
0001
0001
0231
0001
0001
,
2310
0000
0000
0000
0000
0000
3120
0100
0100
0100
0100
0100
,
0231
0000
0000
0000
0000
0000
1000
0000
1302
0000
1023
0000
,
1230
0001
1000
0001
,
1000
1000
1000
1000
1000
1000
0010
0010
0010
0310
0010
0010
,
1100
0000
1100
0001
0010
0100
0010
0100
1000
0011
0100
0011
,
0100
0010
0001
0010
0100
1000
0100
1000
0012
1000
0100
0010
,
1103
0010
1100
0001
0010
0100
1000
0100
0010
1100
0010
1100
,
0001
0010
0100
1000
0010
1000
0011
0011
0011
1100
1100
1100
,
0011
0100
0011
0100
1000
0100
0010
0001
0010
1100
0010
1100
,
0010
0001
0010
0100
1000
0100
0011
0100
0021
1000
0100
0001
,
1130
0001
1100
0010
0001
0010
0100
1000
0100
0011
1000
0011
,
1100
1100
1100
0110
0110
0110
0011
0011
0011
0110
0110
0110
,
1001
1000
1000
1010
1000
1000
0121
0001
0001
1001
0001
0231
,
2311
0010
0010
0110
0010
0010
0101
0001
0001
0011
0001
0001
,
3120
0000
2031
3200
0312
0000
1203
0320
,
2130
0010
0001
0010
,
3100
0010
0001
1000
0100
0010
1002
0000
0000
0100
0000
0000
,
0013
0100
1000
0001
0010
0100
2001
0000
0000
0010
0000
0000
,
3100
0010
0001
1000
0100
0010
1002
0000
0000
0100
0000
0000
,
0013
0100
1000
0001
0010
0100
1000
0100
0010
0100
0010
0001
,
2100
0000
0210
3320
0100
0002
1233
0000
,
2010
3320
0100
0002
1233
0000
2010
3320
,
1000
1000
1000
0100
0100
0100
0001
0001
0001
0100
0100
0100
,
1030
0100
0010
0100
0010
0001
1000
0100
0020
0100
0100
0100
,
0130
0000
0000
0000
0000
0000
0000
0000
0001
0000
0000
0000
1000
0000
0000
0100
0000
0000
0010
0000
0000
1000
0000
0000
0100
0000
0000
0010
0000
0000
1000
0000
0000
0100
0000
0000
0010
0000
0000
1000
0000
0000
0100
0000
0000
0010
0000
0000
,
1000
0100
0010
0001
0010
0100
1000
0100
0010
0001
0010
0100
1000
0100
0010
0001
,
2100
0000
3200
0010
0320
0000
0231
0000
0320
1000
0032
0000
,
2103
0000
3200
0010
0320
0000
1230
1000
1320
1000
1032
1000
,
2103
0000
0000
0010
0000
0000
0102
0000
0000
0010
0100
0010
,
0103
0010
0001
0100
0010
0001
0210
0000
0000
0001
0000
0000
,
3301
0010
0100
0001
0010
0100
0010
0100
1000
0010
0100
1000
,
0100
0010
0001
0100
0010
0001
1000
0100
0010
1000
0100
0010
,
0001
0010
0100
0001
0010
0100
0010
0100
1000
0201
0000
0000
,
1000
0000
0000
0310
0010
0010
1020
0000
0000
0001
0000
0000
,
1030
1000
1000
0000
1000
0000
0001
0001
0001
0000
0001
0000
,
1000
0100
1000
0000
0100
0010
0100
0000
0010
0001
0010
0000
2100
0000
0000
0000
0010
0000
0001
0000
0010
0000
0100
0000
,
3010
0010
0000
0001
0000
0010
0100
0100
0000
0010
0000
0100
,
0001
0001
0000
0010
0000
0001
0000
0100
0000
0001
0000
1000
,
0100
0100
0000
0010
0000
0100
0010
0010
0000
0100
0000
0010
,
1000
0000
0100
0000
0010
0000
0001
0000
0020
0032
0023
0032
,
1003
1000
0000
0010
0000
1000
0001
0001
0000
0100
0000
0001
,
0010
0010
0000
0100
0000
0010
0000
0001
0000
0010
0000
1000
,
0012
0000
0123
0000
1230
0000
0312
0000
0123
0000
1230
0000
,
2310
0000
3201
0000
1320
0000
0132
0000
1023
0000
0231
0000
,
1000
0000
0001
0310
0001
0000
1000
0100
0000
0000
0001
0010
,
0001
0000
2000
0000
0000
0000
0000
0000
0000
0000
0000
0000
0000
0000
0000
0000
0000
0000
0000
0000
0000
3002
0000
0000
,
0023
0000
0000
0230
0000
0000
2300
0000
0000
0000
0000
0000
0000
0000
0000
0000
3200
0000
0000
0000
0000
0000
0000
0000
,
0000
0000
0000
0302
0000
0000
0000
0000
0000
0000
0203
0000
0000
0000
0000
0000
0000
0000
0000
0000
0320
0000
0000
0000
,
0000
2030
3002
0000
,
0000
0000
0000
0000
0000
0000
0000
0000
0203
0000
0000
0000
,
0000
0000
0000
2300
3200
0320
0032
0000
,
0000
0203
0000
0302
,
0203
0000
0000
2300
0000
0000
0000
3002
,
0000
0203
0000
0000
0000
0000
0000
0000
,
0000
0000
0302
0000
0010
0100
1000
0100
,
0023
0230
2300
3200
1000
0010
0001
0010
,
0320
0000
0032
0000
0000
1023
0100
0001
,
2130
0010
0001
0010
3102
0000
1023
0100
,
0001
0100
1000
0100
0000
2030
3200
0312
,
0100
1000
0123
0000
0000
0000
2030
0000
,
3210
0001
0010
1000
0312
0100
0000
0023
,
0000
0100
2030
0000
0000
3020
0001
0000
,
0230
0001
0010
1302
0000
0000
0000
0000
,
0010
0010
0010
0010
,
0010
0000
0000
0000
0000
0000
0000
0000
0000
0000
0000
0000
0000
0000
0000
0000
1000
0100
0000
0000
0000
0000
0000
0000
0000
0000
0000
0000
0000
0000
0000
0000
0000
0000
0000
0000
0000
0000
0000
0000
0000
0000
0000
0010
0100
0000
0000
0000
0000
0000
0000
0000
0000
0000
0000
0000
0000
0000
0000
0000
0000
0000
0000
0000
,
0000
0000
0000
0000
0000
0000
0000
1000
0100
0000
0000
0000
0000
0000
0000
0000
0000
0000
0000
0000
0000
0000
0000
0000
0000
0000
0000
0000
0000
0000
0000
0000
0000
0000
0000
0000
0110
0000
0000
0000
0110
0000
0000
0000
0110
0000
0000
0000
0000
0000
0000
0000
0000
0000
0000
0000
0000
0000
0000
0000
0000
0000
0000
0000
,
0100
0000
0100
0000
0100
0000
0100
0000
0000
1213
0000
0000
,
1000
0011
0312
2103
,
0001
3121
2131
3211
,
2310
0000
0101
0000
3021
0000
1230
0011
,
0011
0000
1010
0000
1010
1010
2311
0000
,
0100
0000
0011
0000
3120
0000
1132
1100
,
1100
0000
0000
1100
1100
1100
0010
0010
0010
1123
0000
0000
,
0001
1132
0010
1203
,
1010
0000
0000
0000
2311
0000
0000
0000
0110
0000
0011
0011
3211
0000
0000
0000
,
1000
1010
0010
1312
,
1000
1123
0231
1312
,
0100
0000
0000
1010
0000
0000
2103
0000
0000
3210
0000
0011
,
0011
1010
1010
1312
,
0010
1123
0231
1320
,
1100
0000
0000
1132
1100
1100
0110
0110
0110
1123
0000
0000
,
0100
2131
3210
1321
,
0001
0000
0000
0000
1100
0000
0000
0000
1100
0000
0000
0000
0101
0000
1100
1100
,
1130
0000
0001
0010
0100
0000
0001
0010
0100
1000
0100
0010
1102
0000
0023
0000
,
0100
0000
0001
0000
0100
0000
0001
2030
,
0100
3020
0000
0000
1132
0000
0000
0000
0010
0000
0000
0000
0100
0000
0000
0000
,
1023
0230
0011
0320
2130
3200
0312
0000
,
1023
0000
0032
0000
1100
0000
0000
0000
0110
0000
1123
1132
1123
0000
0000
0000
,
0001
0000
0000
0000
0000
0000
0000
0000
0000
0000
0000
0000
1132
0000
0000
0000
0000
0000
0000
0000
0023
0000
0000
0000
1000
0000
0000
0000
0230
0000
0000
0000
0000
0000
0000
0000
0312
0000
0000
0000
0000
0000
0000
0000
0000
0023
0000
0000
,
0100
0000
0000
0230
0011
0000
0302
0000
0123
0000
0230
0000
2301
0000
0000
0000
,
0010
0000
0011
3200
1320
0032
0123
0000
,
1132
0000
0023
0000
0100
0100
0100
0100
0100
0000
1132
0000
1213
0000
0000
0000
,
0001
0000
1321
0000
1230
0320
0132
0000
,
0010
0000
1100
0000
0010
0023
1230
2300
,
3210
0000
0011
0320
1032
0023
1000
2030
,
3201
0000
0000
0000
1010
0000
0000
0000
2310
0010
3210
0010
1312
0000
0023
0000
,
2130
3200
1312
0023
1230
0320
0100
0032
,
1023
0230
0011
2300
3210
0320
1100
0000
,
1032
0023
1100
0032
1023
0032
2113
0000
,
3102
0023
1100
0000
1000
0000
1000
0030
,
1002
0000
0023
0000
1030
0100
0010
0001
1000
0100
0010
0001
1000
0100
0010
1000
,
0100
0010
1000
0100
0010
1000
0100
0010
1000
0100
1000
0100
1000
0100
1000
0100
,
1000
0100
1000
0100
1000
0100
1000
0100
1000
1000
1000
1000
1000
1000
1000
1000
,
1000
0100
1000
0100
1021
0000
0000
0000
0100
0000
0000
0000
2131
0000
0000
0000
,
3211
0000
0000
0000
1321
0000
0000
0000
1231
0000
0001
0001
1321
0000
0000
0000
,
1032
0000
1213
0320
1231
0000
1010
1010
,
0011
0000
0011
0000
1010
0000
1010
0000
0011
0000
0011
0000
0311
1000
0100
0010
,
0100
1000
0011
0110
1100
0010
0100
0011
1000
0100
0011
1000
0011
0100
1000
0011
,
0100
0010
1100
0001
1100
0001
0010
0100
1000
0100
0010
0001
0110
1000
0100
0010
,
0100
1000
0011
0110
1100
0010
0001
1100
0001
0010
1100
0010
1100
0001
0010
1100
,
0001
0010
1100
0001
1100
0010
0100
1000
0100
0010
0001
0010
0000
0000
0011
0100
,
0010
0001
0010
0100
0011
0110
1100
0001
0010
1100
0001
0010
1100
0001
0110
1000
,
0100
0000
0011
0000
1000
0000
0100
0000
0011
0000
1000
0000
0011
0000
0100
0000
0010
0000
0001
0000
0010
0000
0100
0000
0000
0010
0000
0000
0001
0000
1100
0000
,
0000
0000
0000
0000
0000
0000
0000
0000
0001
0000
0000
0000
0000
0000
0000
0000
0000
0000
0000
0000
0000
0000
0000
0000
0010
0000
0000
0000
0000
0000
0000
0000
1000
0100
0000
0000
0000
0000
0000
0000
0000
0000
0000
0000
0010
0000
0000
0000
0000
0000
0000
0000
0000
0000
0000
0000
0000
0000
0000
0000
0001
0000
0000
0000
,
0000
0000
0000
0110
0000
0000
0001
0000
0000
0000
1000
0000
0100
0000
0010
0000
0001
0000
0000
0000
0000
0110
0000
0000
0000
0000
0000
0000
0000
0000
0011
0000
0000
0000
0000
0000
1100
0000
0000
0000
0000
0000
0220
0000
0000
0000
0000
0000
,
0000
0000
0000
0000
0000
0000
0000
0000
0000
0000
0000
0000
0000
0000
0000
0000
0000
0000
0000
0000
0000
0000
0000
0000
0330
0000
0000
0000
0000
0000
0000
0000
0000
0000
0000
0000
0000
0000
0000
0000
0000
0000
0000
0000
0000
0000
0000
0000
0001
0000
0000
0000
0000
0000
0000
0000
0000
0000
0000
0000
0010
0000
0000
0000
0000
0000
0000
0000
0000
0000
0000
0000
1000
0000
0000
0000
0000
0000
0000
0000
0100
0000
0000
0000
0000
0000
0000
0000
0010
0000
0000
0000
0000
0000
0000
0000
0001
0000
0000
0000
0000
0000
0010
0000
0000
0000
0000
0000
0100
0000
0000
0000
0000
0000
1000
0000
0000
0000
0000
0000
0100
0000
0000
0000
0000
0000
0010
0000
0000
0000
0000
0000
0001
0000
0000
0000
0000
0000
0010
0000
0000
0000
0000
0000
0100
0000
0000
0000
0000
0000
1000
0000
0000
0000
0000
0000
0100
0000
0000
0000
0000
0000
0010
0000
0000
0000
0000
0000
0001
0000
0000
0000
0000
0000
0000
0000
0010
0000
0000
0000
0000
0000
0000
0000
0100
0000
0000
0000
0000
0000
0000
0000
,
1000
0000
0100
0000
0010
0000
0001
0000
0000
0010
0000
0000
0100
0000
0000
1000
0000
0000
0000
0000
0000
0100
0000
0000
0000
0000
0000
0000
0000
0000
0002
0000
0000
0003
0000
0000
0000
0000
0000
0000
0000
0000
0000
0000
0000
0000
0000
0000
;
