#TITLE:Corneria;
#SUBTITLE:Super Smash Bros. Brawl OST;
#ARTIST:Nintendo;
#TITLETRANSLIT:;
#SUBTITLETRANSLIT:;
#ARTISTTRANSLIT:;
#CREDIT:;
#BANNER:Corneria.png;
#BACKGROUND:Arwing.jpg;
#LYRICSPATH:;
#CDTITLE:CDtitletiger.png;
#MUSIC:084 Corneria.ogg;
#OFFSET:-0.900;
#SAMPLESTART:68.958;
#SAMPLELENGTH:12.000;
#SELECTABLE:YES;
#BPMS:0.000=174.030;
#STOPS:;
#BGCHANGES:;
// cache tags:
#FIRSTBEAT:0.000;
#LASTBEAT:243.500;
#SONGFILENAME:Songs/new cedric/Corneria/Corneria.sm;
#HASMUSIC:1;
#HASBANNER:1;
#MUSICLENGTH:86.006;
// end cache tags

//---------------dance-single - ----------------
#NOTES:
     dance-single:
     :
     Challenge:
     12:
     1.000,1.000,1.000,1.000,0.576,521.000,184.000,170.000,0.000,64.000:
1000
0000
0100
0000
0001
0000
1000
0100
0001
0000
0010
0100
0001
0000
0100
0010
,
1000
0000
0001
0000
1100
0000
0010
0000
0001
0010
0100
1000
0010
0100
0010
0100
,
1001
0000
0100
0000
0110
0000
1000
0100
0011
0000
0001
0100
1010
0000
1000
0100
,
1001
0000
0011
0000
0110
0000
1000
0000
0001
0100
0001
0100
0010
1000
0010
1000
,
0111
0000
1000
0000
0100
0000
0001
0010
1100
0000
1000
0010
0101
0000
1000
0100
,
0011
0000
0110
0000
0101
0000
1010
0000
1000
0100
1000
0100
1000
0010
1000
0010
,
1001
0000
1001
0000
1001
0000
1001
0000
1001
0000
1001
0000
0001
1000
0001
1000
,
0001
0010
0100
1000
0001
0010
1100
0000
0101
0000
0110
0000
1100
0000
0101
0000
,
0110
0000
0001
0100
2010
0000
3100
0001
0010
0000
0012
0000
0003
0000
1000
0000
,
0120
0031
1100
1000
0011
0110
0000
0110
,
1001
0000
0010
0100
0012
0000
1003
0000
0100
0000
0012
0000
1003
0000
0100
0000
,
1120
0031
1020
0000
1030
0012
2103
0000
,
3111
0000
0001
0010
2100
0000
0010
0000
3001
0000
0120
0000
1030
0000
0100
0010
,
1002
1003
0100
0001
1100
0011
0000
0110
,
1001
0000
0001
0010
2100
0000
0010
0000
3001
0000
0120
0000
1030
0000
1000
0100
,
0011
0000
0001
0000
1000
0001
1000
0001
1000
0001
1000
0001
0110
0000
0000
0000
,
1100
0000
0001
0010
2000
3000
1000
0100
0020
0030
0010
0100
0002
0003
0001
0010
,
2000
0000
3002
0023
0230
0000
0302
0003
0000
0000
0002
0000
0023
0000
0230
0000
,
2301
0000
3012
0203
0300
0200
0320
0032
,
2003
0000
0000
0000
3012
0003
0012
0000
0000
0000
0003
0000
0020
0000
0030
0000
,
0002
0003
1000
1000
0000
0000
0012
0000
,
2103
0000
3110
0110
0000
0000
0112
0000
,
1213
0000
1311
1012
0000
0003
1112
0000
,
2103
3200
2300
3102
0023
0032
1203
0320
,
0230
0000
1302
0000
2003
0000
3002
0000
1003
0100
0010
0001
1110
0000
1000
0100
,
0012
0203
1300
0012
0103
0100
1002
0013
,
0100
0000
0012
0000
1103
0000
0011
0000
0000
0000
1001
0000
0110
0000
0001
0010
,
2100
0000
3002
0000
0103
0000
2100
0000
3010
0000
0001
0000
1100
0000
0001
0010
,
1001
0010
1000
0010
1000
0100
0010
0001
0100
0010
0100
0010
1000
0100
1000
0001
,
0120
0000
1030
0012
0103
1000
0012
1003
,
1000
0002
1103
0110
0000
0011
0110
0010
,
2100
3200
0310
0012
0103
1000
1001
0100
,
0012
0003
0002
0000
0100
0000
1003
0000
0110
0000
1000
0000
0011
0000
0001
0100
,
2000
3000
0010
0100
0020
0030
1000
0100
2000
3000
0001
0010
0002
0003
2000
3200
,
0320
0032
0003
0200
0320
2030
3102
0000
,
2103
3020
0030
0020
1230
0302
2013
0000
,
3102
0003
0102
0000
0000
0000
0003
0000
2000
0000
0000
0000
3002
0000
0000
0000
,
0023
0030
0020
0000
0000
0000
0030
0000
2100
0000
0000
0000
3012
0000
0000
0000
,
0213
0300
0210
0000
0000
0000
0300
0000
2110
0000
0000
0000
3121
0000
0000
0000
,
1131
1201
0000
0300
2111
0000
3201
0320
,
2030
3200
0302
0023
0230
2300
3011
0001
,
2202
3303
2202
3303
0010
0010
0222
0333
,
0100
0100
2220
3330
2220
3330
0001
0001
,
0001
0010
0100
1000
0001
0000
0001
0000
2222
0000
3333
0000
2222
0000
3333
0000
,
1000
1000
2222
3333
0010
0010
2222
3333
,
2222
3333
1000
1000
2222
3333
1100
0001
,
0020
0030
1000
0100
2000
3000
0010
0100
0020
0030
0001
0100
1000
0000
0001
0000
,
0020
0030
1000
0000
0010
0100
0010
0100
0001
1000
0001
1000
0011
0000
0110
0000
,
1100
0000
0001
0100
1010
0000
1000
0010
0101
0000
0001
0010
1100
0000
0011
0000
,
0110
0000
0011
0000
1000
0010
1000
0010
0100
0001
0100
0001
1100
0000
0101
0000
,
0110
0000
0100
0010
0101
0000
0100
0001
1100
0000
0100
0010
0101
0000
0110
0000
,
1100
0000
0110
0000
0100
0010
0100
0010
0100
0001
0100
0001
1010
0000
1001
0000
,
1100
0000
1000
0100
1011
0000
0001
0010
1101
0000
0100
0010
1101
0000
0000
0000
,
0000
1011
0000
1110
0000
1111
0001
0001
,
2100
0001
3001
0120
0130
0100
1002
1003
,
1000
0120
1032
1003
0120
0132
1013
0010
,
1002
1000
1013
0102
1013
0110
2100
3011
,
0110
0000
2100
0000
3012
0000
0100
0000
2013
0000
3002
0000
0113
0000
0100
0010
,
1001
0000
0010
0100
1001
0000
1000
0100
0011
0000
0001
0010
1100
1100
1100
0000
,
0000
0000
0011
0000
0000
0000
1110
0000
0000
0000
0111
0000
1011
0100
1000
0001
,
0010
0001
0100
0010
0100
0001
0010
0100
1000
0010
0100
0010
0202
0000
0303
0000
;
