#TITLE:Ultra Super Excellent 64;
#SUBTITLE:;
#ARTIST:Ayako Saso;
#TITLETRANSLIT:;
#SUBTITLETRANSLIT:;
#ARTISTTRANSLIT:;
#CREDIT:;
#BANNER:Ultra.png;
#BACKGROUND:Ultra-bg.png;
#LYRICSPATH:;
#CDTITLE:VivaldiCD.png;
#MUSIC:09 Ultra Super Excellent 64.mp3;
#OFFSET:-5.820;
#SAMPLESTART:46.590;
#SAMPLELENGTH:12.000;
#SELECTABLE:YES;
#BPMS:0.000=164.880;
#STOPS:;
#BGCHANGES:;
// cache tags:
#FIRSTBEAT:0.000;
#LASTBEAT:294.500;
#SONGFILENAME:Songs/dragon force/Ultra Super Excellent 64/Ultra.sm;
#HASMUSIC:1;
#HASBANNER:0;
#MUSICLENGTH:118.994;
// end cache tags

//---------------dance-single - MANIAC----------------
#NOTES:
     dance-single:
     MANIAC:
     Hard:
     8:
     0.652,0.647,0.429,0.193,0.185,469.000,51.000,23.000,0.000,0.000:
0001
0000
1000
0000
0001
1000
0000
0000
,
0100
0001
1000
0100
0000
1000
0000
0000
,
0100
0010
0001
1000
0010
0100
0001
1000
,
0200
1000
1300
1001
,
0001
0000
0010
0000
0100
1000
0001
0100
,
0010
1000
0001
0100
0002
0000
0103
0000
,
0100
0001
1000
0010
0100
0001
1000
0001
,
2000
0000
0000
0000
0100
0000
0000
0000
0100
0000
0000
0000
0100
3000
0000
0000
,
0100
1000
0010
0100
0001
1000
0100
1000
,
0001
1000
0010
0100
0002
0000
0103
0000
,
0010
1000
0010
1000
0001
0100
0001
0100
,
0001
1000
0100
1000
0001
0100
0001
0100
,
0011
0000
1100
0000
0001
1000
0100
1000
,
0001
1000
1010
0000
0100
1000
0010
0100
,
1100
0000
0011
0000
0001
0010
0100
1000
,
1001
0000
0110
0000
0100
1000
0002
0000
,
1000
0000
0000
0000
1000
0003
0000
0000
0100
0000
1000
0000
0010
0000
0200
0000
,
0001
0000
0301
0000
0001
0010
0100
2000
,
0100
0000
3100
0000
0100
1000
0010
0100
,
1001
0110
1001
0011
,
0011
0100
1000
0001
0100
0010
0000
0010
,
1000
0100
1000
0001
0000
1100
0000
0000
,
1100
0010
1000
0001
0100
0010
0000
0001
,
1000
0100
1000
0001
0000
1001
0000
0000
,
0001
0010
0200
0000
1000
0000
1300
0000
,
0100
1000
0010
1000
0000
1001
0000
0001
,
0010
0000
0100
0000
1001
0100
0010
0001
,
2000
0010
0010
0010
,
3010
0000
1000
0000
0001
1000
0000
0001
1000
0000
0001
1000
0000
0001
1000
0000
,
1000
0000
0001
0000
0010
0001
0000
0010
0001
0000
0010
0001
0000
0010
0001
0000
,
1000
0000
0100
0000
1000
0100
0000
1000
0100
0000
1000
0100
0000
1000
0100
0000
,
1000
0002
0100
0000
0100
0000
0103
0000
,
0001
0000
1000
0000
0100
1000
0000
0100
1000
0000
0100
1000
0000
0100
1000
0000
,
0001
0000
0100
0000
0010
0100
0000
0010
0100
0000
0010
0100
0000
0010
0100
0000
,
0001
0000
1000
0000
0001
0100
0000
0001
0100
0000
0001
0100
0000
0001
0100
0000
,
0001
0010
0100
1000
0200
0000
1300
0000
,
1001
0000
0100
0000
0010
0001
1000
0020
,
0100
0000
0130
0000
1001
0100
0010
0000
,
0001
0010
0000
0000
0001
0010
0000
0000
0100
0000
1000
0000
0100
0000
0000
0000
,
1000
0100
0000
0000
1000
0100
0000
0000
1000
0000
0001
0000
1000
0000
0000
0000
,
0001
0000
0100
0000
0010
1000
0000
0010
1000
0000
0010
1000
0000
0010
1000
0000
,
0001
0000
0100
0000
0001
0100
0000
0001
0100
0000
0001
0100
0000
0001
0100
0000
,
0001
0000
0010
0000
0100
0010
0000
0100
0010
0000
0100
0010
0000
0100
0010
0000
,
1001
0110
1001
0110
,
0001
0010
0100
1000
0100
0010
0001
0010
,
0100
1000
0100
0010
0001
0010
0110
0000
,
0100
1000
0010
0100
0010
0100
0001
1000
,
0001
0100
0010
1000
0001
0000
1001
0000
,
0001
0010
0100
1000
0100
0010
0002
0000
,
0010
0000
0013
0001
0010
0100
1100
0000
,
0010
1000
0200
0000
1300
0000
1000
0001
,
0000
0001
1000
0000
0100
0100
0100
0000
,
0010
0001
1000
0100
1001
0001
1000
0100
,
0010
0001
1000
0100
0000
1001
0000
0000
,
0100
1000
0010
0000
1000
0010
1000
2000
,
0100
3100
1001
0110
,
0011
0000
1100
0000
0001
1000
0200
0000
,
1000
1300
1100
0011
,
0011
0000
1100
0000
0100
1000
0020
0000
,
1000
1030
0100
0100
,
0011
1100
1100
0011
,
0011
0100
0010
0000
0001
1000
0010
0000
,
0100
0000
1001
0000
0000
0100
1001
0000
,
0100
0010
0001
1000
0020
0000
0130
0000
,
1001
0000
0110
0000
0001
0010
0200
0000
,
1000
1300
1001
1001
,
0100
1000
0020
0000
0100
0000
0130
0000
,
0001
1000
0100
0000
1001
0000
0100
0010
,
0002
0000
0013
0000
0000
0001
0010
0100
,
2000
0000
3100
0000
0000
0100
1000
0010
,
0200
0310
1001
1001
,
0001
0000
0010
0000
0100
0000
1000
0000
0001
1000
0001
1000
0001
1000
0001
1000
,
0001
1000
0100
1000
0001
1000
0100
1000
,
0001
1000
0100
1000
0000
0000
0000
0000
;

//---------------dance-single - Challenge----------------
#NOTES:
     dance-single:
     Challenge:
     Challenge:
     11:
     1.000,1.000,0.706,0.277,0.903,741.000,84.000,33.000,0.000,0.000:
0001
1000
0100
0000
0000
0000
0100
1000
0001
0000
1000
0000
0010
0000
0000
0000
,
0010
1000
0100
0000
0000
0000
0100
1000
0000
0001
1000
0000
0010
1000
0100
1000
,
0011
0000
1100
0000
0001
0010
0100
1000
0100
1000
0001
1000
0110
0000
0000
0000
,
0001
1000
0100
1000
0001
0000
0100
0000
0010
1000
0100
0000
1001
0100
0000
0000
,
0100
0010
0000
0001
1000
0000
0010
0000
0100
0001
0000
0000
0100
0000
1000
0000
,
0001
1000
0100
1000
0020
0000
0130
0000
,
0001
1000
0200
0000
1000
0000
1000
0000
1300
0000
0100
0000
1000
0000
0010
0001
,
0010
0001
0200
0000
0010
0000
0001
0000
0010
0000
0001
0000
0010
0000
0301
0010
,
0001
0010
0200
0000
1000
0000
0010
0000
0001
0000
0010
0000
1000
0000
0310
0100
,
0010
0100
0020
0000
0100
0000
1000
0000
0100
0000
0001
0000
0100
0000
0100
0031
,
1000
0010
0200
0000
1000
0000
1300
0010
1000
0010
0002
0000
0100
0000
0103
0010
,
0001
1000
0010
0000
0100
0001
0000
1000
0100
0000
1001
0000
0100
0000
0100
0000
,
0001
0000
1000
0000
0100
0000
1000
0001
1000
0001
0110
0000
1001
1000
0001
0000
,
1001
0001
0100
1000
0001
0000
1000
0000
0100
1000
0001
0100
1010
0000
0000
0000
,
1001
0010
0100
0000
1001
0100
0010
0000
0110
0000
1000
0000
0100
0000
1000
0000
,
0001
1000
0100
0000
0020
0000
0001
0000
0001
0000
0001
0000
0001
0000
0001
0030
,
0001
0010
0200
0000
1000
0000
1300
0000
0100
0000
1000
0000
0001
0000
1000
0000
,
0002
0100
0100
0100
0100
0103
0110
0110
,
0001
0000
1000
0100
1000
0000
0001
0000
1000
0000
0002
0000
0100
0000
0100
0000
,
0100
0100
0100
0100
0100
0100
0100
0103
,
0001
1000
0100
1000
0001
0000
1001
0000
0001
1000
0001
0100
0001
1000
0100
0000
,
1000
0001
0100
0000
0101
1000
0101
1000
0101
0000
1000
0000
0101
0000
0000
0000
,
0001
1000
0100
0000
0100
0010
0000
0001
0010
0000
0100
0000
1100
0000
0000
0000
,
1100
0010
1100
0001
1100
0000
0100
1000
0010
0001
0100
0010
1100
0000
1000
0001
,
0100
0000
0001
0000
1000
0000
0100
0010
0001
0000
0020
0000
0100
0000
0100
0000
,
0130
0002
2000
0003
3200
1000
0302
0000
,
0203
0010
0302
0000
1000
0103
0001
1000
,
0010
0000
0100
0001
1000
0100
0001
1000
0010
0100
0001
1000
0100
1000
0000
0000
,
0001
0010
0100
1000
0100
0001
0100
0010
0100
1000
0100
0010
0100
0000
0002
0000
,
0100
0100
1000
0100
0100
0010
0100
0103
,
0001
1000
0100
0010
0001
0100
0001
0000
0110
0000
1000
0001
0100
0000
0020
0000
,
1000
0000
1030
0000
0010
1000
0000
1000
0010
0000
0010
1000
0000
1000
0010
0000
,
0100
1000
0001
0100
0010
1000
0100
0000
0002
0000
0100
0000
0100
0000
0103
0000
,
0001
1000
0100
1000
0001
1000
0020
0000
0100
0000
0100
0000
0100
0000
0130
0000
,
0100
1000
0001
0100
1000
0010
0002
0000
0100
0000
0100
0000
0100
0000
0103
0000
,
0001
0010
0100
1000
0001
0000
0000
0000
0100
1000
0001
0010
0100
0000
0000
0000
,
0001
1000
0100
0000
2000
0000
0000
0000
0001
0000
0000
0000
0001
0000
3000
0000
,
0001
1000
0100
1000
0020
0000
1000
0000
1000
0000
1000
0000
1000
0000
1030
0000
,
0010
1000
0200
0000
1000
0000
0300
0000
1100
0000
0010
0000
1001
0000
0000
0000
,
1100
0001
1100
0001
1100
0001
1100
0000
,
0011
0000
0100
0000
0001
0010
0100
1000
0001
0010
0100
1000
0001
0010
0100
1000
,
0001
0000
0100
0000
1000
0001
0100
0000
1000
0001
0100
0000
1000
0001
0100
0000
,
0100
0010
0100
0010
0100
0001
1000
0000
0010
0000
0100
0000
0001
0000
0000
0000
,
1100
0000
1000
0100
1000
0100
1000
0100
1000
0100
1000
0100
1000
0000
1100
0000
,
0001
0010
0100
1000
0001
0000
1000
0000
1100
0000
1000
0000
0110
0000
1000
0000
,
0100
0000
1001
0000
1002
0000
0100
0000
1000
0000
1000
0000
1000
0000
1000
0003
,
1100
0110
0012
1000
1003
0100
0011
0100
,
1001
0010
0101
0100
0010
0001
0110
0100
,
0001
0110
0100
0001
1100
0001
0100
0011
,
0001
0101
1010
0101
0100
1001
0100
1001
,
1100
0110
0011
1100
0110
0011
0011
0110
,
0110
0000
0011
0000
1100
0000
0011
0000
0110
0000
0110
0000
0110
1000
0001
0000
,
0001
1000
0100
0000
1001
0100
1001
0000
,
0100
0000
0010
0000
0002
0000
1000
0000
0000
0003
0100
1000
0001
0000
1001
0000
,
1010
0100
1001
0000
0011
1100
0011
0000
,
0100
1000
0001
1000
0010
1000
0001
0100
1000
0010
0100
0010
1001
0000
0000
0000
,
0001
0010
0100
1000
0100
0001
1000
0100
0010
0100
0001
1000
0100
0010
0001
0010
,
0100
1000
0001
1000
0001
1000
0010
0100
0001
1000
0100
0010
0001
0010
1000
0100
,
0010
1000
0001
1000
0010
0100
0010
0001
1000
0010
0100
0010
0100
0010
0100
0010
,
0001
1000
0001
1000
0001
0100
0010
0001
0010
0100
0001
0000
1000
0000
0100
0000
,
0001
0000
1000
0000
0100
0001
0000
0001
1000
0000
0000
0001
1000
0000
1000
0001
,
0000
0001
0010
0000
1000
0100
0000
0100
1000
0000
1000
0100
0000
0100
0001
0000
,
0000
0000
0010
0100
1000
0000
0001
1000
0010
0000
0200
0000
0001
0000
0301
0000
,
0000
0000
0001
0010
0100
1000
0001
1000
0102
0000
0000
0100
0000
0000
0103
0000
,
0001
0010
0100
1000
0001
0010
0000
0010
0100
0001
1000
0000
0010
0100
0000
0000
,
1001
0100
0010
0001
0100
0010
1000
0000
0001
0100
0010
1000
0000
0001
0100
0010
,
1000
0001
0100
0010
0100
1000
0001
0100
0000
0000
0010
0001
0010
0001
1000
0100
,
0000
0000
0011
0000
0110
0000
0001
1000
0001
0000
1001
0000
1000
0000
1001
0000
,
0001
0001
0000
0000
1000
1000
0000
0000
0001
0001
0000
0000
1000
1000
0000
0000
,
0001
0001
0000
0000
1000
1000
0000
0000
0001
0001
0000
0000
1000
1000
0000
0000
,
0001
0010
0100
1000
0002
0000
0000
0000
1000
0000
1000
0000
1003
0000
0000
0000
,
0100
1000
0020
0100
0000
0000
0000
0000
0100
0000
0100
0000
0130
0000
0000
0000
,
0001
1000
0100
1000
0001
1000
0100
1000
0001
1000
0100
1000
0001
1000
0100
1000
,
0001
1000
0100
1000
0001
1000
0100
0000
0000
0000
1001
0000
0000
0000
0000
0000
;
