#TITLE:Bombastik's OP;
#SUBTITLE:;
#ARTIST:Shinya Ogura;
#TITLETRANSLIT:;
#SUBTITLETRANSLIT:;
#ARTISTTRANSLIT:;
#CREDIT:;
#BANNER:bn.jpg;
#BACKGROUND:bg.jpg;
#LYRICSPATH:;
#CDTITLE:bombastik.png;
#MUSIC:I gotta turn it on.mp3;
#OFFSET:-0.360;
#SAMPLESTART:27.480;
#SAMPLELENGTH:12.000;
#SELECTABLE:YES;
#BPMS:0.000=171.980;
#STOPS:;
#BGCHANGES:;
// cache tags:
#FIRSTBEAT:0.000;
#LASTBEAT:697.500;
#SONGFILENAME:Songs/FUCK ANIME PACK/Bombastik's OP/Bombastik's OP.sm;
#HASMUSIC:1;
#HASBANNER:1;
#MUSICLENGTH:247.588;
// end cache tags

//---------------dance-single - Blank----------------
#NOTES:
     dance-single:
     Blank:
     Challenge:
     13:
     1.000,1.000,1.000,0.380,1.000,1599.000,854.000,94.000,0.000,415.000:

1100
0000
0001
0000
0000
0000
0110
0001
,
1100
0011
0000
0000
,
0100
0010
0001
0010
0100
1000
0011
0000
0000
0000
0000
0000
0000
0000
0000
0000
0000
0000
1001
0000
0000
0010
0000
0000
,
1100
0000
0000
0000
0000
0000
0000
0000
0000
0000
0000
0000
0000
0000
0000
0000
0000
0000
1000
0100
0010
0001
0010
0100
,
1001
0000
1000
0000
0000
0000
0011
1000
,
0011
0000
0110
0000
0000
0000
1100
0010
,
1001
0100
0110
0000
0000
0000
0000
0000
,
1100
0000
0000
0001
0000
0000
0100
0000
0000
0000
0000
0000
0000
0000
0000
0000
0000
0000
0010
0100
1000
0100
0010
0001
,
1100
0000
0010
0000
0000
0000
0010
0100
,
1001
0110
0000
0000
,
1100
0000
0010
0000
0000
0000
1010
0100
,
0110
0000
0000
0000
0000
0000
0000
0000
0000
0000
0000
0000
0000
0000
0000
0000
0000
0000
0100
0010
0001
0010
0100
1000
,
0011
0000
1000
0000
0000
0000
1001
0001
,
0011
1100
0000
0000
,
1100
0000
0010
0000
0000
0000
0010
0100
,
1100
0000
0000
0000
0000
0000
0110
0010
,
1100
0000
0010
0000
0000
0000
1100
0010
,
0101
1000
0011
0000
0000
0000
0000
0000
,
1100
0000
0010
0000
0000
0000
0100
1000
,
0110
0000
1001
0000
0000
0000
0011
1000
,
0110
0000
1000
0000
0000
0000
1001
0100
,
0011
0000
0000
0000
0000
0000
1010
0001
,
0101
0000
0110
0000
0000
0000
0010
0001
,
1100
0000
0000
0000
0000
0000
0110
0000
0000
0000
0000
0000
0000
0000
0000
0000
0000
0000
1000
0100
0010
0001
0010
0100
,
1001
0000
1100
0000
0000
0000
0011
0100
,
1100
0100
0110
0000
0000
0000
0000
0000
,
1001
0000
0100
0000
0000
0000
1000
0100
,
1010
0000
0000
0000
0000
0000
0001
0000
0000
0000
0000
0000
0000
0000
0000
0000
0000
0000
0100
0010
0001
0010
0100
1000
,
0011
0100
1011
0010
1001
0001
1110
1000
,
0111
0000
0010
0000
1011
0000
0100
0000
1101
0000
0000
0001
1110
0000
0000
0000
,
1100
0001
0001
0000
0100
0000
0001
0001
,
1001
0001
0001
0001
0101
0100
0220
0330
,
1110
0000
0000
0000
1100
0010
0100
0000
0100
0010
0001
0010
1100
0000
0010
0000
,
1100
0000
0001
0000
0110
0000
0100
0000
0102
0000
0003
0100
0010
0100
1000
0100
,
0011
1000
1010
0010
0110
0100
0101
0001
,
1001
0000
1000
0000
1100
0000
0100
0000
0220
0000
0330
0001
0010
0100
0010
0100
,
1011
0100
0010
0100
0010
0100
0010
0100
0010
0100
0010
0100
0010
0100
0010
0100
,
0010
0100
0010
0100
0010
0100
0010
0100
0010
0100
0010
0100
0010
0100
0010
0100
,
0011
1100
0011
1100
0011
1100
0011
1100
0011
1100
0011
1100
0011
1100
0011
1100
,
0011
0000
1100
0000
0011
0000
1100
0000
0011
0000
1100
0000
0011
0000
0000
1100
0000
0000
0011
0000
0000
1100
0000
0000
0011
0000
0000
1100
0000
0000
0011
0000
0000
1100
0000
0000
0011
0000
1100
0000
0011
0000
1100
0000
0011
0000
1100
0000
,
0011
0100
0010
0100
1011
0100
0010
0001
1110
0001
0010
0100
1011
0100
0010
0100
,
1011
0100
0010
0001
1110
0001
1000
0010
1101
0010
0100
1000
0222
0000
0000
0333
,
1110
0001
0010
0100
1011
0100
0010
0001
1110
0001
1000
0100
1011
0100
0010
0001
,
1110
0001
1000
0010
1101
0010
0100
1000
0111
0000
1100
0000
0110
0000
0011
0000
,
1110
0001
0100
0010
1101
0010
1000
0100
1011
0100
0010
1000
0111
1000
0010
0100
,
1011
0100
1000
0010
1101
0010
0100
0001
1100
0011
1100
0011
1100
0010
0100
0010
,
1101
0000
0000
0000
0111
1000
0100
0010
1101
0010
0100
0010
1101
0010
0100
1000
,
0111
1000
0010
0100
1011
0100
1000
0010
1101
0010
0100
0001
1110
0001
0010
0100
,
1011
0000
0110
1111
0000
0110
1111
0000
,
0110
1111
0000
0110
1111
0000
1111
0000
,
1111
0000
0110
1111
0000
0110
1111
0000
,
0110
1111
0000
0000
1111
0000
1111
0000
,
1110
0001
0100
0010
1101
0010
0100
0001
1110
0001
0100
1000
0111
1000
0010
0100
,
1011
0100
0010
1000
0111
1000
0100
0010
1101
0010
0100
1000
0111
1000
0100
0001
,
1110
0000
0000
0000
1101
0010
0100
1000
0111
1000
0010
0100
1011
0100
0010
0001
,
1110
0001
0010
0100
1011
0100
0010
1000
0111
1000
0100
0010
1100
0011
1100
0011
,
1100
0001
0100
0010
1101
0010
0100
1000
0111
1000
0010
0100
1011
0100
0010
0001
,
1110
0001
0010
0100
1011
0100
0010
1000
0111
1000
0010
0100
2022
0000
0000
3033
,
1111
0000
0000
0000
1101
0010
0100
0001
1110
0001
0100
1000
0111
1000
0100
0010
,
1101
0000
0000
0000
0000
0000
1101
0000
0000
0000
0000
0000
0110
0000
0000
1001
0000
0000
0110
0000
0000
0000
0000
0000
0001
0000
0010
0000
0100
0000
0010
0000
0001
0000
0010
0000
0100
0000
1000
0000
0100
0000
0010
0000
0100
0000
0010
0000
,
1101
0000
0110
1111
0000
0110
1111
0000
,
0110
1111
0000
0110
1111
0000
1111
0000
,
1111
0000
0110
1111
0000
0110
1111
0000
,
0110
1111
0000
0000
1111
0000
1111
0000
,
1111
0000
0110
1111
0000
0110
1111
0000
,
0110
1111
0000
0110
1111
0000
1111
0000
,
1111
0000
0110
1111
0000
0110
1111
0000
,
0110
1111
0000
0000
1111
0000
1111
0000
,
1110
0110
0111
1100
1101
1001
0111
0101
,
1100
1100
1100
1100
1100
1100
1100
1100
1100
1100
1100
1100
1100
1100
1100
1100
,
1110
0001
0110
1000
0111
1000
0101
0010
1101
0010
1100
0001
1110
0001
1010
0100
,
1011
0100
0011
1000
0111
1000
0011
0100
2022
0000
0000
0000
3033
0000
0000
0000
,
1101
0010
1100
0001
1110
0001
0110
1000
0111
1000
0101
0010
1101
0010
0101
1000
,
0222
0333
1100
0000
0222
0333
1100
0000
0222
0333
1100
0011
1100
0011
1100
0011
,
1100
0001
1010
0100
1011
0100
1010
0001
1110
0001
1100
0010
1101
0010
0101
1000
,
0111
1000
0011
0100
1011
0100
1001
0010
1101
0010
1100
0001
1110
0001
1010
0100
,
1011
0100
1001
0010
1101
0010
1100
0001
1110
0001
0110
1000
0111
1000
0101
0010
,
2202
0000
3303
0000
0010
0100
0010
0100
1001
0110
1001
0110
1001
0110
1001
0110
,
1001
0000
0000
0000
1111
0000
0000
0000
1110
0001
0100
0010
1101
0000
0110
0000
,
1111
0000
0000
0000
1111
0000
0000
0000
1101
0010
0100
1000
0111
0000
0110
0000
,
1111
0000
0000
0000
1111
0000
0000
0000
1011
0100
0010
0100
1011
0000
0110
0000
,
1111
0000
0000
0000
1111
0000
0000
0000
1111
0000
0000
0000
0002
0000
0000
0003
,
1111
0000
0000
0000
1111
0000
0000
0000
0111
1000
0100
1000
0111
0000
0110
0000
,
1111
0000
0000
0000
1111
0000
0000
0000
1110
0001
0010
0001
1110
0000
0110
0000
,
1111
0000
0000
0000
0000
0000
0000
0000
0000
0000
0000
0000
1111
0000
0000
0000
0000
0000
0000
0000
0000
0000
0000
0000
1101
0000
0000
0010
0000
0000
0100
0000
0000
0010
0000
0000
1101
0000
0000
0000
0000
0000
0000
0000
1000
0000
0100
0000
,
0010
0000
0100
0000
1000
0000
0011
0000
0000
0000
0000
0000
0011
0000
0000
0000
0000
0000
0011
0000
0000
0000
0000
0000
0011
0000
0000
0000
0000
0000
0011
0000
0000
0000
0000
0000
0011
0000
0000
0011
0000
0000
0011
0000
0000
0011
0000
0000
,
1111
0000
0110
1111
0000
0110
1111
0000
,
0110
1111
0000
0110
1111
0000
1111
0000
,
1111
0000
0110
1111
0000
0110
1111
0000
,
0110
1111
0000
0000
1111
0000
1111
0000
,
1111
0000
0110
1111
0000
0110
1111
0000
,
0110
1111
0000
0110
1111
0000
1111
0000
,
1111
0000
0110
1111
0000
0110
1111
0000
,
0110
1111
0000
0000
1111
0000
1111
0000
,
1111
0110
1111
1100
1111
1001
1111
0101
,
1111
1100
1111
0011
1111
1010
1111
1001
,
1111
0101
1111
1100
1111
1001
1111
0011
,
1111
0000
1100
0000
1111
0000
1010
0000
1011
0100
0010
0100
0010
0100
0010
0000
,
1111
0000
0110
1111
0000
0110
1111
0000
,
0110
1111
0000
0000
1111
0000
1111
0000
,
1110
0001
0010
0100
0010
0100
1011
0100
0010
0001
0010
0100
1011
0100
0010
0100
,
1000
0000
0000
0100
0000
0000
1011
0000
0100
0000
0010
0000
0001
0000
0010
0000
0100
0000
0010
0000
0100
0000
1000
0000
0111
0000
1000
0000
0100
0000
0010
0000
0001
0000
0010
0000
1101
0000
0010
0000
0100
0000
1000
0000
0100
0000
0010
0000
,
1101
0010
1100
0001
1110
0001
1010
0100
1011
0100
1001
0010
1101
0010
1100
0001
,
1110
0001
1010
0100
1011
0100
0011
1000
0222
0000
0000
0333
0110
0000
0001
0000
,
1011
0100
1010
0001
1110
0001
0110
1000
0111
1000
0011
0100
1011
0100
1001
0010
,
1101
0010
1100
0001
1110
0001
1010
0100
1011
0100
0011
1000
0111
1000
0101
0010
,
1101
0010
1001
0100
1011
0100
1001
0010
1101
0010
1100
0001
1110
0001
0110
1000
,
0111
1000
0101
0010
1101
0010
0101
1000
0111
1000
0011
0100
1011
0100
1010
0001
,
1110
0001
1010
0100
1011
0100
0011
1000
0111
1000
0101
0010
1101
0010
1100
0001
,
1110
0001
0110
1000
0111
1000
0101
0010
1101
0010
0101
1000
0111
1000
0011
0100
,
1011
0100
1011
0100
1011
0100
1011
0100
,
1011
0010
1101
0010
1101
0010
1101
0010
,
1110
0001
1110
0001
1110
0001
1110
0001
,
0111
1000
0111
1000
0111
1000
0111
1000
,
1101
0010
1101
0010
1101
0010
1101
0010
,
1011
0100
1011
0100
1011
0100
1011
0100
,
1110
0001
1110
0001
1110
0001
1110
0001
,
0111
1000
0111
1000
0111
1000
0111
1000
,
0222
0333
0000
0000
0002
0000
0000
0000
0110
0000
1000
0000
1010
0000
0000
0000
,
0110
0000
1010
0100
1010
0000
1100
0000
,
0110
0000
1100
0000
1100
0010
1100
0000
,
1100
0000
0000
0000
0000
0000
0000
0000
0000
0000
0000
0000
1100
0000
0000
0000
0000
0000
0010
0000
0000
0003
0000
0000
1100
0000
0000
0010
0000
0000
0001
0000
0000
0010
0000
0000
0100
0000
1000
0000
0100
0000
0010
0000
0001
0000
0010
0000
,
1101
0010
0100
1000
0111
1000
0100
0001
1110
0001
0010
0100
1011
0100
1000
0010
,
1101
0010
0100
1000
0111
1000
0010
0001
2220
0000
0000
3330
0110
0000
0001
0000
,
1011
0100
0010
0100
1011
0100
1000
0100
1011
0100
0010
0001
1110
0001
1000
0010
,
1101
0010
0100
0001
1110
0001
0010
1000
0222
0000
0333
0000
2222
3333
0000
0000
,
1011
0100
0010
0001
1110
0001
0010
1000
0111
1000
0100
0010
1101
0010
0100
1000
,
0111
1000
0010
0100
1011
0100
0001
0010
1101
0010
0100
1000
0111
1000
0001
0100
,
1011
0100
0010
0001
1110
0001
0100
0010
1101
0010
0100
1000
0111
1000
0001
0100
,
1011
0000
0000
0100
0000
0000
0010
0000
0000
0001
0000
0000
1110
0000
0000
0001
0000
0000
0100
0000
0000
1000
0000
0000
0022
0000
0000
0033
0000
0000
1000
0000
0100
0000
0010
0000
0001
0000
0010
0000
0001
0000
0010
0000
0100
0000
1000
0000
,
0111
0000
1111
0000
0110
1111
0110
0110
,
1111
0000
1111
0000
0110
1111
0110
0110
,
1111
0000
1111
0000
0110
1111
0110
0110
,
1111
0000
0000
0000
1111
0000
0000
0000
1111
0000
0000
0000
2222
3333
0000
0000
,
1111
0000
1111
0000
0110
1111
0110
0110
,
1111
0000
1111
0000
0110
1111
0110
0110
,
1111
0000
1111
0000
0110
1111
0110
0110
,
1111
0000
1100
0000
1100
0000
1100
0000
1100
1100
1100
1100
1100
1100
1100
1100
,
0022
0000
0033
0000
0001
0000
0220
0330
0000
0000
0100
0000
2002
3003
0000
0000
,
0010
0000
2200
3300
0000
0000
0010
0000
0202
0303
0000
0000
2002
3003
0000
0000
,
2020
3030
0000
0000
0100
0000
0022
0033
0000
0000
0010
0000
2002
3003
0000
0000
,
1000
0000
0022
0033
0000
0000
0000
0000
0000
0000
0110
0000
1100
0000
0110
0000
,
0022
0033
0000
0000
0010
0000
0220
0330
0000
0000
1000
0000
0202
0303
0000
0000
,
0001
0000
2002
3003
0000
0000
0100
0000
2020
3030
0000
0000
0202
0303
0000
0000
,
2200
3300
0000
0000
0010
0000
0202
0303
0000
0000
0100
0000
2020
3030
0000
0000
,
1000
0000
0000
0000
0000
0000
0202
0000
0000
0303
0000
0000
0000
0000
0000
0000
0000
0000
0000
0000
0000
0000
0000
0000
1000
0000
0000
0100
0000
0000
0010
0000
0000
0100
0000
0000
1000
0000
0100
0000
0010
0000
0001
0000
0010
0000
0100
0000
,
1011
0100
1010
0001
1110
0001
1010
0100
1011
0100
0011
1000
0111
1000
0101
0010
,
1101
0010
1100
0001
1110
0001
1100
0010
1101
0010
1001
0100
1011
0100
0011
1000
,
0111
1000
0110
0001
1110
0001
1010
0100
1011
0100
0011
1000
0111
1000
0101
0010
,
1101
0010
1001
0100
1011
0100
1010
0001
1110
0001
0110
1000
0111
1000
0011
0100
,
1011
0100
1010
0001
1110
0001
1100
0010
1101
0010
0101
1000
0111
1000
0011
0100
,
1011
0100
1001
0010
1101
0010
0101
1000
0111
1000
0110
0001
1110
0001
1100
0010
,
1101
0010
0101
1000
0111
1000
0011
0100
1011
0100
0011
1000
0111
1000
0110
0001
,
1110
0001
1100
0010
1101
0010
0101
1000
0111
1000
0011
0100
1011
0100
1010
0001
,
1111
0000
0110
1111
0000
0110
1111
0000
,
0110
1111
0000
0110
1111
0110
1111
0110
,
1111
0000
0110
1111
0000
0110
1111
0000
,
0110
1111
0000
0000
1111
0000
1111
0000
,
1111
0000
0110
1111
0000
0110
1111
0000
,
0110
1111
0110
0110
1111
0110
1111
0110
,
1111
0000
0110
1111
0000
0110
1111
0000
,
0110
1111
0000
0110
1111
0110
1111
0110
,
1111
0000
0110
1111
0000
0110
1111
0000
,
0110
1111
0000
0110
1111
0110
1111
0110
,
1111
0000
0110
1111
0000
0110
1111
0000
,
0110
1111
0000
0000
1111
0000
1111
0110
,
1111
0000
0110
1111
0000
0110
1111
0000
,
0110
0110
1111
0110
1111
0110
1111
0110
,
1011
0100
0010
0100
1000
0100
0010
0001
0010
1101
0010
0100
0010
0001
0010
0100
1000
0100
1011
0100
0010
0100
1000
0100
,
0010
0001
0010
1101
0010
0100
1000
0100
0010
0100
1000
0100
1011
0100
1000
0011
1000
0100
0011
1000
0100
0011
1000
0100
,
0011
0110
1010
1001
0011
1100
0110
1001
,
0101
1100
0110
1010
0101
1001
1100
0011
,
1100
0110
1001
0101
0110
1100
0011
0110
,
1010
0101
1001
0110
1100
0011
1100
2222
,
0000
0000
0000
3333
0000
0000
0000
0000
;
