#TITLE:12 Little Fragments Of Silence;
#SUBTITLE:EXoduz Violation II;
#ARTIST:Betwixt & Between;
#TITLETRANSLIT:;
#SUBTITLETRANSLIT:;
#ARTISTTRANSLIT:;
#CREDIT:;
#BANNER:../Banner.png;
#BACKGROUND:../Background.png;
#LYRICSPATH:;
#CDTITLE:;
#MUSIC:12 Little Fragments Of Silence.ogg;
#OFFSET:0.931;
#SAMPLESTART:95.781;
#SAMPLELENGTH:11.840;
#SELECTABLE:YES;
#DISPLAYBPM:220.000;
#BPMS:0.000=220.000;
#STOPS:;
#BGCHANGES:;
// cache tags:
#FIRSTBEAT:4.000;
#LASTBEAT:1176.000;
#SONGFILENAME:Songs/EXoduz Violation II/12 little fragments of silence - [Ov3rHell3XoduZ]/12 little fragments of silence.sm;
#HASMUSIC:1;
#HASBANNER:1;
#MUSICLENGTH:325.397;
// end cache tags

//---------------dance-single - ----------------
#NOTES:
     dance-single:
     :
     Beginner:
     14:
     1.000,1.000,0.212,0.876,0.515,2103.000,69.000,285.000,4.000,3.000:
0000
0000
0000
0000
,
1000
0001
0200
0000
0310
2000
0000
3100
,
0010
0001
1000
0010
0100
0001
1000
0001
,
0020
0230
2300
3020
,
0130
0001
1000
0100
0020
0000
0000
0000
,
0031
2000
0000
3001
2000
0000
3100
0010
,
0001
0000
1000
0000
0010
0000
0100
0000
0001
1000
0100
1000
0001
0100
0001
0010
,
0100
2000
0000
3010
0200
0000
0301
0010
,
0100
1000
0001
0100
0002
0000
0000
0000
,
1003
0200
0000
0310
0002
0000
1003
0010
,
1000
0100
0010
0001
1000
0010
0100
0001
,
0110
0000
0000
1100
0000
0000
1010
0000
0000
0110
0000
0000
0101
0000
0000
0000
,
1000
0100
0010
0001
2000
0000
0000
3000
,
0101
0000
0000
0110
0000
0000
1010
0000
0000
1100
0000
0000
0110
0000
0000
0000
,
0010
0001
1000
0100
1000
0010
0100
0001
,
0202
0000
0000
0000
0000
0000
0000
0303
,
0220
0000
0000
0000
0000
0000
0000
0330
,
2020
0000
0000
3030
2200
0000
0000
3300
,
0220
0330
0022
0033
0202
0303
2002
3003
,
1000
0001
0100
0001
0010
0001
1000
0100
,
0020
0032
2003
3200
2300
3010
0100
0001
,
1000
0001
0100
0001
0010
0100
0010
0001
,
2000
3020
0230
0302
0023
0230
2300
3010
,
0100
0001
1000
0100
1000
0001
0100
0010
,
2000
3200
0320
0032
2003
3010
0100
0001
,
1000
0010
0100
0010
1000
0100
0010
0001
,
2000
3010
0200
0301
0020
0230
2300
3001
,
1000
0001
0100
0001
0010
0100
1000
0010
,
0200
0302
2003
3200
0320
0031
0100
0001
,
0010
0100
1000
0010
1000
0100
0010
0001
,
2000
3010
0200
0301
0020
0130
1000
0001
,
1000
0100
0010
0100
1000
0010
0100
0001
,
0020
0230
2300
3002
0203
0310
1000
0100
,
0010
0001
0100
0001
0010
0100
1000
0001
,
0101
0000
0000
0110
0000
0000
1010
0000
0000
1001
0000
0000
0101
0000
0010
1000
,
0100
0010
0001
1000
0010
0100
0001
0010
,
0001
0000
0000
0000
0000
0000
1000
0000
0000
0000
0000
0000
0100
0000
0000
0000
0000
0000
0010
0000
0000
0000
0000
0000
0001
0000
0100
0000
0001
0000
0100
0000
0000
0010
0000
0000
1000
0000
0100
0000
1000
0000
0100
0000
0000
0000
0000
0000
,
0010
0000
0000
0001
0000
0000
0100
0000
0000
0001
0000
0000
0010
0000
0000
0100
0000
0000
1000
0001
1000
0001
0000
0000
,
0100
0010
1000
0100
1000
0010
0100
0001
,
0010
0100
1000
0001
0100
0001
1000
0010
,
1000
0100
0010
0001
1000
0010
0220
0330
,
0100
0000
0000
0001
0000
0000
1000
0000
0000
0100
0000
0000
1000
0000
0000
0001
0000
0000
0100
0000
0000
0010
1000
0010
,
1000
0100
0010
0001
1000
0010
1000
0100
,
0010
0001
0100
0001
0010
0001
1000
0100
,
0010
0100
1000
0010
0100
0001
2002
3003
,
1000
0100
1000
0010
0100
0001
0010
0001
,
1000
0010
0100
0001
0010
0100
1000
0001
,
0100
0001
1000
0100
0010
0001
1000
0010
,
0100
0001
1000
0100
1000
0010
0100
0001
,
1000
0100
0010
0001
0100
0001
0010
0100
,
1000
0001
0100
0010
1000
0100
0010
0001
1000
0010
0100
0001
0010
0100
1000
0001
,
0100
0001
0010
0001
1000
0100
1000
0010
0100
0001
0010
0100
1000
0000
0001
0000
,
0100
0010
1000
0100
1000
0010
0100
0001
0010
0100
1000
0001
0100
0000
0010
0000
,
1000
0100
0010
0100
1000
0010
1000
0100
0010
0001
1000
0010
0100
0000
0001
0000
,
0010
0100
1000
0001
0100
0001
1000
0100
0010
0001
1000
0010
1000
0000
0100
0000
,
0010
0001
0100
0001
0010
0100
1000
0001
0100
0001
1000
0100
0010
0000
0001
0000
,
1000
0010
1000
0100
1000
0010
0100
0001
0010
0100
1000
0001
0100
0000
0010
0000
,
1000
0100
1000
0010
0100
0001
0010
0100
1000
0001
0100
0001
1000
0000
0100
0000
,
0010
0001
1000
0100
1000
0000
0010
0100
0001
0000
0010
0100
1000
0000
0001
0000
,
0100
0010
1000
0100
1000
0010
0100
0001
0010
0100
1000
0001
0100
0000
0010
0000
,
1000
0100
0010
0001
1000
0001
0010
0001
1000
0100
0010
0001
1000
0000
0010
0000
,
0100
0001
0010
0001
1000
0100
0010
0001
1000
0010
1000
0100
0010
0000
0001
0000
,
0100
0001
0010
0100
1000
0001
0100
0001
1000
0100
0010
0001
1000
0000
0010
0000
,
0100
0001
1000
0100
1000
0010
0100
0001
0010
0100
1000
0001
0100
0001
1000
0100
,
1000
0010
0100
0001
0010
0100
1000
0001
0100
0001
1000
0100
0010
0001
1000
0010
,
0100
0001
1000
0100
0010
0001
1000
0010
0100
0001
0010
0001
1000
0100
0010
0001
,
1000
0010
1000
0100
1000
0010
0100
0001
0010
0100
1000
0001
0100
0010
1000
0100
,
0020
0031
0100
0001
0010
0100
1000
0001
,
2000
3200
2300
3200
2300
3010
0100
0001
,
0010
0110
0100
1100
1000
0010
0100
0001
,
0020
0230
2300
3200
0320
0031
0100
0001
,
0010
0110
0100
1100
1000
0010
0100
0001
,
2000
3002
0203
0302
2003
3100
0010
0001
,
1000
1010
0010
0110
0100
0001
0010
0001
,
1000
0000
0002
0000
0000
0000
0103
0000
0010
1000
0100
1000
0010
0100
0001
0010
,
0100
1100
1000
1010
0010
0110
0100
0101
,
0002
0203
0302
2003
3200
0310
0001
1000
,
0010
0110
0010
1010
1000
1100
0100
0110
,
0020
0032
0203
0302
0023
0130
1000
0001
,
1000
1100
0100
0110
0010
0011
0001
0101
,
0200
0320
2030
3200
2300
3010
0100
0001
,
0010
0200
0300
0100
2000
0000
3001
0100
,
0001
0000
1000
0000
0000
0000
1000
0000
0100
0010
0001
0100
0001
0010
0100
1000
,
0001
0100
0001
0010
0001
1000
0100
0010
0001
1000
0001
0010
0200
0000
0300
0000
,
0100
1000
0010
0100
0001
0010
0001
1000
0100
0010
0001
1000
0010
0100
0001
1000
,
0100
0010
0001
1000
0100
1000
0010
0100
0001
0010
0100
1000
0002
0000
0003
0000
,
1000
0000
0000
0001
0000
0000
0100
0000
0000
0001
0000
0000
0010
0000
0000
0100
0000
0000
1000
0000
0000
0001
0000
0000
0100
0000
0000
0000
0001
0000
0000
0000
1000
0000
0000
0000
0100
0000
0000
0000
1000
0000
0000
0000
0010
0000
0000
0000
,
0100
0000
0001
0000
0010
0000
0200
0000
0000
0300
0000
0000
2200
0000
0000
3300
0000
0000
2020
0000
0000
3030
0000
0000
,
0220
0330
0202
0303
2002
3003
2200
3300
,
2020
3030
0220
0330
0202
0303
2002
0000
,
0000
0000
0000
3003
0000
0000
1000
0001
1000
0001
1000
0001
2000
0000
0000
0000
0000
0000
3002
0000
0000
0203
0000
0000
,
0310
1000
0100
1000
0010
0100
0001
0010
0100
1000
0001
0100
0001
1000
0100
0000
,
0010
0001
1000
0001
0100
0001
0010
0001
1000
0100
0010
0001
1000
0000
0010
0000
,
0100
0001
1000
0100
0010
0001
1000
0010
0100
0001
1000
0100
1000
0000
0010
0000
,
0100
0001
0010
0001
1000
0100
0010
0001
1000
0001
0010
0100
1000
0000
0001
0000
,
0100
0010
1000
0100
1000
0010
0100
0001
0010
0100
1000
0001
1000
0000
0100
0000
,
0010
0001
1000
0010
1000
0100
0010
0001
1000
0010
0100
0001
0010
0000
0100
0000
,
1000
0001
0100
0001
1000
0010
0100
0001
0010
0100
1000
0001
0100
0000
0010
0000
,
2000
0000
3002
0000
2003
0000
0000
3002
0000
0000
0203
0000
0320
0000
2030
0000
,
3200
0000
0310
0001
0100
0001
0010
0100
1000
0001
0100
0010
1000
0100
0010
0000
,
0001
0000
1000
0100
1000
0010
0100
0001
0010
0100
1000
0001
0100
0010
1000
0000
,
0100
0000
0010
0001
1000
0001
0100
0001
0010
0100
1000
0010
0100
0001
1000
0000
,
0100
0000
0010
0001
1000
0010
1000
0100
0010
0001
1000
0010
0100
0001
0010
0000
,
0100
0000
1000
0001
0100
0001
1000
0100
0010
0001
1000
0010
1000
0100
0010
0000
,
0001
0000
0100
0000
0010
1000
0100
1000
0010
0100
0001
0010
0100
1000
0001
0000
,
0100
0000
0010
1000
0100
1000
0010
0100
0001
0010
0100
1000
0001
0100
0010
0000
,
1000
0100
1000
0010
0100
0001
0010
0100
1000
0001
0100
0001
0010
0100
1000
0001
,
0200
0000
0320
0000
2030
3200
2300
0000
,
3002
0000
0203
0000
0320
2030
3020
0000
,
0230
0000
0302
0000
0023
0230
0320
0000
,
0032
0000
0203
0000
0302
0023
0032
0000
,
2003
0000
3020
0000
0230
0302
0203
0000
,
0320
0000
2030
0000
3200
0320
0032
0000
,
2003
0000
3200
0000
2300
3020
0230
0000
,
0302
0000
0000
0000
0023
0000
0000
0000
0230
0000
1300
0010
0100
0001
1000
0100
,
0010
0001
0100
0001
0010
0100
1000
0001
0100
0001
1000
0100
0010
0000
0000
0000
,
0001
0100
0001
0010
0100
1000
0001
1000
0100
1000
0010
0100
0001
0000
0000
0000
,
1000
0100
0010
0001
1000
0010
0100
0001
1000
0100
1000
0001
0100
0000
0000
0000
,
0010
1000
0100
1000
0010
0100
0001
0010
0100
1000
0001
0100
0001
0010
0001
0010
,
0002
0000
2003
0000
3200
0320
0032
0000
,
2003
0000
3020
0000
0230
0302
2003
0000
,
3200
0000
0320
0000
0032
0203
0320
0000
,
2030
0000
3200
0000
2300
3020
0230
0000
,
0301
0010
0001
1000
0100
0010
0100
1000
,
0010
0100
0001
1000
0100
1000
0010
0100
,
0001
0010
0100
1000
0001
0100
0001
1000
,
0100
0010
0001
1000
0010
1000
0100
1000
,
0010
0100
0001
0010
0001
1000
0100
0010
,
0001
1000
0001
0010
0001
1000
0010
0100
,
0001
1000
0100
1000
0010
0100
0001
0010
,
1100
0000
0000
1010
0000
0000
0101
0000
0000
0011
0000
0000
0110
0000
1000
0001
,
0100
0010
1000
0100
1000
0010
0100
0001
,
0010
0001
1000
0100
0010
0001
1000
0010
,
1000
0100
0010
0001
1000
0010
0100
0001
,
0010
0000
0100
0000
1000
0000
0001
0000
0100
0000
0001
0000
1000
0100
0010
0001
,
1000
0100
1000
0010
0100
0001
0010
0100
,
1000
0001
0100
0001
1000
0010
0100
0001
,
0020
0230
2300
3020
0230
0320
2030
3200
,
0310
0001
0100
0001
0010
0100
1000
0001
0100
0001
1000
0100
1000
0010
0100
0000
,
0101
0000
0000
0000
,
0000
0000
0000
0000
,
0000
0000
0000
0000
,
0000
0000
0000
0000
,
0000
0000
0000
0000
,
0000
0000
0000
0000
,
0000
0000
0000
0000
,
0000
0000
0000
0000
,
0000
0000
0000
0000
,
0000
0000
0000
0000
,
0000
0000
0000
0000
,
0000
0000
0000
0000
,
0000
0000
0000
0000
,
0000
0000
0000
0000
,
0000
0000
0000
0000
,
0000
0000
0000
1101
,
2222
0000
0000
0000
,
3333
0000
0000
0002
,
0000
0000
0000
2003
,
3200
0000
0000
0320
,
0000
0000
0000
0032
,
0203
0000
0000
0320
,
0000
0000
0000
2030
,
3200
0000
0000
0320
,
0000
0000
0000
0032
,
2003
0000
0000
3020
,
0000
0000
0000
0230
,
0302
0000
0000
0023
,
0000
0000
0000
0000
,
0000
0000
0000
0230
,
0000
0000
0000
0000
1300
0001
0100
0001
1000
0010
0100
0001
1000
0100
1000
0010
,
0100
0001
0010
0100
1000
0001
0100
0010
1000
0100
0010
0001
2000
0000
0000
0000
,
3001
0100
0001
1000
0010
1000
0100
0010
,
0001
1000
0100
1000
0010
0100
0001
0010
,
0100
1000
0001
0100
0001
1000
0100
0010
,
0001
1000
0010
1000
0001
0010
0001
1000
,
0100
0010
0001
1000
0010
1000
0100
0010
,
0001
1000
0100
1000
0010
0100
0001
0010
,
0100
1000
0001
0100
0010
1000
0100
1000
,
0010
0100
0001
0010
0100
1000
0001
0100
,
0001
1000
0100
0010
0001
1000
0010
1000
,
0001
0010
0001
1000
0100
0010
0001
1000
,
0010
0100
0001
1000
0100
1000
0010
0100
,
0001
0010
0100
1000
0001
0100
0001
1000
,
0100
1000
0010
0100
0001
0010
0100
1000
,
0001
0100
0001
0010
0100
1000
0010
0100
,
0002
0000
0000
0000
,
4003
0000
0000
0000
0000
0000
3001
0100
,
0001
1000
0100
1000
0010
0100
0001
1000
,
0200
0320
0032
0003
,
1000
0001
0100
0001
0010
0100
1000
0001
,
0200
0320
2030
3000
,
0001
0002
0000
0000
0003
0110
0000
0000
,
0020
2030
3200
0300
,
0010
0001
0100
0001
0010
0100
1000
0001
,
0200
0320
2030
3000
,
0100
0100
0000
0000
0000
0010
0000
0000
,
0001
0001
0000
0000
0000
0100
0000
0000
,
0010
0010
0000
0000
0000
1000
0000
0000
,
0100
0100
0000
0000
0000
0010
0000
0000
,
0001
0001
0000
0000
0100
0100
0000
0000
,
0010
0010
0000
0000
1000
1000
0000
0000
,
0100
0100
0000
0000
0010
0010
0000
0000
,
0000
0000
0000
0000
,
0001
0100
0001
0010
0100
1000
0001
1000
,
0100
0010
0001
1000
0010
1000
0100
0010
,
0001
1000
0100
1000
0010
0100
0001
0010
,
0100
1000
0001
0100
0010
1000
0100
1000
,
0010
0100
0001
0010
0100
1000
0001
0100
,
0001
1000
0010
0100
0001
1000
0100
1000
,
0010
0100
0001
0010
0100
1000
0001
0100
,
0001
1000
0010
0100
0001
0010
0100
1000
,
0001
0100
0001
1000
0010
0100
0001
1000
,
0100
1000
0010
0100
0001
0010
0100
1000
,
0001
0100
0001
1000
0010
0100
0001
0010
,
0001
1000
0100
0010
0001
1000
0010
1000
,
0100
0010
0001
1000
0010
0100
0001
0010
,
0001
1000
0100
0010
0001
1000
0010
1000
,
0100
1000
0010
0100
0001
0010
0100
1000
,
0001
0100
0001
1000
0100
0010
0001
1000
,
0010
0000
0100
0001
0010
0000
0100
1000
0010
0000
0100
0001
0010
0000
0100
1000
,
0010
0000
0100
0001
0010
0000
0100
1000
0010
0000
0100
0001
0010
0000
0100
1000
,
0010
0000
0000
0110
0000
0000
0101
0000
0000
0011
0000
0000
0110
0000
1000
0001
,
0100
0010
1000
0100
0010
0001
4000
0000
0000
0000
0000
0000
,
3100
0000
0000
0000
,
0020
0032
0203
0302
0023
0030
0000
0000
,
0010
0001
0100
0001
0010
0100
1000
0001
,
1000
0100
1000
0010
0100
0010
1000
0100
,
0010
0001
1000
0010
1000
0001
0010
0100
,
0010
0001
1000
0100
1000
0010
0100
0001
,
1000
0100
1000
0010
0100
0001
0010
0001
,
1000
0100
0010
0001
1000
0100
1000
0010
,
0100
0001
0010
0100
1000
0001
0100
0001
,
1000
0100
0010
0001
1000
0010
1000
0001
,
0010
0100
1000
0001
0100
0001
1000
0100
,
0010
0001
1000
0010
1000
0100
0010
0001
,
0100
0001
0010
0100
1000
0010
0100
0001
,
1000
0100
1000
0010
0100
0001
0010
0100
,
1000
0001
0100
0001
1000
0010
0100
0010
,
1000
0100
0010
0001
1000
0010
1000
0100
,
0010
0001
1000
0010
0100
0001
0010
0001
,
1000
0100
0010
0001
1000
0010
0100
0001
,
0010
0001
1000
0100
0010
0100
1000
0010
,
0100
0001
1000
0100
1000
0010
0100
0001
,
0010
0100
1000
0001
0100
0010
1000
0100
,
0010
0001
1000
0010
1000
0001
0010
0100
,
2000
3002
0203
0320
,
2030
3200
0320
0032
,
2003
3020
2030
3002
,
0023
0230
2300
3002
,
1003
0100
1000
0010
0100
0001
0010
0100
,
1000
0001
0100
0001
1000
0100
0010
0001
,
2000
3020
0230
0302
,
0023
0230
2300
3020
,
0130
0001
1000
0100
1000
0010
0100
0001
,
0020
0230
2300
3002
,
1003
0000
0000
0010
0000
0000
0100
0000
0000
0010
0000
0000
1000
0000
0000
0100
0000
0000
0010
0000
0000
0001
0100
0001
,
0200
0320
2030
3200
,
0310
0001
0100
0001
1000
0100
0010
0100
,
1000
0010
0100
0001
1000
0100
1000
0010
,
0100
0001
0010
0100
1000
0001
0100
0001
,
1000
0100
0010
0001
1000
0010
1000
0001
,
0010
0100
1000
0001
0100
0001
1000
0100
,
0010
0001
0100
0001
1000
0100
0010
0100
,
1000
0010
0100
0001
1000
0100
1000
0010
,
0100
0001
0010
0100
1000
0001
0100
0001
,
1000
0100
0010
0001
1000
0010
1000
0001
,
0010
0100
1000
0010
0100
0001
1000
0100
,
0010
0100
1000
0010
0100
0001
1000
0100
,
0010
0001
1000
0010
1000
0001
0010
0100
,
1000
0001
0100
0001
1000
0100
0010
0001
,
1000
0010
1000
0001
0010
0100
1000
0010
,
0100
0001
1000
0100
0010
0001
1000
0010
,
0200
0302
0023
0230
,
1300
0001
0100
0001
0010
0000
0100
1000
,
0000
0100
1000
0000
0010
0000
0000
0000
,
0100
0001
0010
0100
1000
0000
0001
0100
,
0000
0001
0100
0000
0010
0000
0000
0000
,
1000
0100
0010
0001
1000
0000
0001
0100
,
0000
0001
0100
0000
0010
0000
1000
0100
,
0010
0000
0001
0000
0100
0000
0010
1000
,
0100
0010
0001
0100
,
0010
1000
0100
1000
0100
0000
0010
0001
,
0000
1000
0100
0000
0010
0000
0000
0000
,
0001
0100
0001
1000
0100
0000
0010
0001
,
0000
0010
0001
0000
1000
0000
0000
0000
,
0010
0100
0001
0100
0010
0000
1000
0100
,
0000
1000
0100
0000
0010
0000
0000
0000
,
0001
0100
0010
1000
0100
0000
0000
0000
,
0000
0000
0000
0000
,
2222
0000
0000
0000
,
0000
0000
0000
0000
,
0000
0000
0000
0000
,
0000
0000
0000
0000
,
3333
0000
0000
0000
,
MMMM
0000
0000
0000
;

//---------------dance-single - ----------------
#NOTES:
     dance-single:
     :
     Easy:
     15:
     1.000,1.000,0.157,0.876,0.751,2260.000,51.000,285.000,4.000,3.000:
0000
0000
0000
0000
,
1000
0001
0200
0000
0310
2000
0000
3100
,
0010
0001
1000
0010
0100
0001
1000
0001
,
0020
0230
2300
3020
,
0130
0001
1000
0100
0020
0000
0000
0000
,
0031
2000
0000
3001
2000
0000
3100
0010
,
0001
0000
1000
0000
0010
0000
0100
0000
0001
1000
0100
1000
0001
0100
0001
0010
,
0100
2000
0000
3010
0200
0000
0301
0010
,
0100
1000
0001
0100
0002
0000
0000
0000
,
1003
0200
0000
0310
0002
0000
1003
0010
,
1000
0100
0010
0001
1000
0010
0100
0001
,
0110
0000
0000
1100
0000
0000
1010
0000
0000
0110
0000
0000
0101
0000
0000
0000
,
1000
0100
0010
0001
2000
0000
0000
3000
,
0101
0000
0000
0110
0000
0000
1010
0000
0000
1100
0000
0000
0110
0000
0000
0000
,
0010
0001
1000
0100
1000
0010
0100
0001
,
0202
0000
0000
0000
0000
0000
0000
0303
,
0220
0000
0000
0000
0000
0000
0000
0330
,
2020
0000
0000
3030
2200
0000
0000
3300
,
0220
0330
0022
0033
0202
0303
2002
3003
,
1000
0001
0100
0001
0010
0001
1000
0100
,
0020
0032
2003
3200
2300
3010
0100
0001
,
1000
0001
0100
0001
0010
0100
0010
0001
,
2000
3020
0230
0302
0023
0230
2300
3010
,
0100
0001
1000
0100
1000
0001
0100
0010
,
2000
3200
0320
0032
2003
3010
0100
0001
,
1000
0010
0100
0010
1000
0100
0010
0001
,
2000
3010
0200
0301
0020
0230
2300
3001
,
1000
0001
0100
0001
0010
0100
1000
0010
,
0200
0302
2003
3200
0320
0031
0100
0001
,
0010
0100
1000
0010
1000
0100
0010
0001
,
2000
3010
0200
0301
0020
0130
1000
0001
,
1000
0100
0010
0100
1000
0010
0100
0001
,
0020
0230
2300
3002
0203
0310
1000
0100
,
0010
0001
0100
0001
0010
0100
1000
0001
,
0101
0000
0000
0110
0000
0000
1010
0000
0000
1001
0000
0000
0101
0000
0010
1000
,
0100
0010
0001
1000
0010
0100
0001
0010
,
0001
0000
0000
0000
0000
0000
1000
0000
0000
0000
0000
0000
0100
0000
0000
0000
0000
0000
0010
0000
0000
0000
0000
0000
0001
0000
0100
0000
0001
0000
0100
0000
0000
0010
0000
0000
1000
0000
0100
0000
1000
0000
0100
0000
0000
0000
0000
0000
,
0010
0000
0000
0001
0000
0000
0100
0000
0000
0001
0000
0000
0010
0000
0000
0100
0000
0000
1000
0001
1000
0001
0000
0000
,
0100
0010
1000
0100
1000
0010
0100
0001
,
0010
0100
1000
0001
0100
0001
1000
0010
,
1000
0100
0010
0001
1000
0010
0220
0330
,
0100
0000
0000
0001
0000
0000
1000
0000
0000
0100
0000
0000
1000
0000
0000
0001
0000
0000
0100
0000
0000
0010
1000
0010
,
1000
0100
0010
0001
1000
0010
1000
0100
,
0010
0001
0100
0001
0010
0001
1000
0100
,
0010
0100
1000
0010
0100
0001
2002
3003
,
1000
0100
1000
0010
0100
0001
0010
0001
,
1000
0010
0100
0001
0010
0100
1000
0001
,
0100
0001
1000
0100
0010
0001
1000
0010
,
0100
0001
1000
0100
1000
0010
0100
0001
,
1000
0100
0010
0001
0100
0001
0010
0100
,
1000
0001
0100
0010
1000
0100
0010
0001
1000
0010
0100
0001
0010
0100
1000
0001
,
1000
0100
0010
0100
1000
0010
0100
0001
1000
0100
1000
0001
0100
0001
0010
0100
,
1000
0010
0100
0001
1000
0100
1000
0010
0100
0001
0010
0100
1000
0010
0100
0001
,
1000
0100
1000
0010
0100
0001
0010
0100
0010
0001
1000
0100
1000
0010
0100
0001
,
1000
0100
1000
0001
0100
0001
1000
0100
0010
0001
1000
0010
1000
0000
0100
0000
,
0010
0001
0100
0001
0010
0100
1000
0001
0100
0001
1000
0100
0010
0001
1000
0010
,
1000
0001
0010
0100
1000
0010
0100
0001
1000
0100
1000
0010
0100
0001
0010
0100
,
1000
0100
0010
0001
1000
0100
1000
0010
0100
0001
0010
0100
1000
0001
0100
0001
,
1000
0010
1000
0100
1000
0000
0010
0100
0001
0000
0010
0100
1000
0000
0001
0000
,
0100
0010
1000
0100
1000
0010
0100
0001
0010
0100
1000
0001
0100
0000
0010
0000
,
1000
0100
0010
0001
1000
0001
0010
0001
1000
0100
0010
0001
1000
0000
0010
0000
,
0100
0001
0010
0001
1000
0100
0010
0001
1000
0010
1000
0100
0010
0000
0001
0000
,
0100
0001
0010
0100
1000
0001
0100
0001
1000
0100
0010
0001
1000
0000
0010
0000
,
0100
0001
1000
0100
1000
0010
0100
0001
0010
0100
1000
0001
0100
0001
1000
0100
,
1000
0010
0100
0001
0010
0100
1000
0001
0100
0001
1000
0100
0010
0001
1000
0010
,
0100
0001
1000
0100
0010
0001
1000
0010
0100
0001
0010
0001
1000
0100
0010
0001
,
1000
0010
1000
0100
1000
0010
0100
0001
0010
0100
1000
0001
0100
0010
1000
0100
,
0010
0001
0100
0001
1000
0010
0100
0001
1000
0100
1000
0010
0100
0001
0010
0100
,
2000
3200
2300
3200
2300
3010
0100
0001
,
0010
0100
1000
0001
0100
0001
1000
0010
0100
0001
0010
0100
1000
0001
0100
0001
,
1000
0200
2300
3200
0320
0031
0100
0001
,
0010
0100
1000
0001
0100
0001
1000
0010
0100
0001
0010
0100
1000
0001
0100
0001
,
2000
3002
0203
0302
2003
3100
0010
0001
,
1000
0100
1000
0010
0100
0001
1000
0100
0010
0001
1000
0010
1000
0100
0010
0001
,
2000
0000
3002
0000
0000
0000
0103
0000
0010
1000
0100
1000
0010
0100
0001
0010
,
0100
1000
0001
0100
0001
1000
0100
0010
0001
1000
0010
1000
0001
0010
0100
1000
,
0002
0203
0302
2003
3200
0310
0001
1000
,
0010
0100
0001
1000
0100
1000
0010
0100
0001
0010
0100
1000
0001
0100
0001
1000
,
0020
2030
3200
0320
0032
1003
0001
0100
,
0010
1000
0100
1000
0010
0100
0001
0010
0100
1000
0001
0100
0001
1000
0100
0010
,
0002
2003
3020
0230
0302
1003
0100
1000
,
0010
0200
0300
0100
0002
0000
0013
0100
,
1000
0000
0002
0000
0000
0000
1003
0000
0100
0010
0001
0100
0001
0010
0100
1000
,
0001
0100
0001
0010
0001
1000
0100
0010
0001
1000
0001
0010
0200
0000
0300
0000
,
0100
1000
0010
0100
0001
0010
0001
1000
0100
0010
0001
1000
0010
0100
0001
1000
,
0100
0010
0001
1000
0100
1000
0010
0100
0001
0010
0100
1000
0002
0000
0003
0000
,
1000
0000
0000
0001
0000
0000
0100
0000
0000
0001
0000
0000
0010
0000
0000
0100
0000
0000
1000
0000
0000
0001
0000
0000
0100
0000
0000
0000
0001
0000
0000
0000
1000
0000
0000
0000
0100
0000
0000
0000
1000
0000
0000
0000
0010
0000
0000
0000
,
0100
0000
0001
0000
0010
0000
0200
0000
0000
0300
0000
0000
2200
0000
0000
3300
0000
0000
2020
0000
0000
3030
0000
0000
,
0220
0330
0202
0303
2002
3003
2200
3300
,
2020
3030
0220
0330
0202
0303
2002
0000
,
0000
0000
0000
3003
0000
0000
1000
0001
1000
0001
1000
0001
2000
0000
0000
0000
0000
0000
3002
0000
0000
0203
0000
0000
,
0310
1000
0100
1000
0010
0100
0001
0010
0100
1000
0001
0100
0001
1000
0100
0000
,
0010
0001
1000
0001
0100
0001
0010
0001
1000
0100
0010
0001
1000
0000
0010
0000
,
0100
0001
1000
0100
0010
0001
1000
0010
0100
0001
1000
0100
1000
0000
0010
0000
,
0100
0001
0010
0001
1000
0100
0010
0001
1000
0001
0010
0100
1000
0000
0001
0000
,
0100
0010
1000
0100
1000
0010
0100
0001
0010
0100
1000
0001
1000
0000
0100
0000
,
0010
0001
1000
0010
1000
0100
0010
0001
1000
0010
0100
0001
0010
0000
0100
0000
,
1000
0001
0100
0001
1000
0010
0100
0001
0010
0100
1000
0001
0100
0000
0010
0000
,
2000
0000
3002
0000
2003
0000
0000
3002
0000
0000
0203
0000
0320
0000
2030
0000
,
3200
0000
0310
0001
0100
0001
0010
0100
1000
0001
0100
0010
1000
0100
0010
0000
,
0001
0000
1000
0100
1000
0010
0100
0001
0010
0100
1000
0001
0100
0010
1000
0000
,
0100
0000
0010
0001
1000
0001
0100
0001
0010
0100
1000
0010
0100
0001
1000
0000
,
0100
0000
0010
0001
1000
0010
1000
0100
0010
0001
1000
0010
0100
0001
0010
0000
,
0100
0000
1000
0001
0100
0001
1000
0100
0010
0001
1000
0010
1000
0100
0010
0000
,
0001
0000
0100
0000
0010
1000
0100
1000
0010
0100
0001
0010
0100
1000
0001
0000
,
0100
0000
0010
1000
0100
1000
0010
0100
0001
0010
0100
1000
0001
0100
0010
0000
,
1000
0100
1000
0010
0100
0001
0010
0100
1000
0001
0100
0001
0010
0100
1000
0001
,
0200
0000
0320
0000
2030
3200
2300
0000
,
3002
0000
0203
0000
0320
2030
3020
0000
,
0230
0000
0302
0000
0023
0230
0320
0000
,
0032
0000
0203
0000
0302
0023
0032
0000
,
2003
0000
3020
0000
0230
0302
0203
0000
,
0320
0000
2030
0000
3200
0320
0032
0000
,
2003
0000
3200
0000
2300
3020
0230
0000
,
0302
0000
0000
0000
0023
0000
0000
0000
0230
0000
1300
0010
0100
0001
1000
0100
,
0010
0001
0100
0001
0010
0100
1000
0001
0100
0001
1000
0100
0010
0001
1000
0100
,
1000
0001
0100
0001
1000
0010
0100
0010
1000
0100
0010
0001
1000
0100
1000
0010
,
0100
0001
0010
0001
1000
0100
0010
0001
1000
0010
1000
0001
0100
0001
0010
0100
,
1000
0010
1000
0001
0100
0010
1000
0100
1000
0010
0100
0001
0010
0100
1000
0001
,
0200
0000
0320
0000
2030
3200
0320
0000
,
0032
0000
2003
0000
3020
0230
0302
0000
,
0203
0000
0320
0000
2030
3200
0320
0000
,
0032
0000
0203
0000
0320
2030
3200
0000
,
0310
0001
0100
0001
1000
1000
0100
1000
,
0010
0100
0001
1000
0100
1000
0010
0100
,
0001
0010
0100
1000
0001
0100
0001
1000
,
0100
0010
0001
1000
0010
1000
0100
1000
,
0010
0100
0001
0010
0001
1000
0100
0010
,
0001
1000
0001
0010
0001
1000
0010
0100
,
0001
1000
0100
1000
0010
0100
0001
0010
,
1100
0000
0000
1010
0000
0000
0101
0000
0000
0011
0000
0000
0110
0000
1000
0001
,
0100
0010
1000
0100
1000
0010
0100
0001
,
0010
0001
1000
0100
0010
0001
1000
0010
,
1000
0100
0010
0001
1000
0010
0100
0001
,
0010
0000
0100
0000
1000
0000
0001
0000
0100
0000
0001
0000
1000
0100
0010
0001
,
1000
0100
1000
0010
0100
0001
0010
0100
,
1000
0001
0100
0001
1000
0010
0100
0001
,
0020
0230
2300
3020
0230
0320
2030
3200
,
0310
0001
0100
0001
0010
0100
1000
0001
0100
0001
1000
0100
1000
0010
0100
0000
,
0101
0000
0000
0000
,
0000
0000
0000
0000
,
0000
0000
0000
0000
,
0000
0000
0000
0000
,
0000
0000
0000
0000
,
0000
0000
0000
0000
,
0000
0000
0000
0000
,
0000
0000
0000
0000
,
0000
0000
0000
0000
,
0000
0000
0000
0000
,
0000
0000
0000
0000
,
0000
0000
0000
0000
,
0000
0000
0000
0000
,
0000
0000
0000
0000
,
0000
0000
0000
0000
,
0000
0000
0000
1101
,
2222
0000
0000
0000
,
3333
0000
0000
0002
,
0000
0000
0000
2003
,
3200
0000
0000
0320
,
0000
0000
0000
0032
,
0203
0000
0000
0320
,
0000
0000
0000
2030
,
3200
0000
0000
0320
,
0000
0000
0000
0032
,
2003
0000
0000
3020
,
0000
0000
0000
0230
,
0302
0000
0000
0023
,
0000
0000
0000
0000
,
0000
0000
0000
0230
,
0000
0000
0000
0000
1300
0001
0100
0001
1000
0010
0100
0001
1000
0100
1000
0010
,
0100
0001
0010
0100
1000
0001
0100
0010
1000
0100
0010
0001
2000
0000
0000
0000
,
3001
0100
0001
1000
0010
1000
0100
0010
,
0001
1000
0100
1000
0010
0100
0001
0010
,
0100
1000
0001
0100
0001
1000
0100
0010
,
0001
1000
0010
1000
0001
0010
0001
1000
,
0100
0010
0001
1000
0010
1000
0100
0010
,
0001
1000
0100
1000
0010
0100
0001
0010
,
0100
1000
0001
0100
0010
1000
0100
1000
,
0010
0100
0001
0010
0100
1000
0001
0100
,
0001
1000
0100
0010
0001
1000
0010
1000
,
0001
0010
0001
1000
0100
0010
0001
1000
,
0010
0100
0001
1000
0100
1000
0010
0100
,
0001
0010
0100
1000
0001
0100
0001
1000
,
0100
1000
0010
0100
0001
0010
0100
1000
,
0001
0100
0001
0010
0100
1000
0010
0100
,
0002
0000
0000
0000
,
4003
0000
0000
0000
0000
0000
3001
0100
,
0001
1000
0100
1000
0010
0100
0001
1000
,
0200
0320
0032
0003
,
1000
0001
0100
0001
0010
0100
1000
0001
,
0200
0320
2030
3000
,
0001
0002
0000
0000
0003
0110
0000
0000
,
0020
2030
3200
0300
,
0010
0001
0100
0001
0010
0100
1000
0001
,
0200
0320
2030
3000
,
0100
0100
0000
0000
0000
0010
0000
0000
,
0001
0001
0000
0000
0000
0100
0000
0000
,
0010
0010
0000
0000
0000
1000
0000
0000
,
0100
0100
0000
0000
0000
0010
0000
0000
,
0001
0001
0000
0000
0100
0100
0000
0000
,
0010
0010
0000
0000
1000
1000
0000
0000
,
0100
0100
0000
0000
0010
0010
0000
0000
,
0000
0000
0000
0000
,
0001
0100
0001
0010
0100
1000
0001
1000
,
0100
0010
0001
1000
0010
1000
0100
0010
,
0001
1000
0100
1000
0010
0100
0001
0010
,
0100
1000
0001
0100
0010
1000
0100
1000
,
0010
0100
0001
0010
0100
1000
0001
0100
,
0001
1000
0010
0100
0001
1000
0100
1000
,
0010
0100
0001
0010
0100
1000
0001
0100
,
0001
1000
0010
0100
0001
0010
0100
1000
,
0001
0100
0001
1000
0010
0100
0001
1000
,
0100
1000
0010
0100
0001
0010
0100
1000
,
0001
0100
0001
1000
0010
0100
0001
0010
,
0001
1000
0100
0010
0001
1000
0010
1000
,
0100
0010
0001
1000
0010
0100
0001
0010
,
0001
1000
0100
0010
0001
1000
0010
1000
,
0100
1000
0010
0100
0001
0010
0100
1000
,
0001
0100
0001
1000
0100
0010
0001
1000
,
0010
0000
0100
0001
0010
0000
0100
1000
0010
0000
0100
0001
0010
0000
0100
1000
,
0010
0000
0100
0001
0010
0000
0100
1000
0010
0000
0100
0001
0010
0000
0100
1000
,
0010
0000
0000
0110
0000
0000
0101
0000
0000
0011
0000
0000
0110
0000
1000
0001
,
0100
0010
1000
0100
0010
0001
4000
0000
0000
0000
0000
0000
,
3100
0000
0000
0000
,
0020
0032
0203
0302
0023
0030
0000
0000
,
0010
0001
1000
0100
1000
0010
0100
0001
1000
0100
1000
0010
0100
0001
0010
0100
,
1000
0100
1000
0010
0100
0010
1000
0100
,
0010
0001
0100
0001
1000
0100
0010
0001
1000
0010
1000
0001
0100
0010
1000
0100
,
0010
0001
1000
0100
1000
0010
0100
0001
,
1000
0100
1000
0010
0100
0001
0010
0100
1000
0001
0100
0001
1000
0100
0010
0001
,
1000
0100
0010
0001
1000
0100
1000
0010
,
0100
0001
1000
0100
1000
0010
0100
0001
0010
0100
1000
0001
0100
0001
1000
0100
,
1000
0100
0010
0001
1000
0010
1000
0001
,
0010
0100
1000
0001
0100
0001
1000
0100
,
0010
0001
1000
0010
1000
0100
0010
0001
,
0100
0001
0010
0100
1000
0010
0100
0001
,
1000
0100
1000
0010
0100
0001
0010
0100
,
1000
0001
0100
0001
1000
0010
0100
0010
,
1000
0100
0010
0001
1000
0010
1000
0100
,
0010
0001
1000
0010
0100
0001
0010
0001
,
1000
0100
0010
0001
1000
0010
0100
0001
,
0010
0001
1000
0100
0010
0100
1000
0010
,
0100
0001
1000
0100
1000
0010
0100
0001
,
0010
0100
1000
0001
0100
0010
1000
0100
,
0010
0001
1000
0010
1000
0001
0010
0100
,
2000
3002
0203
0320
,
2030
3200
0320
0032
,
2003
3020
2030
3002
,
0023
0230
2300
3002
,
1003
0100
1000
0010
0100
0001
0010
0100
1000
0001
0100
0010
1000
0100
0010
0001
,
1000
0100
1000
0010
0100
0001
0010
0100
1000
0001
0100
0001
1000
0100
0010
0001
,
2000
3020
0230
0302
,
0023
0230
2300
3020
,
0130
0001
1000
0100
0010
0001
1000
0010
1000
0001
0010
0100
1000
0001
0100
0010
,
2000
3200
2300
3002
,
1003
0000
0000
0010
0000
0000
0100
0000
0000
0010
0000
0000
1000
0000
0000
0100
0000
0000
0010
0000
0000
0001
0100
0001
,
0200
0320
2030
3200
,
0310
0001
0100
0001
1000
0100
0010
0100
,
1000
0010
0100
0001
1000
0100
1000
0010
,
0100
0001
0010
0100
1000
0001
0100
0001
,
1000
0100
0010
0001
1000
0010
1000
0001
,
0010
0100
1000
0001
0100
0001
1000
0100
,
0010
0001
0100
0001
1000
0100
0010
0100
,
1000
0010
0100
0001
1000
0100
1000
0010
,
0100
0001
0010
0100
1000
0001
0100
0001
,
1000
0100
1000
0010
0100
0001
0010
0100
1000
0001
0100
0010
1000
0100
1000
0010
,
0100
0001
0010
0100
1000
0001
0100
0001
1000
0100
0010
0001
1000
0010
1000
0001
,
0010
0001
1000
0100
0010
0001
1000
0010
0100
0001
1000
0100
1000
0010
0100
0001
,
1000
0001
1000
0010
1000
0001
0010
0100
,
1000
0001
0100
0001
1000
0100
0010
0001
,
1000
0010
1000
0001
0010
0100
1000
0010
,
0100
0001
1000
0100
0010
0001
1000
0010
,
0200
0302
0023
0230
,
1300
0001
0100
0001
0010
0000
0100
1000
,
0000
0100
1000
0000
0010
0000
0000
0000
,
0100
0001
0010
0100
1000
0000
0001
0100
,
0000
0001
0100
0000
0010
0000
0000
0000
,
1000
0100
0010
0001
1000
0000
0001
0100
,
0000
0001
0100
0000
0010
0000
1000
0100
,
0010
0000
0001
0000
0100
0000
0010
1000
,
0100
0010
0001
0100
,
0010
1000
0100
1000
0100
0000
0010
0001
,
0000
1000
0100
0000
0010
0000
0000
0000
,
0001
0100
0001
1000
0100
0000
0010
0001
,
0000
0010
0001
0000
1000
0000
0000
0000
,
0010
0100
0001
0100
0010
0000
1000
0100
,
0000
1000
0100
0000
0010
0000
0000
0000
,
0001
0100
0010
1000
0100
0000
0000
0000
,
0000
0000
0000
0000
,
2222
0000
0000
0000
,
0000
0000
0000
0000
,
0000
0000
0000
0000
,
0000
0000
0000
0000
,
3333
0000
0000
0000
,
MMMM
0000
0000
0000
;

//---------------dance-single - ----------------
#NOTES:
     dance-single:
     :
     Medium:
     17:
     1.000,1.000,0.151,0.848,1.000,2580.000,49.000,276.000,4.000,3.000:
0000
0000
0000
0000
,
1000
0001
0200
0000
0310
2000
0000
3100
,
0010
0001
1000
0010
0100
0001
1000
0001
,
0010
0100
1000
0001
0100
0001
1000
0100
0010
0001
1000
0010
0100
0001
1000
0100
,
1000
0001
1000
0100
0020
0000
0000
0000
,
0031
2000
0000
3001
2000
0000
3100
0010
,
0001
0000
1000
0000
0010
0000
0100
0000
0001
1000
0100
1000
0001
0100
0001
0010
,
0100
2000
0000
3010
0200
0000
0301
0010
,
0100
1000
0001
0100
0001
1000
0010
0100
0010
1000
0100
0010
0001
1000
0001
0100
,
0001
0200
0000
0310
2000
0000
3100
0010
,
0001
1000
0100
1000
0010
0100
0001
1000
0100
0010
0001
1000
0001
0100
0001
0000
,
0110
0000
0000
1100
0000
0000
1010
0000
0000
0110
0000
0000
0101
0000
0000
0000
,
1000
0100
0010
0001
2000
0000
0000
3000
,
0101
0000
0000
0110
0000
0000
1010
0000
0000
1100
0000
0000
0110
0000
0000
0000
,
0010
0001
1000
0100
1000
0010
0100
0001
,
0202
0000
0000
0000
0000
0000
0000
0303
,
0220
0000
0000
0000
0000
0000
0000
0330
,
2020
0000
0000
3030
2200
0000
0000
3300
,
0220
0330
0022
0033
0202
0303
2002
3003
,
1000
0001
0100
0001
0010
0001
1000
0100
,
0020
0032
2003
3200
2300
3010
0100
0001
,
1000
0001
0100
0001
0010
0100
0010
0001
,
2000
3020
0230
0302
0023
0230
2300
3010
,
0100
0001
1000
0100
1000
0001
0100
0010
,
2000
3200
0320
0032
2003
3010
0100
0001
,
1000
0010
0100
0010
1000
0100
0010
0001
,
2000
3010
0200
0301
0020
0230
2300
3001
,
1000
0001
0100
0001
0010
0100
1000
0010
,
0200
0302
2003
3200
0320
0031
0100
0001
,
0010
0100
1000
0010
1000
0100
0010
0001
,
2000
3010
0200
0301
0020
0130
1000
0001
,
1000
0100
0010
0100
1000
0010
0100
0001
,
0020
0230
2300
3002
0203
0310
1000
0100
,
0010
0001
0100
0001
0010
0100
1000
0001
,
0101
0000
0000
0110
0000
0000
1010
0000
0000
1001
0000
0000
0101
0000
0010
1000
,
0100
0010
0001
1000
0100
1000
0010
0100
0001
0010
0100
1000
0001
0100
0010
1000
,
0100
0010
0001
0100
0001
0010
0100
1000
0001
0100
0001
1000
0100
0010
0001
1000
,
0100
1000
0010
0100
0001
0010
0100
0010
0001
1000
0100
1000
0010
0100
0001
0010
,
0100
1000
0010
0100
0001
1000
0100
0010
0001
1000
0010
1000
0001
0010
0001
1000
,
0100
0010
0001
1000
0010
0100
0010
1000
0100
0010
0001
0100
0001
0010
0100
1000
,
0001
0100
0001
1000
0100
0010
0001
1000
0010
1000
0001
0010
0100
1000
0001
0100
,
0010
1000
0100
1000
0010
0100
0001
1000
0100
0010
0001
1000
0010
1000
0001
0010
,
0100
1000
0001
0100
0001
1000
0100
0010
0001
1000
0010
1000
0001
0010
0100
1000
,
0100
0010
0001
1000
0010
0100
0001
1000
0100
1000
0010
0100
0001
0010
0100
0010
,
0001
1000
0100
1000
0010
0100
0001
0010
0100
1000
0001
0100
0010
1000
0100
0010
,
0100
1000
0010
0100
0001
0010
0001
1000
0100
0010
0001
1000
0010
1000
0001
0010
,
0001
1000
0100
0010
0001
1000
0010
0100
0010
1000
0100
0010
0001
1000
0010
0100
,
0001
0010
0001
1000
0100
0010
0001
1000
0010
0100
0001
1000
0100
1000
0010
0100
,
0001
0010
0100
0010
0001
1000
0100
1000
0010
0100
0001
0010
0100
0010
0001
1000
,
0010
1000
0001
0010
0001
1000
0100
0010
0001
1000
0010
0100
0001
0010
0100
1000
,
0001
0100
0001
0010
0100
1000
0010
0100
0001
1000
0100
0010
0001
1000
0010
1000
,
0100
0010
0001
0100
0001
0010
0100
1000
0001
0100
0001
1000
0100
0010
0001
1000
,
0010
1000
0100
0010
0001
1000
0010
0100
0001
0010
0100
1000
0001
0100
0001
1000
,
0100
0010
0001
1000
0010
0100
0001
1000
0100
1000
0010
0100
0001
0010
0100
1000
,
0001
0100
0001
0010
0100
1000
0010
0100
0001
1000
0100
0010
0001
1000
0100
0010
,
0001
1000
0100
1000
0010
0100
0001
0010
0100
1000
0001
0100
0001
1000
0100
0010
,
0001
1000
0100
1000
0010
0100
0010
1000
0100
0010
0001
1000
0001
0100
0001
0010
,
0100
1000
0001
0100
0001
1000
0010
0100
0010
1000
0100
0010
0001
1000
0010
0100
,
0001
1000
0010
0100
0001
1000
0100
1000
0010
0100
0001
0010
0100
1000
0001
1000
,
0100
0010
0001
1000
0100
1000
0010
0100
0001
0010
0100
1000
0001
0100
0010
0000
,
1000
0100
0010
0001
1000
0010
0100
0001
1000
0100
1000
0010
0100
0001
0010
0000
,
0100
1000
0001
0100
0001
1000
0100
0010
0001
1000
0010
0100
0010
1000
0100
0000
,
0010
0001
0010
0100
1000
0001
0100
0001
1000
0100
0010
0001
1000
0100
0010
0000
,
0001
0100
0001
1000
0100
1000
0010
0100
0001
0010
0100
1000
0001
0100
0001
0000
,
1000
0010
0100
0001
0010
0100
1000
0001
0100
0001
1000
0100
0010
0001
1000
0010
,
0100
0001
1000
0100
0010
0001
1000
0010
0100
0001
0010
0001
1000
0100
0010
0001
,
1000
0010
1000
0100
1000
0010
0100
0001
0010
0100
1000
0001
0100
0010
1000
0100
,
0010
0001
0100
0001
1000
0010
0100
0001
1000
0100
1000
0010
0100
0001
0010
0100
,
2000
3200
2300
3200
2300
3010
0100
0001
,
0010
0100
1000
0001
0100
0001
1000
0010
0100
0001
0010
0100
1000
0001
0100
0001
,
1000
0200
2300
3200
0320
0031
0100
0001
,
0010
0100
1000
0001
0100
0001
1000
0010
0100
0001
0010
0100
1000
0001
0100
0001
,
2000
3002
0203
0302
2003
3100
0010
0001
,
1000
0100
1000
0010
0100
0001
1000
0100
0010
0001
1000
0010
1000
0100
0010
0001
,
2000
0000
3002
0000
0000
0000
0103
0000
0010
1000
0100
1000
0010
0100
0001
0010
,
0100
1000
0001
0100
0001
1000
0100
0010
0001
1000
0010
1000
0001
0010
0100
1000
,
0002
0203
0302
2003
3200
0310
0001
1000
,
0010
0100
0001
1000
0100
1000
0010
0100
0001
0010
0100
1000
0001
0100
0001
1000
,
0020
2030
3200
0320
0032
1003
0001
0100
,
0010
1000
0100
1000
0010
0100
0001
0010
0100
1000
0001
0100
0001
1000
0100
0010
,
0002
2003
3020
0230
0302
1003
0100
1000
,
0010
0200
0300
0100
0002
0000
0013
0100
,
1000
0000
0002
0000
0000
0000
1003
0000
0100
0010
0001
0100
0001
0010
0100
1000
,
0001
0100
0001
0010
0001
1000
0100
0010
0001
1000
0001
0010
0200
0000
0300
0000
,
0100
1000
0010
0100
0001
0010
0001
1000
0100
0010
0001
1000
0010
0100
0001
1000
,
0100
0010
0001
1000
0100
1000
0010
0100
0001
0010
0100
1000
0002
0000
0003
0000
,
1000
0000
0000
0001
0000
0000
0100
0000
0000
0001
0000
0000
0010
0000
0000
0100
0000
0000
1000
0000
0000
0001
0000
0000
0100
0000
0000
0000
0001
0000
0000
0000
1000
0000
0000
0000
0100
0000
0000
0000
1000
0000
0000
0000
0010
0000
0000
0000
,
0100
0000
0001
0000
0010
0000
0200
0000
0000
0300
0000
0000
2200
0000
0000
3300
0000
0000
2020
0000
0000
3030
0000
0000
,
0220
0330
0202
0303
2002
3003
2200
3300
,
2020
3030
0220
0330
0202
0303
2002
0000
,
0000
0000
0000
3003
0000
0000
1000
0001
1000
0001
1000
0001
2000
0000
0000
0000
0000
0000
3002
0000
0000
0203
0000
0000
,
0310
1000
0100
1000
0010
0100
0001
0010
0100
1000
0001
0100
0001
1000
0100
0000
,
0010
0001
1000
0001
0100
0001
0010
0001
1000
0100
0010
0001
1000
0000
0010
0000
,
0100
0001
1000
0100
0010
0001
1000
0010
0100
0001
1000
0100
1000
0000
0010
0000
,
0100
0001
0010
0001
1000
0100
0010
0001
1000
0001
0010
0100
1000
0000
0001
0000
,
0100
0010
1000
0100
1000
0010
0100
0001
0010
0100
1000
0001
1000
0000
0100
0000
,
0010
0001
1000
0010
1000
0100
0010
0001
1000
0010
0100
0001
0010
0000
0100
0000
,
1000
0001
0100
0001
1000
0010
0100
0001
0010
0100
1000
0001
0100
0000
0010
0000
,
2000
0000
3002
0000
2003
0000
0000
3002
0000
0000
0203
0000
0320
0000
2030
0000
,
3200
0000
0310
0001
0100
0001
0010
0100
1000
0001
0100
0010
1000
0100
0010
0000
,
0001
0000
1000
0100
1000
0010
0100
0001
0010
0100
1000
0001
0100
0010
1000
0000
,
0100
0000
0010
0001
1000
0001
0100
0001
0010
0100
1000
0010
0100
0001
1000
0000
,
0100
0000
0010
0001
1000
0010
1000
0100
0010
0001
1000
0010
0100
0001
0010
0000
,
0100
0000
1000
0001
0100
0001
1000
0100
0010
0001
1000
0010
1000
0100
0010
0000
,
0001
0000
0100
0000
0010
1000
0100
1000
0010
0100
0001
0010
0100
1000
0001
0000
,
0100
0000
0010
1000
0100
1000
0010
0100
0001
0010
0100
1000
0001
0100
0010
0000
,
1000
0100
1000
0010
0100
0001
0010
0100
1000
0001
0100
0001
0010
0100
1000
0001
,
0200
0000
0320
0000
2030
3200
2300
0000
,
3002
0000
0203
0000
0320
2030
3020
0000
,
0230
0000
0302
0000
0023
0230
0320
0000
,
0032
0000
0203
0000
0302
0023
0032
0000
,
2003
0000
3020
0000
0230
0302
0203
0000
,
0320
0000
2030
0000
3200
0320
0032
0000
,
2003
0000
3200
0000
2300
3020
0230
0000
,
0302
0000
0000
0000
0023
0000
0000
0000
0230
0000
1300
0010
0100
0001
1000
0100
,
0010
0001
0100
0001
0010
0100
1000
0001
0100
0001
1000
0100
0010
0001
1000
0100
,
1000
0001
0100
0001
1000
0010
0100
0010
1000
0100
0010
0001
1000
0100
1000
0010
,
0100
0001
0010
0001
1000
0100
0010
0001
1000
0010
1000
0001
0100
0001
0010
0100
,
1000
0010
1000
0001
0100
0010
1000
0100
1000
0010
0100
0001
0010
0100
1000
0001
,
0200
0000
0320
0000
2030
3200
0320
0000
,
0032
0000
2003
0000
3020
0230
0302
0000
,
0203
0000
0320
0000
2030
3200
0320
0000
,
0032
0000
0203
0000
0320
2030
3200
0000
,
0310
0001
0100
0001
1000
1000
0100
1000
,
0010
0100
0001
1000
0100
1000
0010
0100
,
0001
0010
0100
1000
0001
0100
0001
1000
,
0100
0010
0001
1000
0010
1000
0100
1000
,
0010
0100
0001
0010
0001
1000
0100
0010
,
0001
1000
0001
0010
0001
1000
0010
0100
,
0001
1000
0100
1000
0010
0100
0001
0010
,
1100
0000
0000
1010
0000
0000
0101
0000
0000
0011
0000
0000
0110
0000
1000
0001
,
0100
0010
1000
0100
1000
0010
0100
0001
,
0010
0001
1000
0100
0010
0001
1000
0010
,
1000
0100
0010
0001
1000
0010
0100
0001
,
0010
0000
0100
0000
1000
0000
0001
0000
0100
0000
0001
0000
1000
0100
0010
0001
,
1000
0100
1000
0010
0100
0001
0010
0100
,
1000
0001
0100
0001
1000
0010
0100
0001
,
0020
0230
2300
3020
0230
0320
2030
3200
,
0310
0001
0100
0001
0010
0100
1000
0001
0100
0001
1000
0100
1000
0010
0100
0000
,
0101
0000
0000
0000
,
0000
0000
0000
0000
,
0000
0000
0000
0000
,
0000
0000
0000
0000
,
0000
0000
0000
0000
,
0000
0000
0000
0000
,
0000
0000
0000
0000
,
0000
0000
0000
0000
,
0000
0000
0000
0000
,
0000
0000
0000
0000
,
0000
0000
0000
0000
,
0000
0000
0000
0000
,
0000
0000
0000
0000
,
0000
0000
0000
0000
,
0000
0000
0000
0000
,
0000
0000
0000
1101
,
2222
0000
0000
0000
,
3333
0000
0000
0002
,
0000
0000
0000
2003
,
3200
0000
0000
0320
,
0000
0000
0000
0032
,
0203
0000
0000
0320
,
0000
0000
0000
2030
,
3200
0000
0000
0320
,
0000
0000
0000
0032
,
2003
0000
0000
3020
,
0000
0000
0000
0230
,
0302
0000
0000
0023
,
0000
0000
0000
0000
,
0000
0000
0000
0230
,
0000
0000
0000
0000
1300
0001
0100
0001
1000
0010
0100
0001
1000
0100
1000
0010
,
0100
0001
0010
0100
1000
0001
0100
0010
1000
0100
0010
0001
2000
0000
0000
0000
,
3001
0100
0001
1000
0010
1000
0100
0010
,
0001
1000
0100
1000
0010
0100
0001
0010
,
0100
1000
0001
0100
0001
1000
0100
0010
,
0001
1000
0010
1000
0001
0010
0001
1000
,
0100
0010
0001
1000
0010
1000
0100
0010
,
0001
1000
0100
1000
0010
0100
0001
0010
,
0100
1000
0001
0100
0010
1000
0100
1000
,
0010
0100
0001
0010
0100
1000
0001
0100
,
0001
1000
0100
0010
0001
1000
0010
1000
,
0001
0010
0001
1000
0100
0010
0001
1000
,
0010
0100
0001
1000
0100
1000
0010
0100
,
0001
0010
0100
1000
0001
0100
0001
1000
,
0100
1000
0010
0100
0001
0010
0100
1000
,
0001
0100
0001
0010
0100
1000
0010
0100
,
0002
0000
0000
0000
,
4003
0000
0000
0000
0000
0000
3001
0100
,
0001
1000
0100
1000
0010
0100
0001
1000
,
0200
0320
0032
0003
,
1000
0001
0100
0001
0010
0100
1000
0001
,
0200
0320
2030
3000
,
0001
0002
0000
0000
0003
0110
0000
0000
,
0020
2030
3200
0300
,
0010
0001
0100
0001
0010
0100
1000
0001
,
0200
0320
2030
3000
,
0100
0100
0000
0000
0000
0010
0000
0000
,
0001
0001
0000
0000
0000
0100
0000
0000
,
0010
0010
0000
0000
0000
1000
0000
0000
,
0100
0100
0000
0000
0000
0010
0000
0000
,
0001
0001
0000
0000
0100
0100
0000
0000
,
0010
0010
0000
0000
1000
1000
0000
0000
,
0100
0100
0000
0000
0010
0010
0000
0000
,
0000
0000
0000
0000
,
0001
1000
0100
1000
0010
0100
0001
1000
0100
0010
0001
1000
0010
1000
0001
0010
,
0100
1000
0001
0100
0001
1000
0100
0010
0001
1000
0010
0100
0001
1000
0100
1000
,
0001
0100
0001
1000
0010
0100
0010
1000
0100
0010
0001
1000
0100
1000
0010
0100
,
0001
0010
0100
1000
0001
0100
0010
1000
0100
1000
0010
0100
0001
0010
0001
1000
,
0100
0010
0001
1000
0010
1000
0001
0100
0010
1000
0100
0010
0001
1000
0010
0100
,
0010
1000
0100
0010
0001
1000
0100
1000
0001
0100
0010
1000
0100
0010
0001
1000
,
0010
0100
0001
0010
0001
1000
0100
0010
0001
1000
0010
0100
0001
1000
0100
1000
,
0010
0100
0001
0010
0100
0010
0001
1000
0100
1000
0010
0100
0001
0010
0100
1000
,
0001
0100
0001
1000
0100
0010
0001
1000
0010
1000
0100
0010
0001
1000
0010
0100
,
0001
0010
0001
1000
0100
0010
0001
0100
0001
0010
0100
1000
0010
0100
0001
1000
,
0100
1000
0010
0100
0010
1000
0100
0010
0001
1000
0010
0100
0001
1000
0100
1000
,
0010
0100
0001
0010
0001
1000
0100
0010
0001
1000
0010
1000
0001
0100
0010
1000
,
0100
0010
0001
1000
0010
0100
0010
1000
0100
0010
0001
0100
0001
0010
0100
1000
,
0001
0100
0001
1000
0100
0010
0001
1000
0010
0100
0010
1000
0100
0010
0001
1000
,
0001
0100
0010
1000
0100
1000
0010
0100
0001
0010
0100
0010
0001
1000
0100
1000
,
0010
0100
0001
1000
0100
1000
0010
0100
0001
0010
0100
1000
0001
0100
0001
0010
,
0001
0000
0100
0001
0010
0000
0100
1000
0010
0000
0100
0001
0010
0000
0100
1000
,
0010
0000
0100
0001
0010
0000
0100
1000
0010
0000
0100
0001
0010
0000
0100
1000
,
0010
0000
0000
0110
0000
0000
0101
0000
0000
0011
0000
0000
0110
0000
1000
0001
,
0100
0010
1000
0100
0010
0001
4000
0000
0000
0000
0000
0000
,
3100
0000
0000
0000
,
0020
0032
0203
0302
0023
0030
0000
0000
,
0010
0001
1000
0100
1000
0010
0100
0001
1000
0100
1000
0010
0100
0001
0010
0100
,
1000
0100
1000
0010
0100
0010
1000
0100
,
0010
0001
0100
0001
1000
0100
0010
0001
1000
0010
1000
0001
0100
0010
1000
0100
,
0010
0001
1000
0100
1000
0010
0100
0001
,
1000
0100
1000
0010
0100
0001
0010
0100
1000
0001
0100
0001
1000
0100
0010
0001
,
1000
0100
0010
0001
1000
0100
1000
0010
,
0100
0001
1000
0100
1000
0010
0100
0001
0010
0100
1000
0001
0100
0001
1000
0100
,
1000
0100
0010
0001
1000
0010
1000
0001
,
0010
0100
1000
0001
0100
0001
1000
0100
,
0010
0001
1000
0010
1000
0100
0010
0001
,
0100
0001
0010
0100
1000
0010
0100
0001
,
1000
0100
1000
0010
0100
0001
0010
0100
,
1000
0001
0100
0001
1000
0010
0100
0010
,
1000
0100
0010
0001
1000
0010
1000
0100
,
0010
0001
1000
0010
0100
0001
0010
0001
,
1000
0100
0010
0001
1000
0010
0100
0001
,
0010
0001
1000
0100
0010
0100
1000
0010
,
0100
0001
1000
0100
1000
0010
0100
0001
,
0010
0100
1000
0001
0100
0010
1000
0100
,
0010
0001
1000
0010
1000
0001
0010
0100
,
2000
3002
0203
0320
,
2030
3200
0320
0032
,
2003
3020
2030
3002
,
0023
0230
2300
3002
,
1003
0100
1000
0010
0100
0001
0010
0100
1000
0001
0100
0010
1000
0100
0010
0001
,
1000
0100
1000
0010
0100
0001
0010
0100
1000
0001
0100
0001
1000
0100
0010
0001
,
2000
3020
0230
0302
,
0023
0230
2300
3020
,
0130
0001
1000
0100
0010
0001
1000
0010
1000
0001
0010
0100
1000
0001
0100
0010
,
2000
3200
2300
3002
,
1003
0000
0000
0010
0000
0000
0100
0000
0000
0010
0000
0000
1000
0000
0000
0100
0000
0000
0010
0000
0000
0001
0100
0001
,
0200
0320
2030
3200
,
0310
0001
0100
0001
1000
0010
0100
0010
1000
0100
0010
0001
1000
0100
0010
0001
,
1000
0010
0100
0001
1000
0100
1000
0010
,
0100
0001
1000
0100
1000
0010
0100
0001
0010
0100
1000
0001
0100
0001
1000
0100
,
1000
0100
0010
0001
1000
0010
1000
0001
,
0010
0100
1000
0001
0100
0010
1000
0100
1000
0010
0100
0001
0010
0100
0010
0001
,
1000
0001
0100
0001
1000
0100
0010
0100
,
1000
0100
1000
0010
0100
0001
0010
0100
0010
0001
1000
0100
1000
0001
0100
0001
,
1000
0001
0010
0100
1000
0001
0100
0001
,
1000
0100
1000
0010
0100
0001
0010
0100
1000
0001
0100
0010
1000
0100
1000
0010
,
0100
0001
0010
0100
1000
0001
0100
0001
1000
0100
0010
0001
1000
0010
1000
0001
,
0010
0001
1000
0100
0010
0001
1000
0010
0100
0001
1000
0100
1000
0010
0100
0001
,
1000
0001
1000
0010
1000
0001
0010
0100
,
1000
0001
0100
0001
1000
0100
0010
0001
,
1000
0010
1000
0001
0010
0100
1000
0010
,
0100
0001
0010
0001
1000
0100
0010
0001
1000
0010
0100
0001
1000
0100
1000
0001
,
0200
0302
0023
0230
,
1300
0001
0100
0001
0010
0000
0100
1000
,
0000
0100
1000
0000
0010
0000
0000
0000
,
0100
0001
0010
0100
1000
0000
0001
0100
,
0000
0001
0100
0000
0010
0000
0000
0000
,
1000
0100
0010
0001
1000
0000
0001
0100
,
0000
0001
0100
0000
0010
0000
1000
0100
,
0010
0000
0001
0000
0100
0000
0010
1000
,
0100
0010
0001
0100
,
0010
1000
0100
1000
0100
0000
0010
0001
,
0000
1000
0100
0000
0010
0000
0000
0000
,
0001
0100
0001
1000
0100
0000
0010
0001
,
0000
0010
0001
0000
1000
0000
0000
0000
,
0010
0100
0001
0100
0010
0000
1000
0100
,
0000
1000
0100
0000
0010
0000
0000
0000
,
0001
0100
0010
1000
0100
0000
0000
0000
,
0000
0000
0000
0000
,
2222
0000
0000
0000
,
0000
0000
0000
0000
,
0000
0000
0000
0000
,
0000
0000
0000
0000
,
3333
0000
0000
0000
,
MMMM
0000
0000
0000
;

//---------------dance-single - ----------------
#NOTES:
     dance-single:
     :
     Hard:
     18:
     1.000,1.000,0.108,0.378,1.000,3296.000,35.000,123.000,4.000,3.000:
0000
0000
0000
0000
,
1000
0001
0200
0000
0310
2000
0000
3100
,
0010
0001
1000
0010
0100
0001
1000
0001
,
0010
0100
1000
0001
0100
0001
1000
0100
0010
0001
1000
0010
0100
0001
1000
0100
,
0010
0001
0100
0001
1000
0100
1000
0010
0100
0001
0010
0100
1000
0001
0100
0001
,
0010
0000
0200
0000
0000
0000
1300
0000
0020
0000
0000
0000
0130
0001
1000
0100
,
0010
0001
1000
0100
1000
0010
0100
0001
0010
0100
1000
0001
0100
0001
1000
0010
,
0100
0002
0000
0013
0200
0000
1300
1000
,
0100
1000
0001
0100
0001
1000
0010
0100
0010
1000
0100
0010
0001
1000
0001
0100
,
0001
0200
0000
0310
2000
0000
3100
0010
,
0001
1000
0100
1000
0010
0100
0001
1000
0100
0010
0001
1000
0001
0100
0001
0000
,
0110
0000
0000
1100
0000
0000
1010
0000
0000
0110
0000
0000
0101
0000
0000
0000
,
1000
0100
1000
0010
0100
0010
1000
0100
0010
0001
1000
0001
0100
0001
0010
0000
,
1100
0000
0000
1010
0000
0000
0110
0000
0000
0101
0000
0000
0011
0000
0000
0000
,
0100
1000
0001
0100
0001
1000
0100
0010
0001
1000
0010
0100
0010
1000
0100
0000
,
0010
0001
0100
0001
1000
0100
0010
0001
1000
0010
0100
0001
1000
0100
1000
0000
,
0001
0100
0001
1000
0100
0010
0001
1000
0010
0100
0010
1000
0100
0010
0001
0000
,
1000
0100
1000
0010
0100
0001
0010
0000
0100
1000
0001
0100
0001
1000
0100
0000
,
0010
0001
1000
0000
0001
0100
0010
0000
1000
0100
0010
0000
0001
0100
0001
0010
,
0100
1000
0001
0100
0001
1000
0100
0010
0001
1000
0010
0100
0010
1000
0100
0010
,
0001
0100
0001
1000
0100
0010
0001
1000
0010
0100
0010
1000
0100
0010
0001
1000
,
0100
1000
0010
0100
0001
0010
0100
1000
0001
0100
0001
1000
0100
0010
0001
1000
,
0100
1000
0010
0100
0010
1000
0100
0010
0001
1000
0001
0100
0001
0010
0100
1000
,
0010
0100
0001
1000
0100
1000
0010
0100
0001
0010
0100
1000
0001
0100
0001
1000
,
0100
0010
0001
1000
0010
0100
0010
1000
0100
0010
0001
1000
0010
0100
0001
0010
,
0001
1000
0100
0010
0001
1000
0010
1000
0001
0010
0001
1000
0100
0010
0001
1000
,
0010
0100
0010
1000
0100
0010
0001
0100
0001
0010
0100
1000
0010
0100
0010
1000
,
0100
0010
0001
1000
0100
1000
0001
0100
0001
1000
0010
0100
0010
1000
0100
0010
,
0001
1000
0100
1000
0010
0100
0001
0010
0100
0010
0001
1000
0100
1000
0010
0100
,
0001
0010
0100
1000
0001
0100
0001
1000
0100
0010
0001
1000
0010
0100
0010
1000
,
0100
0010
0001
1000
0001
0100
0001
0010
0001
1000
0100
1000
0001
1000
0010
1000
,
0100
0010
0100
1000
0010
0100
0001
0010
0100
1000
0001
0100
0010
1000
0100
0010
,
0100
1000
0010
0100
0001
0010
0001
1000
0100
0010
0001
1000
0010
1000
0100
0010
,
0001
1000
0010
0100
0010
1000
0100
0010
0001
0100
0001
0010
0100
1000
0001
0100
,
0010
0000
0000
1010
0000
0000
1100
0000
0000
1001
0000
0000
0101
0000
0010
1000
,
0100
0010
0001
1000
0100
1000
0010
0100
0001
0010
0100
1000
0001
0100
0010
1000
,
0100
0010
0001
0100
0001
0010
0100
1000
0001
0100
0001
1000
0100
0010
0001
1000
,
0100
1000
0010
0100
0001
0010
0100
0010
0001
1000
0100
1000
0010
0100
0001
0010
,
0100
1000
0010
0100
0001
1000
0100
0010
0001
1000
0010
1000
0001
0010
0001
1000
,
0100
0010
0001
1000
0010
0100
0010
1000
0100
0010
0001
0100
0001
0010
0100
1000
,
0001
0100
0001
1000
0100
0010
0001
1000
0010
1000
0001
0010
0100
1000
0001
0100
,
0010
1000
0100
1000
0010
0100
0001
1000
0100
0010
0001
1000
0010
1000
0001
0010
,
0100
1000
0001
0100
0001
1000
0100
0010
0001
1000
0010
1000
0001
0010
0100
1000
,
0100
0010
0001
1000
0010
0100
0001
1000
0100
1000
0010
0100
0001
0010
0100
0010
,
0001
1000
0100
1000
0010
0100
0001
0010
0100
1000
0001
0100
0010
1000
0100
0010
,
0100
1000
0010
0100
0001
0010
0001
1000
0100
0010
0001
1000
0010
1000
0001
0010
,
0001
1000
0100
0010
0001
1000
0010
0100
0010
1000
0100
0010
0001
1000
0010
0100
,
0001
0010
0001
1000
0100
0010
0001
1000
0010
0100
0001
1000
0100
1000
0010
0100
,
0001
0010
0100
0010
0001
1000
0100
1000
0010
0100
0001
0010
0100
0010
0001
1000
,
0010
1000
0001
0010
0001
1000
0100
0010
0001
1000
0010
0100
0001
0010
0100
1000
,
0001
0100
0001
0010
0100
1000
0010
0100
0001
1000
0100
0010
0001
1000
0010
1000
,
0100
0010
0001
0100
0001
0010
0100
1000
0001
0100
0001
1000
0100
0010
0001
1000
,
0010
1000
0100
0010
0001
1000
0010
0100
0001
0010
0100
1000
0001
0100
0001
1000
,
0100
0010
0001
1000
0010
0100
0001
1000
0100
1000
0010
0100
0001
0010
0100
1000
,
0001
0100
0001
0010
0100
1000
0010
0100
0001
1000
0100
0010
0001
1000
0100
0010
,
0001
1000
0100
1000
0010
0100
0001
0010
0100
1000
0001
0100
0001
1000
0100
0010
,
0001
1000
0100
1000
0010
0100
0010
1000
0100
0010
0001
1000
0001
0100
0001
0010
,
0100
1000
0001
0100
0001
1000
0010
0100
0010
1000
0100
0010
0001
1000
0010
0100
,
0001
1000
0010
0100
0001
1000
0100
1000
0010
0100
0001
0010
0100
1000
0001
1000
,
0100
0010
0001
1000
0100
1000
0010
0100
0001
0010
0100
1000
0001
0100
0010
1000
,
0100
0010
0001
1000
0100
1000
0010
0100
0001
0010
0100
1000
0001
0100
0001
1000
,
0100
1000
0001
0100
0001
1000
0100
0010
0001
1000
0010
0100
0010
1000
0100
0010
,
0001
0100
0001
0010
0100
1000
0001
0100
0001
1000
0100
0010
0001
1000
0010
0100
,
0001
0010
0001
1000
0100
1000
0010
0100
0001
0010
0100
1000
0001
0100
0001
1000
,
0100
0010
0001
0100
0001
1000
0100
0010
0100
1000
0010
0100
0001
1000
0100
1000
,
0001
0100
0010
1000
0100
1000
0010
0100
0001
0010
0100
1000
0001
0100
0001
1000
,
0100
0010
0001
1000
0010
1000
0001
0010
0001
1000
0100
0010
0001
1000
0010
0100
,
0010
1000
0100
0010
0001
0100
0001
0010
0100
1000
0010
0100
0001
1000
0100
0010
,
0002
0000
0203
0000
0320
0000
2030
0000
3200
0010
0301
1000
0100
1000
0010
0100
,
0001
1000
0100
1000
0010
0100
0001
0010
0100
1000
0001
0100
0001
1000
0100
0010
,
0002
0000
2003
0000
3200
0000
0320
0000
0032
1000
0013
0100
0010
1000
0100
0010
,
0001
1000
0100
1000
0010
0100
0001
0010
0100
0010
0001
1000
0100
1000
0001
0100
,
0002
0000
2003
0000
3020
0000
0230
0000
0302
0010
0103
1000
0001
0100
0001
1000
,
0100
0010
0001
0100
0001
0010
0100
1000
0001
0100
0001
1000
0100
0010
0001
1000
,
0010
0100
0001
0010
0100
1000
0001
1000
0010
1000
0100
1000
0010
0100
0001
0010
,
0100
1000
0001
0100
0001
1000
0100
0010
0001
1000
0010
1000
0001
0010
0100
1000
,
0002
0000
0203
0000
0302
0000
2003
0000
3200
0010
0301
1000
0100
1000
0010
0100
,
0001
0010
0100
1000
0001
0100
0001
1000
0100
0010
0100
1000
0001
0100
0001
1000
,
0020
0000
2030
0000
3200
0000
0320
0000
0032
1000
0103
1000
0010
0100
0001
0010
,
0100
1000
0001
1000
0010
0100
0001
0010
0100
1000
0001
0100
0001
1000
0100
0010
,
0002
0000
2003
0000
3020
0000
0230
0000
0302
1000
0103
1000
0010
0100
0001
0010
,
0100
1000
0001
0100
0001
1000
0100
0010
0001
1000
0010
0100
0010
1000
0100
0010
,
0001
1000
0100
1000
0010
0100
0001
1000
0100
0010
0001
0100
0001
0010
0100
1000
,
0001
0100
0001
0010
0001
1000
0100
0010
0001
1000
0001
0010
0200
1300
0001
0100
,
0001
1000
0010
0100
0001
0010
0001
1000
0100
0010
0001
1000
0010
0100
0001
1000
,
0100
0010
0001
1000
0100
1000
0010
0100
0001
0010
0100
1000
0002
1003
0100
1000
,
0001
0000
0000
0100
0000
0000
0010
0000
0000
1000
0000
0000
0100
0000
0000
0010
0000
0000
0001
0000
0000
1000
0000
0000
0100
0000
0000
0000
0010
0000
0000
0000
0001
0000
0000
0000
0100
0000
0000
0000
0001
0000
0000
0000
0010
0000
0000
0000
,
0100
1000
0001
0200
0310
1000
0200
0310
0001
2000
3100
1000
,
0020
0130
0001
0020
0130
1000
0002
0103
0010
2000
3100
0010
,
0002
1003
0100
2000
3010
0100
0002
0013
0100
2000
0000
0000
,
0000
0000
0000
3000
0000
0000
1000
0001
1000
0001
1000
0001
2000
0000
0000
0000
0000
0000
3002
0000
0000
0203
0000
0000
,
0310
1000
0100
1000
0010
0100
0001
0010
0100
1000
0001
0100
0001
1000
0100
0000
,
0010
0001
1000
0001
0100
0001
0010
0001
1000
0100
0010
0001
1000
0000
0010
0000
,
0100
0001
1000
0100
0010
0001
1000
0010
0100
0001
1000
0100
1000
0000
0010
0000
,
0100
0001
0010
0001
1000
0100
0010
0001
1000
0001
0010
0100
1000
0000
0001
0000
,
0100
0010
1000
0100
1000
0010
0100
0001
0010
0100
1000
0001
1000
0000
0100
0000
,
0010
0001
1000
0010
1000
0100
0010
0001
1000
0010
0100
0001
0010
0000
0100
0000
,
1000
0001
0100
0001
1000
0010
0100
0001
0010
0100
1000
0001
0100
0000
0010
0000
,
2000
0000
3002
0000
2003
0000
0000
3002
0000
0000
0203
0000
0320
0000
2030
0000
,
3100
0010
0001
1000
0010
0100
0010
1000
0100
0010
0001
1000
0100
1000
0010
0100
,
0001
0010
0100
0010
0001
1000
0100
1000
0001
0100
0010
1000
0100
0010
0001
1000
,
0010
1000
0001
0100
0010
1000
0100
0010
0001
1000
0010
0100
0001
1000
0100
0010
,
0001
0100
0001
1000
0100
1000
0010
0100
0001
1000
0100
0010
0001
1000
0010
0100
,
0010
1000
0100
0010
0001
1000
0100
1000
0010
0100
0001
0010
0100
1000
0001
0100
,
0001
0010
0100
1000
0010
0100
0010
1000
0100
0010
0001
1000
0010
0100
0001
1000
,
0100
1000
0010
0100
0001
0010
0100
1000
0001
0100
0001
1000
0100
0010
0001
1000
,
0010
0100
0010
1000
0100
0010
0001
1000
0100
1000
0001
0100
0001
0010
0100
1000
,
0001
1000
0100
1000
0010
0100
0001
0010
0100
1000
0001
0100
0010
1000
0100
0010
,
0001
0100
0001
1000
0100
1000
0010
0100
0001
0010
0001
1000
0100
1000
0001
0100
,
0010
1000
0100
1000
0001
0010
0001
1000
0100
0010
0001
0010
0100
1000
0010
1000
,
0001
0100
0001
1000
0100
1000
0001
0010
0001
1000
0010
1000
0100
0010
0001
1000
,
0100
1000
0010
0100
0010
1000
0100
0010
0001
1000
0100
1000
0001
0100
0010
1000
,
0100
0010
0001
1000
0010
0100
0010
1000
0100
0010
0001
1000
0100
1000
0001
0100
,
0010
1000
0100
0010
0001
1000
0010
1000
0001
0010
0001
1000
0100
0010
0001
1000
,
0010
0100
0010
1000
0100
0010
0001
1000
0200
0000
1300
0010
0100
0001
1000
0100
,
0010
0001
0100
0001
0010
0100
1000
0001
0100
0001
1000
0100
0010
0001
1000
0100
,
1000
0001
0100
0001
1000
0010
0100
0010
1000
0100
0010
0001
1000
0100
1000
0010
,
0100
0001
0010
0001
1000
0100
0010
0001
1000
0010
1000
0001
0100
0001
0010
0100
,
1000
0010
1000
0001
0100
0010
1000
0100
1000
0010
0100
0001
0010
0100
1000
0001
,
1000
0100
1000
0010
0100
0001
0010
0100
1000
0001
0100
0001
1000
0100
0010
0001
,
1000
0010
0100
0010
1000
0100
1000
0010
0100
0001
0010
0100
1000
0001
0100
0001
,
0010
0100
1000
0001
0100
0010
1000
0100
0010
0001
1000
0010
1000
0001
0010
0001
,
1000
0100
0010
0001
1000
0100
1000
0010
0100
0001
1000
0100
1000
0010
0100
0001
,
1000
0001
0100
0001
1000
1000
0100
1000
,
0010
0100
0001
1000
0100
1000
0010
0100
,
0001
0010
0100
1000
0001
0100
0001
1000
,
0100
0010
0001
1000
0010
1000
0100
1000
,
0010
0100
0001
0010
0001
1000
0100
0010
,
0001
1000
0001
0010
0001
1000
0010
0100
,
0001
1000
0100
1000
0010
0100
0001
0010
,
1100
0000
0000
1010
0000
0000
0101
0000
0000
0011
0000
0000
0110
0000
1000
0001
,
1000
0100
1000
0010
0100
0001
0010
0100
1000
0001
0100
0001
1000
0100
0010
0001
,
1000
0010
0100
0010
1000
0100
0010
0001
1000
0100
1000
0001
0100
0010
1000
0100
,
0010
0001
1000
0010
1000
0001
0010
0100
1000
0001
0100
0010
1000
0100
1000
0010
,
0100
0001
0010
0100
1000
0001
0100
0001
1000
0100
0010
0001
1000
0010
0100
0010
,
1000
0100
0010
0001
1000
0010
0100
0010
1000
0100
0010
0001
1000
0100
1000
0001
,
0100
0010
1000
0100
0010
0001
1000
0010
1000
0001
0010
0100
1000
0001
0100
0010
,
1000
0100
1000
0010
0100
0001
0010
0100
1000
0001
0100
0001
1000
0100
0010
0001
,
1000
0001
0100
0001
0010
0100
1000
0001
0100
0001
1000
0100
1000
0010
0100
0000
,
0101
0000
0000
0000
,
0000
0000
0000
0000
,
0000
0000
0000
0000
,
0000
0000
0000
0000
,
0000
0000
0000
0000
,
0000
0000
0000
0000
,
0000
0000
0000
0000
,
0000
0000
0000
0000
,
0000
0000
0000
0000
,
0000
0000
0000
0000
,
0000
0000
0000
0000
,
0000
0000
0000
0000
,
0000
0000
0000
0000
,
0000
0000
0000
0000
,
0000
0000
0000
0000
,
0000
0000
0000
1101
,
2222
0000
0000
0000
,
3333
0000
0000
0002
,
0000
0000
0000
2003
,
3200
0000
0000
0320
,
0000
0000
0000
0032
,
0203
0000
0000
0320
,
0000
0000
0000
2030
,
3200
0000
0000
0320
,
0000
0000
0000
0032
,
2003
0000
0000
3020
,
0000
0000
0000
0230
,
0302
0000
0000
0023
,
0000
0000
0000
0000
,
0000
0000
0000
0230
,
0000
0000
0000
0000
1300
0001
0100
0001
1000
0010
0100
0001
1000
0100
1000
0010
,
0100
0001
0010
0100
1000
0001
0100
0010
1000
0100
0010
0001
2000
0000
0000
0000
,
3001
0100
0001
1000
0010
1000
0100
0010
,
0001
1000
0100
1000
0010
0100
0001
0010
,
0100
1000
0001
0100
0001
1000
0100
0010
,
0001
1000
0010
1000
0001
0010
0001
1000
,
0100
0010
0001
1000
0010
1000
0100
0010
,
0001
1000
0100
1000
0010
0100
0001
0010
,
0100
1000
0001
0100
0010
1000
0100
1000
,
0010
0100
0001
0010
0100
1000
0001
0100
,
0001
1000
0100
0010
0001
1000
0010
1000
,
0001
0010
0001
1000
0100
0010
0001
1000
,
0010
0100
0001
1000
0100
1000
0010
0100
,
0001
0010
0100
1000
0001
0100
0001
1000
,
0100
1000
0010
0100
0001
0010
0100
1000
,
0001
0100
0001
0010
0100
1000
0010
0100
,
0002
0000
0000
0000
,
1003
0100
0010
0100
1000
0100
0010
0100
1000
0100
0010
0100
1000
0000
0001
0000
,
0100
0001
1000
0010
0100
0001
0010
0100
,
2200
3300
2020
3030
0220
0000
0000
0330
,
0100
0001
0100
0001
0010
0100
1000
0001
,
0220
0330
2020
3030
2200
0000
0000
3300
,
0100
0020
0000
0000
0030
0220
0000
0330
,
0002
0023
0230
0000
,
1300
0001
0100
0001
1000
0010
0100
0001
,
2000
0000
3200
0000
0320
0000
0031
1000
,
0100
0100
0010
0001
1000
0100
0010
0001
,
1000
1000
0010
0100
0001
1000
0100
0010
,
0001
0001
1000
0100
1000
0010
0100
0001
,
0010
0010
0100
1000
0001
1000
0100
0010
,
0001
0001
1000
0100
1000
1000
0010
0100
,
0001
0001
0010
0100
1000
1000
0001
0100
,
0010
0010
1000
0100
0010
0010
0001
0100
,
0001
0010
0001
0100
0001
1000
0100
0010
,
0001
1000
0100
1000
0010
0100
0001
1000
0100
0010
0001
1000
0010
1000
0001
0010
,
0100
1000
0001
0100
0001
1000
0100
0010
0001
1000
0010
0100
0001
1000
0100
1000
,
0001
0100
0001
1000
0010
0100
0010
1000
0100
0010
0001
1000
0100
1000
0010
0100
,
0001
0010
0100
1000
0001
0100
0010
1000
0100
1000
0010
0100
0001
0010
0001
1000
,
0100
0010
0001
1000
0010
1000
0001
0100
0010
1000
0100
0010
0001
1000
0010
0100
,
0010
1000
0100
0010
0001
1000
0100
1000
0001
0100
0010
1000
0100
0010
0001
1000
,
0010
0100
0001
0010
0001
1000
0100
0010
0001
1000
0010
0100
0001
1000
0100
1000
,
0010
0100
0001
0010
0100
0010
0001
1000
0100
1000
0010
0100
0001
0010
0100
1000
,
0001
0100
0001
1000
0100
0010
0001
1000
0010
1000
0100
0010
0001
1000
0010
0100
,
0001
0010
0001
1000
0100
0010
0001
0100
0001
0010
0100
1000
0010
0100
0001
1000
,
0100
1000
0010
0100
0010
1000
0100
0010
0001
1000
0010
0100
0001
1000
0100
1000
,
0010
0100
0001
0010
0001
1000
0100
0010
0001
1000
0010
1000
0001
0100
0010
1000
,
0100
0010
0001
1000
0010
0100
0010
1000
0100
0010
0001
0100
0001
0010
0100
1000
,
0001
0100
0001
1000
0100
0010
0001
1000
0010
0100
0010
1000
0100
0010
0001
1000
,
0001
0100
0010
1000
0100
1000
0010
0100
0001
0010
0100
0010
0001
1000
0100
1000
,
0010
0100
0001
1000
0100
1000
0010
0100
0001
0010
0100
1000
0001
0100
0001
0010
,
0001
0000
0100
0001
0010
0000
0100
1000
0010
0000
0100
0001
0010
0000
0100
1000
,
0010
0000
0100
0001
0010
0000
0100
1000
0010
0000
0100
0001
0010
0000
0100
1000
,
0010
0000
0000
0110
0000
0000
0101
0000
0000
0011
0000
0000
0110
0000
1000
0001
,
0100
0010
1000
0100
0010
0001
4000
0000
0000
0000
0000
0000
,
3100
0000
0000
0000
,
0020
0032
0203
0302
0023
0030
0000
0000
,
0010
0001
1000
0100
1000
0010
0100
0001
1000
0100
1000
0010
0100
0001
0010
0100
,
1000
0100
1000
0010
0100
0010
1000
0100
,
0010
0001
0100
0001
1000
0100
0010
0001
1000
0010
1000
0001
0100
0010
1000
0100
,
0010
0001
1000
0100
1000
0010
0100
0001
,
1000
0100
1000
0010
0100
0001
0010
0100
1000
0001
0100
0001
1000
0100
0010
0001
,
1000
0100
0010
0001
1000
0100
1000
0010
,
0100
0001
1000
0100
1000
0010
0100
0001
0010
0100
1000
0001
0100
0001
1000
0100
,
1000
0100
0010
0001
1000
0010
1000
0001
,
0010
0100
1000
0001
0100
0001
1000
0100
0010
0001
1000
0010
0100
0010
1000
0100
,
0010
0001
1000
0100
1000
0010
0100
0001
0010
0001
1000
0100
0010
0001
1000
0100
,
1000
0010
0100
0001
0010
0100
1000
0001
0100
0001
1000
0010
0100
0010
1000
0100
,
0010
0001
1000
0100
1000
0001
0100
0010
1000
0100
0010
0001
1000
0010
1000
0001
,
0010
0001
1000
0100
0010
0001
1000
0100
1000
0010
0100
0001
0010
0100
1000
0001
,
0100
0001
1000
0100
0010
0001
1000
0010
0100
0010
1000
0100
0010
0001
1000
0100
,
1000
0001
0100
0010
1000
0100
0010
0001
1000
0010
1000
0001
0010
0100
1000
0001
,
0100
0010
1000
0100
1000
0010
0100
0001
0010
0100
0010
0001
1000
0100
0010
0001
,
1000
0010
0100
0001
1000
0100
1000
0001
0100
0010
1000
0100
0010
0001
1000
0100
,
1000
0010
0100
0001
0010
0100
0010
0001
1000
0100
1000
0010
0100
0001
0010
0100
,
1000
0001
0100
0001
0010
0100
1000
0010
0100
0010
1000
0100
0010
0001
1000
0100
,
1000
0001
0100
0001
0010
0100
0010
0001
1000
0100
1000
0010
0100
0001
0010
0100
,
1000
0001
0100
0001
1000
0010
0100
0010
1000
0100
0010
0001
1000
0100
1000
0010
,
0100
0001
0010
0100
1000
0001
0100
0001
0010
0100
0010
0001
1000
0100
1000
0010
,
0100
0001
0010
0100
1000
0001
0100
0001
1000
0010
0100
0010
1000
0100
0010
0001
,
1000
0100
1000
0010
0100
0001
0010
0100
0010
0001
1000
0100
1000
0010
0100
0001
,
1000
0100
1000
0010
0100
0001
0010
0100
1000
0001
0100
0010
1000
0100
0010
0001
,
1000
0100
1000
0010
0100
0001
0010
0100
1000
0001
0100
0001
1000
0100
0010
0001
,
1000
0100
1000
0010
0100
0001
0010
0100
1000
0001
0100
0001
1000
0100
0010
0001
,
1000
0010
0100
0001
0010
0100
1000
0001
,
0100
0001
1000
0100
0010
0001
1000
0010
1000
0001
0010
0100
1000
0001
0100
0010
,
1000
0100
1000
0010
0100
0001
0010
0100
1000
0001
0100
0001
1000
0100
0010
0001
,
1000
0000
0000
0010
0000
0000
0100
0000
0000
0010
0000
0000
1000
0000
0000
0100
0000
0000
0010
0000
0000
0001
0100
0001
,
0200
0320
2030
3200
,
0310
0001
0100
0001
1000
0010
0100
0010
1000
0100
0010
0001
1000
0100
0010
0001
,
1000
0010
0100
0001
1000
0100
1000
0010
,
0100
0001
1000
0100
1000
0010
0100
0001
0010
0100
1000
0001
0100
0001
1000
0100
,
1000
0100
0010
0001
1000
0010
1000
0001
,
0010
0100
1000
0001
0100
0010
1000
0100
1000
0010
0100
0001
0010
0100
0010
0001
,
1000
0001
0100
0001
1000
0100
0010
0100
,
1000
0100
1000
0010
0100
0001
0010
0100
0010
0001
1000
0100
1000
0001
0100
0001
,
1000
0001
0010
0100
1000
0001
0100
0001
,
1000
0100
1000
0010
0100
0001
0010
0100
1000
0001
0100
0010
1000
0100
1000
0010
,
0100
0001
0010
0100
1000
0001
0100
0001
1000
0100
0010
0001
1000
0010
1000
0001
,
0010
0001
1000
0100
0010
0001
1000
0010
0100
0001
1000
0100
1000
0010
0100
0001
,
1000
0100
1000
0010
0100
0001
1000
0100
0010
0001
1000
0010
1000
0001
0010
0100
,
1000
0001
0100
0001
1000
0010
0100
0010
1000
0100
0010
0001
1000
0100
1000
0010
,
0100
0010
1000
0001
0010
0100
1000
0010
,
0100
0001
0010
0001
1000
0100
0010
0001
1000
0010
0100
0001
1000
0100
1000
0001
,
0200
0302
0023
0230
,
1300
0001
0100
0001
0010
0000
0100
1000
,
0000
0100
1000
0000
0010
0000
0000
0000
,
0100
0001
0010
0100
1000
0000
0001
0100
,
0000
0001
0100
0000
0010
0000
0000
0000
,
1000
0100
0010
0001
1000
0000
0001
0100
,
0000
0001
0100
0000
0010
0000
1000
0100
,
0010
0000
0001
0000
0100
0000
0010
1000
,
0100
0010
0001
0100
,
0010
1000
0100
1000
0100
0000
0010
0001
,
0000
1000
0100
0000
0010
0000
0000
0000
,
0001
0100
0001
1000
0100
0000
0010
0001
,
0000
0010
0001
0000
1000
0000
0000
0000
,
0010
0100
0001
0100
0010
0000
1000
0100
,
0000
1000
0100
0000
0010
0000
0000
0000
,
0001
0100
0010
1000
0100
0000
0000
0000
,
0000
0000
0000
0000
,
2222
0000
0000
0000
,
0000
0000
0000
0000
,
0000
0000
0000
0000
,
0000
0000
0000
0000
,
3333
0000
0000
0000
,
MMMM
0000
0000
0000
;

//---------------dance-single - ----------------
#NOTES:
     dance-single:
     :
     Challenge:
     19:
     1.000,1.000,0.089,0.221,1.000,3620.000,29.000,72.000,4.000,3.000:

0000
0000
0000
0000
,
1000
0001
0200
0000
0310
2000
0000
3100
,
0010
0001
1000
0010
0100
0001
1000
0001
,
0010
0100
1000
0001
0100
0001
1000
0100
0010
0001
1000
0010
0100
0001
1000
0100
,
0010
0001
0100
0001
1000
0100
1000
0010
0100
0001
0010
0100
1000
0001
0100
0001
,
0010
0100
1000
0001
0100
0001
1000
0100
0010
0001
1000
0100
1000
0010
0100
0001
,
1000
0010
1000
0100
1000
0010
0100
0001
0010
0100
1000
0001
0100
0001
1000
0010
,
0100
0001
1000
0100
1000
0010
0100
0001
0010
0001
1000
0100
0010
0001
1000
0010
,
1000
0100
1000
0010
0100
0001
0010
0100
0010
0001
1000
0100
1000
0010
0100
0001
,
1000
0100
1000
0010
0100
0001
1000
0100
0010
0001
1000
0010
0100
0010
1000
0100
,
0010
0001
1000
0010
0100
0010
1000
0100
0010
0001
1000
0001
0100
0001
0010
0000
,
0110
0000
0000
1100
0000
0000
1010
0000
0000
0110
0000
0000
0101
0000
0000
0000
,
1000
0100
1000
0010
0100
0010
1000
0100
0010
0001
1000
0001
0100
0001
0010
0000
,
1100
0000
0000
1010
0000
0000
0110
0000
0000
0101
0000
0000
0011
0000
0000
0000
,
0100
1000
0001
0100
0001
1000
0100
0010
0001
1000
0010
0100
0010
1000
0100
0000
,
0010
0001
0100
0001
1000
0100
0010
0001
1000
0010
0100
0001
1000
0100
1000
0000
,
0001
0100
0001
1000
0100
0010
0001
1000
0010
0100
0010
1000
0100
0010
0001
0000
,
1000
0100
1000
0010
0100
0001
0010
0000
0100
1000
0001
0100
0001
1000
0100
0000
,
0010
0001
1000
0000
0001
0100
0010
0000
1000
0100
0010
0000
0001
0100
0001
0010
,
0100
1000
0001
0100
0001
1000
0100
0010
0001
1000
0010
0100
0010
1000
0100
0010
,
0001
0100
0001
1000
0100
0010
0001
1000
0010
0100
0010
1000
0100
0010
0001
1000
,
0100
1000
0010
0100
0001
0010
0100
1000
0001
0100
0001
1000
0100
0010
0001
1000
,
0100
1000
0010
0100
0010
1000
0100
0010
0001
1000
0001
0100
0001
0010
0100
1000
,
0010
0100
0001
1000
0100
1000
0010
0100
0001
0010
0100
1000
0001
0100
0001
1000
,
0100
0010
0001
1000
0010
0100
0010
1000
0100
0010
0001
1000
0010
0100
0001
0010
,
0001
1000
0100
0010
0001
1000
0010
1000
0001
0010
0001
1000
0100
0010
0001
1000
,
0010
0100
0010
1000
0100
0010
0001
0100
0001
0010
0100
1000
0010
0100
0010
1000
,
0100
0010
0001
1000
0100
1000
0001
0100
0001
1000
0010
0100
0010
1000
0100
0010
,
0001
1000
0100
1000
0010
0100
0001
0010
0100
0010
0001
1000
0100
1000
0010
0100
,
0001
0010
0100
1000
0001
0100
0001
1000
0100
0010
0001
1000
0010
0100
0010
1000
,
0100
0010
0001
1000
0001
0100
0001
0010
0001
1000
0100
1000
0001
1000
0010
1000
,
0100
0010
0100
1000
0010
0100
0001
0010
0100
1000
0001
0100
0010
1000
0100
0010
,
0100
1000
0010
0100
0001
0010
0001
1000
0100
0010
0001
1000
0010
1000
0100
0010
,
0001
1000
0010
0100
0010
1000
0100
0010
0001
0100
0001
0010
0100
1000
0001
0100
,
0010
0000
0000
1010
0000
0000
1100
0000
0000
1001
0000
0000
0101
0000
0010
1000
,
0100
0010
0001
1000
0100
1000
0010
0100
0001
0010
0100
1000
0001
0100
0010
1000
,
0100
0010
0001
0100
0001
0010
0100
1000
0001
0100
0001
1000
0100
0010
0001
1000
,
0100
1000
0010
0100
0001
0010
0100
0010
0001
1000
0100
1000
0010
0100
0001
0010
,
0100
1000
0010
0100
0001
1000
0100
0010
0001
1000
0010
1000
0001
0010
0001
1000
,
0100
0010
0001
1000
0010
0100
0010
1000
0100
0010
0001
0100
0001
0010
0100
1000
,
0001
0100
0001
1000
0100
0010
0001
1000
0010
1000
0001
0010
0100
1000
0001
0100
,
0010
1000
0100
1000
0010
0100
0001
1000
0100
0010
0001
1000
0010
1000
0001
0010
,
0100
1000
0001
0100
0001
1000
0100
0010
0001
1000
0010
1000
0001
0010
0100
1000
,
0100
0010
0001
1000
0010
0100
0001
1000
0100
1000
0010
0100
0001
0010
0100
0010
,
0001
1000
0100
1000
0010
0100
0001
0010
0100
1000
0001
0100
0010
1000
0100
0010
,
0100
1000
0010
0100
0001
0010
0001
1000
0100
0010
0001
1000
0010
1000
0001
0010
,
0001
1000
0100
0010
0001
1000
0010
0100
0010
1000
0100
0010
0001
1000
0010
0100
,
0001
0010
0001
1000
0100
0010
0001
1000
0010
0100
0001
1000
0100
1000
0010
0100
,
0001
0010
0100
0010
0001
1000
0100
1000
0010
0100
0001
0010
0100
0010
0001
1000
,
0010
1000
0001
0010
0001
1000
0100
0010
0001
1000
0010
0100
0001
0010
0100
1000
,
0001
0100
0001
0010
0100
1000
0010
0100
0001
1000
0100
0010
0001
1000
0010
1000
,
0100
0010
0001
0100
0001
0010
0100
1000
0001
0100
0001
1000
0100
0010
0001
1000
,
0010
1000
0100
0010
0001
1000
0010
0100
0001
0010
0100
1000
0001
0100
0001
1000
,
0100
0010
0001
1000
0010
0100
0001
1000
0100
1000
0010
0100
0001
0010
0100
1000
,
0001
0100
0001
0010
0100
1000
0010
0100
0001
1000
0100
0010
0001
1000
0100
0010
,
0001
1000
0100
1000
0010
0100
0001
0010
0100
1000
0001
0100
0001
1000
0100
0010
,
0001
1000
0100
1000
0010
0100
0010
1000
0100
0010
0001
1000
0001
0100
0001
0010
,
0100
1000
0001
0100
0001
1000
0010
0100
0010
1000
0100
0010
0001
1000
0010
0100
,
0001
1000
0010
0100
0001
1000
0100
1000
0010
0100
0001
0010
0100
1000
0001
1000
,
0100
0010
0001
1000
0100
1000
0010
0100
0001
0010
0100
1000
0001
0100
0010
1000
,
0100
0010
0001
1000
0100
1000
0010
0100
0001
0010
0100
1000
0001
0100
0001
1000
,
0100
1000
0001
0100
0001
1000
0100
0010
0001
1000
0010
0100
0010
1000
0100
0010
,
0001
0100
0001
0010
0100
1000
0001
0100
0001
1000
0100
0010
0001
1000
0010
0100
,
0001
0010
0001
1000
0100
1000
0010
0100
0001
0010
0100
1000
0001
0100
0001
1000
,
0100
0010
0001
0100
0001
1000
0100
0010
0100
1000
0010
0100
0001
1000
0100
1000
,
0001
0100
0010
1000
0100
1000
0010
0100
0001
0010
0100
1000
0001
0100
0001
1000
,
0100
0010
0001
1000
0010
1000
0001
0010
0001
1000
0100
0010
0001
1000
0010
0100
,
0010
1000
0100
0010
0001
0100
0001
0010
0100
1000
0010
0100
0001
1000
0100
0010
,
0001
1000
0100
1000
0010
0100
0001
1000
0100
1000
0001
0100
0010
1000
0100
0010
,
0001
1000
0100
1000
0010
0100
0001
0010
0100
1000
0001
0100
0001
1000
0100
0010
,
0001
1000
0100
1000
0010
0100
0001
1000
0100
1000
0010
0100
0010
1000
0100
0010
,
0001
1000
0100
1000
0010
0100
0001
0010
0100
0010
0001
1000
0100
1000
0001
0100
,
0010
1000
0100
1000
0010
0100
0001
1000
0100
1000
0001
0100
0010
1000
0100
0010
,
0001
1000
0001
0100
0001
0010
0100
1000
0001
0100
0001
1000
0100
0010
0001
1000
,
0010
0100
0001
0010
0100
1000
0001
1000
0010
1000
0100
1000
0010
0100
0001
0010
,
0100
1000
0001
0100
0001
1000
0100
0010
0001
1000
0010
1000
0001
0010
0100
1000
,
0001
0100
0001
1000
0010
0100
0010
1000
0100
0010
0001
1000
0010
0100
0001
0010
,
0100
1000
0010
1000
0001
0100
0001
1000
0100
0010
0100
1000
0001
0100
0001
1000
,
0100
1000
0010
0100
0001
0010
0100
1000
0001
0100
0001
1000
0100
0010
0001
1000
,
0010
1000
0001
1000
0010
0100
0001
0010
0100
1000
0001
0100
0001
1000
0100
0010
,
0001
0100
0001
1000
0010
0100
0001
1000
0100
0010
0001
1000
0010
0100
0001
1000
,
0100
1000
0001
0100
0001
1000
0100
0010
0001
1000
0010
0100
0010
1000
0100
0010
,
0001
1000
0100
1000
0010
0100
0001
1000
0100
0010
0001
0100
0001
0010
0100
1000
,
0001
0100
0001
0010
0001
1000
0100
0010
0001
1000
0001
0010
0200
1300
0001
0100
,
0001
1000
0010
0100
0001
0010
0001
1000
0100
0010
0001
1000
0010
0100
0001
1000
,
0100
0010
0001
1000
0100
1000
0010
0100
0001
0010
0100
1000
0002
1003
0100
1000
,
0001
0000
0000
0100
0000
0000
0010
0000
0000
1000
0000
0000
0100
0000
0000
0010
0000
0000
0001
0000
0000
1000
0000
0000
0100
0000
0000
0000
0010
0000
0000
0000
0001
0000
0000
0000
0100
0000
0000
0000
0001
0000
0000
0000
0010
0000
0000
0000
,
0100
1000
0001
0200
0310
1000
0200
0310
0001
2000
3100
1000
,
0020
0130
0001
0020
0130
1000
0002
0103
0010
2000
3100
0010
,
0002
1003
0100
2000
3010
0100
0002
0013
0100
2000
0000
0000
,
0000
0000
0000
3000
0000
0000
1000
0001
1000
0001
1000
0001
2000
0000
0000
0000
0000
0000
3002
0000
0000
0203
0000
0000
,
0310
1000
0100
1000
0010
0100
0001
0010
0100
1000
0001
0100
0001
1000
0100
0010
,
0001
1000
0100
1000
0010
0100
0001
1000
0100
0010
0001
1000
0100
0010
0001
1000
,
0010
0100
0001
1000
0100
1000
0010
0100
0001
0010
0100
1000
0001
0100
0001
1000
,
0100
0010
0001
1000
0100
1000
0010
0100
0001
0010
0100
0010
0001
1000
0100
1000
,
0001
0100
0010
1000
0100
1000
0010
0100
0001
0010
0100
1000
0001
0100
0010
1000
,
0100
0010
0001
1000
0100
1000
0010
0100
0001
0010
0100
1000
0001
0100
0001
1000
,
0100
0010
0100
1000
0010
0100
0001
1000
0100
1000
0001
0100
0010
1000
0100
0010
,
0001
0100
0001
1000
0100
0010
0001
1000
0010
0100
0010
1000
0100
0010
0001
1000
,
0100
0010
0001
1000
0010
0100
0010
1000
0100
0010
0001
1000
0100
1000
0010
0100
,
0001
0010
0100
0010
0001
1000
0100
1000
0001
0100
0010
1000
0100
0010
0001
1000
,
0010
1000
0001
0100
0010
1000
0100
0010
0001
1000
0010
0100
0001
1000
0100
0010
,
0001
0100
0001
1000
0100
1000
0010
0100
0001
1000
0100
0010
0001
1000
0010
0100
,
0010
1000
0100
0010
0001
1000
0100
1000
0010
0100
0001
0010
0100
1000
0001
0100
,
0001
0010
0100
1000
0010
0100
0010
1000
0100
0010
0001
1000
0010
0100
0001
1000
,
0100
1000
0010
0100
0001
0010
0100
1000
0001
0100
0001
1000
0100
0010
0001
1000
,
0010
0100
0010
1000
0100
0010
0001
1000
0100
1000
0001
0100
0001
0010
0100
1000
,
0001
1000
0100
1000
0010
0100
0001
0010
0100
1000
0001
0100
0010
1000
0100
0010
,
0001
0100
0001
1000
0100
1000
0010
0100
0001
0010
0001
1000
0100
1000
0001
0100
,
0010
1000
0100
1000
0001
0010
0001
1000
0100
0010
0001
0010
0100
1000
0010
1000
,
0001
0100
0001
1000
0100
1000
0001
0010
0001
1000
0010
1000
0100
0010
0001
1000
,
0100
1000
0010
0100
0010
1000
0100
0010
0001
1000
0100
1000
0001
0100
0010
1000
,
0100
0010
0001
1000
0010
0100
0010
1000
0100
0010
0001
1000
0100
1000
0001
0100
,
0010
1000
0100
0010
0001
1000
0010
1000
0001
0010
0001
1000
0100
0010
0001
1000
,
0010
0100
0010
1000
0100
0010
0001
1000
0100
1000
0001
0100
0010
1000
0100
1000
,
0010
0100
0001
0010
0100
0010
0001
1000
0100
1000
0001
0100
0010
1000
0100
0010
,
0001
1000
0010
1000
0001
0010
0001
1000
0100
0010
0001
1000
0010
0100
0010
1000
,
0100
0010
0001
1000
0100
1000
0001
0100
0010
1000
0100
0010
0001
1000
0010
1000
,
0001
0010
0001
1000
0100
0010
0001
1000
0010
0100
0001
1000
0100
1000
0010
0100
,
0001
0010
0001
1000
0100
0010
0001
1000
0010
1000
0001
0010
0001
1000
0100
0010
,
0100
1000
0010
0100
0001
1000
0100
1000
0010
0100
0001
0010
0001
1000
0100
0010
,
0001
1000
0100
1000
0010
0100
0001
0010
0001
1000
0010
0100
0001
1000
0100
1000
,
0010
0100
0001
0010
0100
0010
0001
1000
0100
1000
0001
0100
0001
0010
0100
1000
,
0001
0100
0001
1000
0010
0100
0010
1000
0100
0010
0001
1000
0100
1000
0010
0100
,
0001
0010
0100
0010
0001
1000
0100
1000
0001
0100
0001
0010
0100
1000
0001
0100
,
0001
1000
0100
0010
0100
1000
0010
0100
0010
1000
0100
0010
0001
1000
0010
1000
,
0001
0010
0100
0010
0001
1000
0100
1000
0010
0100
0001
1000
0100
1000
0001
0100
,
0001
1000
0100
1000
0001
0100
0010
1000
0100
0010
0001
1000
0010
0100
0001
1000
,
0100
0010
0001
1000
0100
0010
0001
1000
0010
1000
0001
0010
0100
1000
0001
0010
,
0100
1000
0001
0100
0001
1000
0100
0010
0001
1000
0010
0100
0001
0010
0001
1000
,
0010
0100
0001
0010
0001
1000
0100
0010
0001
1000
0010
0100
0001
1000
0100
1000
,
0001
0100
0001
1000
0010
0100
0010
1000
0100
0010
0001
1000
0100
1000
0001
0100
,
0001
1000
0100
1000
0010
0100
0001
0010
0001
1000
0100
0010
0001
1000
0010
1000
,
0001
0010
0100
1000
0001
0100
0010
1000
0100
1000
0010
0100
0001
0010
0001
1000
,
0100
0010
0001
1000
0010
1000
0001
0010
0001
1000
0100
0010
0001
1000
0010
0100
,
0010
1000
0100
0010
0001
1000
0100
1000
0001
0100
0010
1000
0100
0010
0001
1000
,
0010
1000
0001
0010
0001
1000
0100
0010
0001
1000
0010
0100
0010
1000
0100
0010
,
0001
1000
0100
1000
0010
0100
0001
0010
0001
1000
0100
0010
0001
1000
0010
0100
,
0010
1000
0100
0010
0100
1000
0010
0100
0001
1000
0100
1000
0001
0100
0001
1000
,
0100
0000
0000
0000
,
0000
0000
0000
0000
,
0000
0000
0000
0000
,
0000
0000
0000
0000
,
0000
0000
0000
0000
,
0000
0000
0000
0000
,
0000
0000
0000
0000
,
0000
0000
0000
0000
,
0000
0000
0000
0000
,
0000
0000
0000
0000
,
0000
0000
0000
0000
,
0000
0000
0000
0000
,
0000
0000
0000
0000
,
0000
0000
0000
0000
,
0000
0000
0000
0000
,
0000
0000
0000
1101
,
2222
0000
0000
0000
,
3333
0000
0000
0002
,
0000
0000
0000
2003
,
3200
0000
0000
0320
,
0000
0000
0000
0032
,
0203
0000
0000
0320
,
0000
0000
0000
2030
,
3200
0000
0000
0320
,
0000
0000
0000
0032
,
2003
0000
0000
3020
,
0000
0000
0000
0230
,
0302
0000
0000
0023
,
0000
0000
0000
0000
,
0000
0000
0000
0230
,
0000
0000
0000
0000
1300
0001
0100
0001
1000
0010
0100
0001
1000
0100
1000
0010
,
0100
0001
0010
0100
1000
0001
0100
0010
1000
0100
0010
0001
2000
0000
0000
0000
,
3001
0100
0001
1000
0010
1000
0100
0010
,
0001
1000
0100
1000
0010
0100
0001
0010
,
0100
1000
0001
0100
0001
1000
0100
0010
,
0001
1000
0010
1000
0001
0010
0001
1000
,
0100
0010
0001
1000
0010
1000
0100
0010
,
0001
1000
0100
1000
0010
0100
0001
0010
,
0100
1000
0001
0100
0010
1000
0100
1000
,
0010
0100
0001
0010
0100
1000
0001
0100
,
0001
1000
0100
0010
0001
1000
0010
1000
,
0001
0010
0001
1000
0100
0010
0001
1000
,
0010
0100
0001
1000
0100
1000
0010
0100
,
0001
0010
0100
1000
0001
0100
0001
1000
,
0100
1000
0010
0100
0001
0010
0100
1000
,
0001
0100
0001
0010
0100
1000
0010
0100
,
0002
0000
0000
0000
,
1003
0100
0010
0100
1000
0100
0010
0100
1000
0100
0010
0100
1000
0001
0100
0001
,
1000
0010
0100
0010
1000
0100
0010
0001
1000
0010
0100
0010
1000
0100
0010
0000
,
0202
0303
2020
3030
0220
0000
0000
0330
,
0100
0001
0100
0001
0010
0100
1000
0001
,
0220
0330
2020
3030
2200
0000
0000
3300
,
0100
0020
0000
0000
0030
0220
0000
0330
,
0002
0023
0230
0000
,
1300
0001
0100
0001
1000
0010
0100
0001
,
2000
0000
3200
0000
0320
0000
0031
1000
,
0100
0010
0001
1000
0010
0100
0001
1000
0100
0010
0001
1000
0010
0100
0001
1000
,
0001
0100
0001
1000
0010
0100
0010
1000
0100
0010
0001
1000
0100
1000
0001
0100
,
0001
0010
0100
1000
0001
0100
0001
1000
0100
0010
0001
1000
0010
1000
0001
0010
,
0100
1000
0001
0100
0001
1000
0100
0010
0001
1000
0010
1000
0001
0010
0001
1000
,
0100
0010
0001
1000
0010
0100
0010
1000
0100
0010
0001
1000
0100
1000
0001
0100
,
0001
0010
0100
1000
0100
0010
0001
1000
0100
1000
0010
0100
0001
0010
0100
1000
,
0001
0100
0001
1000
0010
0100
0010
1000
0100
0010
0001
1000
0100
1000
0001
0100
,
0001
1000
0100
1000
0010
0100
0001
0010
0100
1000
0001
0100
0001
1000
0100
0010
,
0100
1000
0001
1000
0010
0100
0001
1000
0100
0010
0001
1000
0010
1000
0001
0010
,
0100
1000
0001
0100
0001
1000
0100
0010
0001
1000
0010
0100
0001
1000
0100
1000
,
0001
0100
0001
1000
0010
0100
0010
1000
0100
0010
0001
1000
0100
1000
0010
0100
,
0001
0010
0100
1000
0001
0100
0010
1000
0100
1000
0010
0100
0001
0010
0001
1000
,
0100
0010
0001
1000
0010
1000
0001
0100
0010
1000
0100
0010
0001
1000
0010
0100
,
0010
1000
0100
0010
0001
1000
0100
1000
0001
0100
0010
1000
0100
0010
0001
1000
,
0010
0100
0001
0010
0001
1000
0100
0010
0001
1000
0010
0100
0001
1000
0100
1000
,
0010
0100
0001
0010
0100
0010
0001
1000
0100
1000
0010
0100
0001
0010
0100
1000
,
0001
0100
0001
1000
0100
0010
0001
1000
0010
1000
0100
0010
0001
1000
0010
0100
,
0001
0010
0001
1000
0100
0010
0001
0100
0001
0010
0100
1000
0010
0100
0001
1000
,
0100
1000
0010
0100
0010
1000
0100
0010
0001
1000
0010
0100
0001
1000
0100
1000
,
0010
0100
0001
0010
0001
1000
0100
0010
0001
1000
0010
1000
0001
0100
0010
1000
,
0100
0010
0001
1000
0010
0100
0010
1000
0100
0010
0001
0100
0001
0010
0100
1000
,
0001
0100
0001
1000
0100
0010
0001
1000
0010
0100
0010
1000
0100
0010
0001
1000
,
0001
0100
0010
1000
0100
1000
0010
0100
0001
0010
0100
0010
0001
1000
0100
1000
,
0010
0100
0001
1000
0100
1000
0010
0100
0001
0010
0100
1000
0001
0100
0001
0010
,
0001
0000
0100
0001
0010
0000
0100
1000
0010
0000
0100
0001
0010
0000
0100
1000
,
0010
0000
0100
0001
0010
0000
0100
1000
0010
0000
0100
0001
0010
0000
0100
1000
,
0010
0000
0000
0110
0000
0000
0101
0000
0000
0011
0000
0000
0110
0000
1000
0001
,
0100
0010
1000
0100
0010
0001
4000
0000
0000
0000
0000
0000
,
3100
0000
0000
0000
,
0020
0032
0203
0302
0023
0030
0000
0000
,
0010
0001
1000
0100
1000
0010
0100
0001
1000
0100
1000
0010
0100
0001
0010
0100
,
1000
0001
0100
0001
1000
0010
0100
0010
1000
0100
0010
0001
1000
0100
1000
0001
,
0100
0010
0100
0001
1000
0100
0010
0001
1000
0010
1000
0001
0100
0010
1000
0100
,
0010
0001
0100
0001
1000
0100
0010
0100
1000
0010
0100
0001
1000
0100
1000
0001
,
0010
0100
1000
0010
0100
0001
0010
0100
1000
0001
0100
0001
1000
0100
0010
0001
,
1000
0100
1000
0010
0100
0001
0010
0100
0010
0001
1000
0100
1000
0001
0100
0010
,
1000
0001
1000
0100
1000
0010
0100
0001
0010
0100
1000
0001
0100
0001
1000
0100
,
1000
0001
0100
0010
1000
0100
0010
0001
0010
0100
1000
0001
0100
0001
1000
0010
,
1000
0100
1000
0001
0100
0001
1000
0100
0010
0001
1000
0010
0100
0010
1000
0100
,
0010
0001
1000
0100
1000
0010
0100
0001
0010
0001
1000
0100
0010
0001
1000
0100
,
1000
0010
0100
0001
0010
0100
1000
0001
0100
0001
1000
0010
0100
0010
1000
0100
,
0010
0001
1000
0100
1000
0001
0100
0010
1000
0100
0010
0001
1000
0010
1000
0001
,
0010
0001
1000
0100
0010
0001
1000
0100
1000
0010
0100
0001
0010
0100
1000
0001
,
0100
0001
1000
0100
0010
0001
1000
0010
0100
0010
1000
0100
0010
0001
1000
0100
,
1000
0001
0100
0010
1000
0100
0010
0001
1000
0010
1000
0001
0010
0100
1000
0001
,
0100
0010
1000
0100
1000
0010
0100
0001
0010
0100
0010
0001
1000
0100
0010
0001
,
1000
0010
0100
0001
1000
0100
1000
0001
0100
0010
1000
0100
0010
0001
1000
0100
,
1000
0010
0100
0001
0010
0100
0010
0001
1000
0100
1000
0010
0100
0001
0010
0100
,
1000
0001
0100
0001
0010
0100
1000
0010
0100
0010
1000
0100
0010
0001
1000
0100
,
1000
0001
0100
0001
0010
0100
0010
0001
1000
0100
1000
0010
0100
0001
0010
0100
,
1000
0001
0100
0001
1000
0010
0100
0010
1000
0100
0010
0001
1000
0100
1000
0010
,
0100
0001
0010
0100
1000
0001
0100
0001
0010
0100
0010
0001
1000
0100
1000
0010
,
0100
0001
0010
0100
1000
0001
0100
0001
1000
0010
0100
0010
1000
0100
0010
0001
,
1000
0100
1000
0010
0100
0001
0010
0100
0010
0001
1000
0100
1000
0010
0100
0001
,
1000
0100
1000
0010
0100
0001
0010
0100
1000
0001
0100
0010
1000
0100
0010
0001
,
1000
0100
1000
0010
0100
0001
0010
0100
1000
0001
0100
0001
1000
0100
0010
0001
,
1000
0100
1000
0010
0100
0001
0010
0100
1000
0001
0100
0001
1000
0100
0010
0001
,
1000
0001
0100
0001
1000
0010
0100
0010
1000
0100
0010
0001
1000
0100
1000
0001
,
0100
0001
1000
0100
0010
0001
1000
0010
1000
0001
0010
0100
1000
0001
0100
0010
,
1000
0100
1000
0010
0100
0001
0010
0100
1000
0001
0100
0001
1000
0100
0010
0001
,
1000
0100
1000
0010
0100
0001
0010
0100
1000
0001
0100
0001
1000
0100
0010
0001
,
1000
0100
1000
0010
0100
0001
0010
0100
0010
0001
1000
0010
0100
0001
1000
0100
,
0010
0001
0100
0001
1000
0010
0100
0010
1000
0100
0010
0001
1000
0100
0010
0001
,
1000
0100
1000
0010
0100
0001
0010
0100
1000
0001
0100
0010
1000
0100
0010
0001
,
1000
0010
1000
0100
1000
0010
0100
0001
0010
0100
1000
0001
0100
0001
1000
0100
,
0010
0001
1000
0100
1000
0010
0100
0001
0010
0100
1000
0001
0100
0001
1000
0100
,
0010
0100
1000
0001
0100
0010
1000
0100
1000
0010
0100
0001
0010
0100
0010
0001
,
1000
0100
1000
0010
0100
0001
1000
0100
1000
0010
0100
0001
0010
0100
1000
0001
,
1000
0100
1000
0010
0100
0001
0010
0100
0010
0001
1000
0100
1000
0001
0100
0001
,
1000
0100
1000
0010
0100
0001
0010
0100
1000
0001
0100
0001
0010
0100
1000
0010
,
1000
0100
1000
0010
0100
0001
0010
0100
1000
0001
0100
0010
1000
0100
1000
0010
,
0100
0001
0010
0100
1000
0001
0100
0001
1000
0100
0010
0001
1000
0010
1000
0001
,
0010
0001
1000
0100
0010
0001
1000
0010
0100
0001
1000
0100
1000
0010
0100
0001
,
1000
0100
1000
0010
0100
0001
1000
0100
0010
0001
1000
0010
1000
0001
0010
0100
,
1000
0001
0100
0001
1000
0010
0100
0010
1000
0100
0010
0001
1000
0100
1000
0010
,
0100
0001
0010
0001
1000
0100
0010
0001
1000
0010
0100
0010
1000
0100
0010
0001
,
1000
0001
0010
0001
1000
0100
0010
0001
1000
0010
0100
0001
1000
0100
1000
0001
,
1000
0100
1000
0010
0100
0001
1000
0100
1000
0001
0100
0001
0010
0100
1000
0001
,
2000
3001
0100
0001
0010
0000
0100
1000
,
0000
0100
1000
0000
0010
0000
0000
0000
,
0100
0001
0010
0100
1000
0000
0001
0100
,
0000
0001
0100
0000
0010
0000
0000
0000
,
1000
0100
0010
0001
1000
0000
0001
0100
,
0000
0001
0100
0000
0010
0000
1000
0100
,
0010
0000
0001
0000
0100
0000
0010
1000
,
0100
0010
0001
0100
,
0010
1000
0100
1000
0100
0000
0010
0001
,
0000
1000
0100
0000
0010
0000
0000
0000
,
0001
0100
0001
1000
0100
0000
0010
0001
,
0000
0010
0001
0000
1000
0000
0000
0000
,
0010
0100
0001
0100
0010
0000
1000
0100
,
0000
1000
0100
0000
0010
0000
0000
0000
,
0001
0100
0010
1000
0100
0000
0000
0000
,
0000
0000
0000
0000
,
2222
0000
0000
0000
,
0000
0000
0000
0000
,
0000
0000
0000
0000
,
0000
0000
0000
0000
,
3333
0000
0000
0000
,
MMMM
0000
0000
0000
;
