#TITLE:Fly of the Bumblebee;
#SUBTITLE:;
#ARTIST:N. Rimskij-Korsakov;
#TITLETRANSLIT:;
#SUBTITLETRANSLIT:;
#ARTISTTRANSLIT:;
#CREDIT:;
#BANNER:Fly-ban.png;
#BACKGROUND:Fly-bg.png;
#LYRICSPATH:;
#CDTITLE:super_sonic.PNG;
#MUSIC:Flight of the bumblebee.wav;
#OFFSET:-1.260;
#SAMPLESTART:16.660;
#SAMPLELENGTH:11.980;
#SELECTABLE:YES;
#BPMS:0.000=200.040,200.000=400.000;
#STOPS:;
#BGCHANGES:;
// cache tags:
#FIRSTBEAT:8.000;
#LASTBEAT:200.000;
#SONGFILENAME:Songs/Definitive Keyboard Megapack/Fly of the Bumblebee(SonicX)/Flight of the Bumblebee.sm;
#HASMUSIC:1;
#HASBANNER:1;
#MUSICLENGTH:61.881;
// end cache tags

//---------------dance-double - ----------------
#NOTES:
     dance-double:
     :
     Hard:
     1:
     1.000,1.000,0.356,0.000,1.000,719.000,22.000,0.000,0.000,0.000:
00000000
00000000
00000000
00000000
,
00000000
00000000
00000000
00000000
,
10000000
01000000
00100000
00010000
00100000
00010000
00001000
00000100
10000000
01000000
00100000
00010000
00100000
00010000
00001000
00000100
,
10000000
01000000
00100000
00010000
00001000
00000100
00000010
00000001
10000000
00000001
00000010
00000100
00001000
00010000
00100000
01000000
,
10000000
01000000
00100000
00010000
00001000
00000001
10000000
01000000
10000000
01000000
00100000
00010000
00001000
00010000
00100000
01000000
,
10000000
01000000
00100000
00010000
00001000
00000001
10000000
01000000
10000000
01000000
00100000
00010000
00001000
00010000
00100000
01000000
,
10000000
01000000
00100000
00010000
00100000
00010000
00001000
00000100
00001000
00010000
00100000
01000000
10000000
00000001
10000000
01000000
,
10000000
01000000
00100000
00010000
00100000
00010000
00001000
00000100
00001000
00010000
00100000
01000000
10000000
00000010
00000100
00001000
,
00010000
00001000
00000100
00000010
00000001
00100000
00010000
00001000
00010000
00001000
00000100
00000010
00000001
00000010
00000100
00001000
,
00010000
00001000
00000100
00000010
00000001
00100000
00010000
00001000
00010000
00001000
00000100
00000010
00000001
00000010
00000100
00001000
,
00010000
00001000
00000100
00000010
00000100
00000010
00000001
10000000
00000001
00000010
00000100
00001000
00010000
00100000
00010000
00001000
,
00010000
00001000
00000100
00000010
00000001
10000000
01000000
10000000
00000001
00000010
00000100
00001000
00010000
00100000
00010000
00001000
,
00000001
00000001
00000001
00000001
00000001
00000001
00000001
00000001
00000010
10000000
00000010
10000000
00000010
10000000
00000010
10000000
,
00000001
00000001
00000001
00000001
00000001
00000001
00000001
00000001
00000010
10000000
00000010
10000000
00000010
10000000
00000010
10000000
,
00000001
00000010
00000001
10000000
00000001
00000010
00000001
10000000
00000001
00000010
00000001
10000000
00000001
00000010
00000001
10000000
,
00000001
00000010
00000100
00001000
00010000
00001000
00000100
00000010
00000001
00000010
00000100
00001000
00010000
00100000
01000000
10000000
,
00100000
00100000
00100000
00100000
00100000
00100000
00100000
00100000
01000000
00010000
01000000
00010000
01000000
00010000
01000000
00010000
,
00100000
00100000
00100000
00100000
00100000
00100000
00100000
00100000
01000000
00010000
01000000
00010000
01000000
00010000
01000000
00010000
,
00100000
01000000
00100000
00010000
00100000
01000000
00100000
00010000
00100000
01000000
00100000
00010000
00100000
01000000
00100000
00010000
,
00100000
01000000
10000000
00000001
00000010
00000001
10000000
01000000
00100000
01000000
10000000
00000001
00000010
00010100
10000000
01000000
,
10000000
01000000
00100000
00010000
10000000
00010000
10000000
01000000
10000000
01000000
00100000
00010000
10000000
00010000
00100000
01000000
,
10000000
01000000
00100000
00010000
00100000
00010000
10000000
01000000
10000000
00010000
00100000
01000000
00100000
01000000
10000000
00010000
,
00100000
00010000
10000000
01000000
10000000
01000000
00100000
00010000
00100000
00010000
10000000
01000000
10000000
01000000
00100000
00010000
,
10000000
01000000
10000000
00100000
10000000
01000000
10000000
00100000
10000000
01000000
10000000
00100000
10000000
01000000
10000000
00100000
,
10000000
01000000
10000000
00100000
10000000
01000000
10000000
00100000
10000000
01000000
10000000
00100000
10000000
01000000
10000000
00100000
,
10010000
00000000
01010000
01100000
10100000
10010000
01010000
01100000
,
10010000
00000000
10100000
01010000
01100000
10010000
10100000
01010000
,
01100000
00000000
10010000
00000000
,
00000000
00000000
00000000
00000000
10000000
01000000
00100000
00010000
10000000
01000000
00100000
00010000
10000000
01000000
00100000
00010000
,
10000000
01000000
00100000
00010000
10000000
00010000
10000000
01000000
10000000
01000000
00100000
00010000
10000000
00010000
00100000
01000000
,
10000000
01000000
00100000
00010000
10000000
00010000
10000000
01000000
10000000
01000000
00100000
00010000
10000000
00010000
00100000
01000000
,
10000000
01000000
00100000
00010000
00100000
00010000
10000000
01000000
10000000
00010000
00100000
01000000
10000000
00010000
10000000
01000000
,
10000000
01000000
00100000
00010000
00100000
00010000
10000000
01000000
10000000
00010000
00100000
01000000
10000000
00100000
01000000
10000000
,
00010000
10000000
01000000
00100000
00010000
00100000
00010000
10000000
00010000
10000000
01000000
00100000
00010000
00100000
01000000
10000000
,
00010000
10000000
01000000
00100000
00010000
00100000
00010000
10000000
00010000
10000000
01000000
00100000
00010000
00100000
01000000
10000000
,
00010000
10000000
01000000
00100000
01000000
00100000
00010000
10000000
00010000
00100000
01000000
10000000
00010000
00100000
00010000
10000000
,
00010000
10000000
01000000
00100000
10000000
00010000
00100000
01000000
10000000
00010000
00100000
01000000
10000000
00010000
00100000
01000000
,
10000000
01000000
00100000
00010000
10000000
00010000
10000000
01000000
10000000
01000000
00100000
00010000
10000000
00010000
00100000
01000000
,
10000000
01000000
00100000
00010000
10000000
00010000
10000000
01000000
10000000
01000000
00100000
00010000
10000000
00010000
00100000
01000000
,
10000000
00000000
10000000
01000000
00100000
00010000
10000000
01000000
00100000
01000000
10000000
00010000
10000000
00010000
00100000
01000000
,
00100000
00010000
10000000
01000000
00100000
00010000
10000000
01000000
00100000
00010000
00100000
01000000
00100000
00010000
00100000
01000000
,
00100000
00000000
10000000
01000000
00100000
00010000
10000000
01000000
00100000
01000000
10000000
00010000
10000000
00010000
00100000
01000000
,
00100000
00010000
10000000
01000000
00100000
00010000
10000000
01000000
00100000
00010000
00100000
01000000
00100000
10000000
01000000
00100000
,
00010000
00100000
01000000
10000000
01000000
10000000
00010000
00100000
00010000
00100000
01000000
10000000
00010000
00100000
01000000
10000000
,
00010000
00100000
01000000
10000000
01000000
10000000
00010000
00100000
00010000
00100000
01000000
10000000
00010000
00100000
01000000
10000000
,
00010000
10000000
00010000
00100000
00010000
10000000
00010000
00100000
00010000
10000000
00010000
00100000
00010000
10000000
01000000
00100000
,
00010000
01000000
00010000
00100000
00010000
01000000
00010000
00100000
00010000
01000000
00010000
00100000
00010000
10000000
01000000
00100000
,
00010000
00100000
01000000
10000000
01000000
10000000
00010000
00100000
00010000
00100000
01000000
00010000
00100000
01000000
10000000
00010000
,
00100000
01000000
10000000
00010000
00100000
01000000
10000000
00010000
00100000
01000000
10000000
00010000
00100000
01000000
10000000
00010000
,
10100000
00110000
10100000
01100000
,
10010000
00000000
00000000
00000000
;

//---------------dance-single - ----------------
#NOTES:
     dance-single:
     :
     Hard:
     12:
     1.000,1.000,0.242,0.032,1.000,691.000,15.000,2.000,0.000,0.000:

0000
0000
0000
0000
,
0000
0000
0000
0000
,
0000
0000
0000
0000
,
0000
0000
0000
0000
0000
0000
0000
0000
0000
0000
0000
0000
1000
0001
1000
0001
,
1000
0100
0010
0001
0100
0010
1000
0010
0100
0001
0010
0100
1000
0001
0100
0001
,
1000
0010
0100
0010
1000
0100
0010
0001
0100
0001
0010
0100
1000
0010
0100
0001
,
0100
0010
1000
0001
1000
0010
0100
0010
1000
0001
0100
0010
1000
0100
0010
0001
,
0100
0010
1000
0001
0010
0100
1000
0010
0100
0001
1000
0010
1000
0100
1000
0001
,
1000
0100
0010
0001
0100
0010
1000
0010
0100
0001
0010
0100
1000
0010
0100
0001
,
0010
0001
1000
0010
0100
0001
0010
0100
1000
0010
1000
0100
0010
0001
0100
0010
,
1000
0010
1000
0100
0010
0001
0100
0010
1000
0010
0100
0001
0100
0010
1000
0100
,
0010
0001
0100
0010
1000
0001
0010
0100
1000
0010
0100
0001
1000
0100
0010
0001
,
1000
0100
1000
0100
1000
0100
1000
0100
0010
0001
0010
0001
0010
0001
0010
0001
,
0100
0010
0100
0010
0100
0010
0100
0010
1000
0001
1000
0001
1000
0001
1000
0001
,
1000
0100
1000
0010
1000
0100
1000
0010
1000
0100
1000
0010
1000
0100
1000
0010
,
1000
0100
0010
0001
1000
0001
0010
0100
1000
0100
0010
0001
1000
0001
0010
0100
,
1000
0010
1000
0010
1000
0010
1000
0010
0100
0001
0100
0001
0100
0001
0100
0001
,
0010
0100
0010
0100
0010
0100
0010
0100
1000
0001
1000
0001
1000
0001
1000
0001
,
0100
0010
0100
0001
0100
0010
0100
0001
0100
0010
0100
0001
0100
0010
0100
0001
,
0100
0001
1000
0100
0010
0100
1000
0001
0100
0001
1000
0100
0010
0001
1000
0100
,
1000
0100
0010
0001
0100
0010
1000
0001
0010
0100
1000
0010
0100
0001
1000
0010
,
1000
0100
1000
0010
0100
0001
0010
0100
1000
0001
1000
0010
0100
0001
0010
0100
,
1000
0010
0100
0010
1000
0100
0010
0001
0100
0010
1000
0010
0100
0001
0010
0001
,
1000
0010
1000
0100
1000
0010
1000
0100
1000
0010
1000
0100
1000
0010
1000
0100
,
1000
0010
1000
0100
1000
0010
1000
0100
1000
0010
1000
0100
1000
0010
1000
0100
,
1001
0000
1010
1000
1100
0100
0110
0010
,
0011
0000
0011
0001
0101
0100
0110
0010
,
1010
0000
1001
0000
,
0000
0000
0000
0000
1000
0100
0010
0001
1000
0100
0010
0001
1000
0100
0010
0001
,
1000
0010
0100
0001
0010
0100
1000
0010
0100
0001
1000
0010
0100
0001
1000
0100
,
0010
0001
0100
0010
1000
0010
0100
0001
1000
0100
0010
0001
0100
0010
1000
0010
,
0100
0001
1000
0010
1000
0100
0010
0001
0100
0010
1000
0100
0010
0001
0100
0010
,
1000
0010
0100
0001
0010
0100
1000
0010
0100
0001
1000
0010
1000
0100
1000
0010
,
0100
0001
0010
0100
1000
0010
0100
0001
1000
0010
0100
0001
0010
0100
1000
0100
,
0010
0001
0100
0010
1000
0010
0100
0001
0010
0001
0100
0001
1000
0100
0010
0001
,
0100
0010
1000
0010
0100
0001
0010
0100
1000
0010
0100
0001
1000
0010
0100
0001
,
0010
0100
1000
0001
0100
0010
1000
0001
0100
0010
1000
0100
0010
0001
0100
0010
,
0100
0001
0100
0010
1000
0100
0010
0001
0100
0010
1000
0100
1000
0010
0100
0001
,
0010
0100
1000
0010
0100
0001
0010
0001
0100
0010
1000
0100
0010
0001
0100
0010
,
2000
0000
3001
0010
0100
1000
0010
0100
0001
0010
0001
0100
0010
1000
0100
0010
,
0001
0100
0001
1000
0010
0100
0010
1000
0100
0010
0001
0100
0010
1000
0100
1000
,
0002
0000
1003
0100
0010
0001
0100
0010
1000
0010
0100
0001
0100
0010
1000
0100
,
0010
0001
0100
0010
1000
0010
1000
0100
0010
0001
0100
0010
1000
0010
0100
0001
,
0010
0001
0100
0010
1000
0100
0010
0001
0100
0010
1000
0100
1000
0010
0100
0010
,
0100
0001
0010
0100
1000
0001
0010
0001
0100
0010
1000
0001
0010
0100
0010
0001
,
1000
0010
0100
0001
0010
0100
1000
0010
1000
0100
0010
0001
0100
0010
1000
0001
,
0100
0010
1000
0100
1000
0010
0100
0001
0010
0100
1000
0010
0100
0001
1000
0010
,
0100
0001
0010
0100
1000
0010
0100
0001
1000
0100
0010
0100
1000
0001
0100
0010
,
0100
0001
1000
0100
0010
0001
0100
0010
1000
0010
0100
0001
0010
0100
0010
0001
,
1001
0110
0011
1010
,
1001
0000
0000
0000
;
