#TITLE:Mei;
#SUBTITLE:version III;
#ARTIST:Amuro v.s. Killer;
#TITLETRANSLIT:;
#SUBTITLETRANSLIT:;
#ARTISTTRANSLIT:;
#CREDIT:Darkmage/Arch0wl;
#BANNER:mei-bn.png;
#BACKGROUND:mei-bg.png;
#LYRICSPATH:;
#CDTITLE:!darkmagetitle2.png;
#MUSIC:MEI.ogg;
#OFFSET:0.272;
#SAMPLESTART:40.050;
#SAMPLELENGTH:20.000;
#SELECTABLE:YES;
#BPMS:0.000=100.000,36.000=200.000,164.000=100.000,180.000=110.000,184.000=120.000,188.000=130.000,192.000=140.000,196.000=150.000,200.000=160.000,204.000=170.000,208.000=180.000,212.000=190.000,216.000=200.000,334.000=180.000,336.000=175.000,340.000=165.000,342.000=140.000,343.000=100.000,344.000=110.000,345.000=90.000,346.000=66.000;
#STOPS:;
#BGCHANGES:0.000=mei-bg.png=1.000=0=0=1,
99999=-nosongbg-=1.000=0=0=0 // don't automatically add -songbackground-
;
// cache tags:
#FIRSTBEAT:3.500;
#LASTBEAT:347.000;
#SONGFILENAME:Songs/Archmage and Dark0wl Hammer of Thor UltraHyperMegaPack/MEI/MEI.sm;
#HASMUSIC:1;
#HASBANNER:1;
#MUSICLENGTH:105.000;
// end cache tags

//---------------dance-single - Arch0wl----------------
#NOTES:
     dance-single:
     Arch0wl:
     Challenge:
     22:
     1.000,1.000,1.000,0.267,1.000,1170.000,430.000,28.000,0.000,9.000:
0000
0000
0000
0000
0000
0000
0000
0210
,
0301
0000
0100
0000
1001
0000
1010
0000
1100
0000
1010
0000
0101
0000
0010
0000
1000
0000
0000
0000
0001
0000
0000
0000
0000
0000
0000
0000
0001
0010
1000
0010
,
1000
0000
0100
0000
1010
0000
0100
0000
1000
0000
0010
0000
1001
0000
0100
0000
0000
0000
0000
0000
0001
0000
0000
0000
0000
0000
0000
0000
0001
0010
0100
1000
,
0100
0000
0010
0000
1001
0000
1100
0000
1010
0000
0110
0000
0101
0000
0100
0000
1000
0000
0000
0000
1001
0000
0000
0000
0000
0000
0000
0000
0001
1000
0010
0100
,
1000
0000
0100
0000
1001
0000
0100
0000
1000
0000
0010
0000
0101
0000
1000
0000
0000
0000
0000
0000
0010
0000
0000
0000
0000
0000
0000
0000
1000
0010
0001
0010
,
1100
0000
1000
0000
0101
0000
0011
1000
0001
1000
0110
0000
0110
1000
0100
1000
1010
0000
1000
0000
0101
0000
0100
0010
1000
0100
0010
0000
1001
0100
0001
0100
,
1010
0000
1010
0000
0110
0000
0101
0010
1000
0010
1001
0000
0101
1000
0100
1000
0100
1000
0100
1000
0101
0000
0010
0100
1000
0010
0110
1000
0100
1010
0110
0001
,
1100
0000
1001
0000
1001
0000
0101
0010
0100
0010
0101
0000
1001
0100
0010
0100
1001
0000
1001
0000
0101
0000
0011
0001
1100
0100
1001
0000
1000
0100
0010
0100
,
1001
0000
1001
0000
0110
0000
1010
0100
0010
1000
0101
0000
0101
0100
1010
0000
0000
0000
0000
0000
0000
0000
0000
0000
0000
0000
0000
0000
0000
0000
0000
0000
,
1001
0010
1000
0010
1000
0010
1000
0010
1000
0001
0010
0001
0100
0010
1000
0010
,
1000
0001
1000
0001
1000
0001
1000
0001
1000
0010
0100
0010
1000
0100
0010
0001
,
0100
0010
0100
0010
0100
0010
0100
0010
0100
0001
0010
0100
1000
0001
0010
0001
,
1000
0010
1000
0010
1000
0010
1000
0010
1000
0001
0100
0010
1000
0100
0010
0001
,
1010
0100
0010
0100
0010
0100
0010
0100
0010
1000
0100
1000
0010
0100
0001
0010
,
1100
0010
0100
0010
0100
0010
0100
0010
0100
1000
0001
0010
0001
0100
0010
0100
,
1001
0010
1000
0010
1000
0010
1000
0010
1000
0001
0100
0001
1010
0100
0010
0100
,
1001
0100
1000
0100
1000
0100
1000
0100
1000
0001
1100
0010
1001
0100
1001
0001
,
1100
0001
0100
0001
0110
0001
1000
0010
1000
0010
1100
0001
0101
0001
0010
0100
,
1010
0001
1000
0001
1100
0001
0100
0010
0100
0010
1100
0001
1001
0100
0010
0001
,
1100
0010
1000
0010
1001
0010
0100
0001
0100
0001
1100
0010
1010
0001
0010
0100
,
1001
0010
1000
0010
1100
0010
0100
0001
0100
0001
1100
0010
1010
0001
0011
0100
,
1010
0001
1000
0001
1100
0001
0100
0010
0100
0010
1100
0001
1001
0010
0100
0001
,
1010
0100
1000
0100
1001
0100
0010
0001
0010
0001
1010
0100
1100
0001
1000
0100
,
1010
0001
0010
0001
0110
0001
1000
0100
1000
0001
1010
0100
1100
0100
1010
0001
,
1001
0000
0000
0000
0000
0000
0000
0000
0000
0001
0010
0100
1000
0001
0010
0100
,
1001
0010
1000
0001
0100
0001
1000
0010
1010
0001
0100
0001
1000
0010
1010
0001
,
0100
0001
1010
0010
1000
0001
0100
0001
1010
0100
1010
0001
1000
0100
0010
0001
,
1100
0001
1100
0001
0010
0001
0100
0001
1001
0001
0100
0001
1000
0001
0011
0001
,
1000
0100
0011
0001
1000
0100
0010
0001
1001
0100
1001
0010
0100
0001
0010
0100
,
1001
0010
0100
0001
0100
0010
1000
0100
0011
0001
0010
0100
0010
0001
1100
0100
,
0010
0001
0110
0100
0010
0001
1000
0100
0011
0001
0011
0001
0010
0001
0010
0001
,
1010
0100
0010
0001
1000
0100
1000
0010
0101
0010
1000
0001
1000
0010
0110
0001
,
0010
0001
1100
0010
1000
0100
0010
0001
1010
0100
1010
0001
1000
0100
0010
0001
,
1010
0000
0000
0010
0001
0000
0100
0010
1001
0000
0000
0100
0010
0000
1001
0100
,
0010
0001
0011
0100
1000
0010
0000
1000
0101
0010
1100
0001
0010
0000
0001
0000
,
1001
0000
0100
0000
0010
0000
0001
1000
0011
0100
0010
1000
0001
0010
1001
0100
,
0010
1000
0101
1000
0010
0100
0010
1000
0101
0010
0101
1000
0001
0000
1000
0000
,
1001
0000
0100
0000
0010
0000
0001
0000
1010
0100
0010
0001
1000
0100
0011
0001
,
1000
0100
0011
0001
1000
0100
0010
0001
1100
0010
1100
0001
0010
0100
1000
0001
,
1100
0010
1100
0010
1000
0001
1100
0010
1100
0010
1000
0100
1000
0010
1001
0100
,
1000
0010
1100
0001
0010
0100
1000
0010
1100
0001
1100
0100
0010
0001
1000
0000
,
2001
3101
0011
1001
0010
1001
0110
0001
1001
0011
0100
0011
1001
0010
1001
0110
,
0001
0101
0011
1001
0010
1001
0110
0001
1001
0011
0100
0011
1001
0010
1001
0110
,
0001
0101
0011
1001
0010
1001
0110
0001
1001
0011
0100
0011
1001
0010
1001
0110
,
0001
0101
0011
1001
0010
1001
0110
0001
1001
0011
0100
0011
1001
0010
1001
0110
,
2001
3101
0011
1001
0010
1001
0110
0001
1001
0011
0100
0011
1001
0010
1001
0110
,
2001
3101
0011
1001
0010
1001
0110
0001
1001
0011
0100
0011
1001
0010
1001
0110
,
2001
3101
0011
1001
0010
1001
0110
0001
1001
0011
0100
0011
1001
0010
1001
0110
,
2001
3101
0011
1001
0010
1001
0110
0001
1001
0011
0100
0011
1001
0010
1001
0110
,
2001
3101
0011
1001
0100
1001
0010
0100
2001
3101
0011
1001
0100
1001
0010
0100
,
2001
3101
0011
1001
0100
1001
0010
0100
2001
3101
0011
1001
0100
1001
0010
0100
,
2001
3001
2100
3100
0010
0100
2001
3001
2100
3100
2001
3001
0100
0010
2001
3001
,
2001
3100
0010
0100
2001
3100
0010
0100
2001
3100
0010
0100
2001
3100
0010
0100
,
2001
3001
2001
3001
2001
3001
2001
3001
2001
3001
2001
3001
2001
3001
2001
3001
,
1001
1001
1001
1001
1001
1001
1001
1001
1001
1001
1001
1001
1001
1001
1001
1001
,
0001
0100
0010
0000
1000
0010
0100
0000
0001
0100
0010
0000
1000
0010
0100
0000
0001
0100
0010
0000
1000
0010
0100
0000
0001
0100
0010
0000
1000
0010
0100
0000
,
0001
0000
0001
0100
1001
0010
0001
0100
0010
0000
0100
0010
1001
0010
1000
0100
,
0010
0100
1000
0100
0011
0100
1000
0100
0011
0000
0011
0000
1100
0000
0010
0000
,
0011
0000
1000
0000
0100
0000
1010
0010
1001
0001
1000
0000
1001
0000
1100
0000
,
0110
1001
0011
0010
0110
1100
0011
0010
,
0101
0010
0100
1000
0101
0001
1010
0000
0110
0000
0000
0000
1001
0000
1000
0000
,
0100
0000
1100
0010
1001
0000
0000
0100
1001
0000
0101
0000
1010
0000
0100
0000
,
1100
0100
0010
0001
1001
0010
0100
1000
1001
0010
0100
0010
1001
0010
0100
0010
,
0101
1000
0001
0100
1001
0010
1100
0100
1100
0100
1100
0100
1001
0001
0001
0001
,
1001
0000
0000
0000
1010
0000
0100
0010
1010
0000
0100
0010
1010
0000
0011
0000
,
0110
0000
1000
0000
0001
0000
0100
0010
1010
0000
0100
0010
1010
0000
0011
0000
,
0110
0000
0000
0000
1100
0000
0100
0010
1010
0000
0100
0010
1010
0000
0011
0000
,
0110
0000
1000
0000
0001
0000
0100
0010
1010
0000
0110
0000
0101
0000
0011
0000
,
1100
0000
1100
1000
1010
1010
1001
1100
,
0110
0000
1100
0000
0110
0000
1100
0110
0011
0000
1000
0000
0011
0000
0000
0000
,
1001
0000
0000
0100
1001
0010
0100
0010
1001
0100
0010
0001
1100
0010
1001
0010
,
0101
0000
1000
0000
0011
0000
0000
0011
0011
0000
1000
0000
1001
0000
0000
0000
,
1001
0001
0010
0100
1100
0000
0011
0001
1000
0100
1100
0000
1001
0001
0010
0100
,
1001
0010
0100
0010
1001
0000
1100
0110
1001
0000
0110
0001
1010
0000
0100
0000
,
1001
0011
1100
0010
0101
0011
1100
1001
,
1010
1001
0101
0001
1001
1000
0110
0010
,
0101
0110
1100
0110
0011
0110
1100
0110
,
0011
0000
1100
0000
0011
0000
1010
0000
1001
0000
0010
0100
1010
0000
0110
0000
,
1001
0000
0101
0000
0011
0000
0101
0010
1000
0010
1010
0000
1001
0000
1100
0010
,
0101
0000
1100
0010
0101
0000
1100
0010
1001
0100
0001
0000
0011
0000
0110
0000
,
1100
0100
0010
1000
0010
0001
0010
0000
,
0100
0000
1000
0000
0100
0000
0010
0000
1001
0000
0100
0010
0000
0000
0000
0000
,
1010
0101
0011
0010
0100
0001
1000
0100
,
0010
0100
1000
0001
0010
0100
1000
0000
,
0101
0010
1000
0100
0010
0001
0010
1000
,
0100
0000
0000
0000
0000
0000
0000
0000
0010
0000
0000
0000
0000
1000
0000
0000
,
1001
0100
0010
0100
1000
0010
0001
0000
;

//---------------dance-single - Darkmage/Arch0wl----------------
#NOTES:
     dance-single:
     Darkmage/Arch0wl:
     Hard:
     12:
     1.000,1.000,0.705,0.010,1.000,1039.000,74.000,1.000,0.000,0.000:
0000
0000
0000
0000
0000
0000
0000
0120
,
1030
0000
0010
0000
1001
0000
1010
0000
0100
0000
0010
0000
1001
0000
0100
0000
1000
0000
0000
0000
1001
0000
0000
0000
0000
0000
0000
0000
1000
0100
0010
0001
,
1000
0000
0010
0000
0101
0000
1000
0000
0100
0000
0010
0000
1001
0000
0100
0000
0000
0000
0000
0000
0001
0000
0000
0000
0000
0000
0000
0000
0001
1000
0010
0100
,
0001
0000
0100
0000
1001
0000
1010
0000
1100
0000
0110
0000
0101
0000
1000
0000
0100
0000
0000
0000
1001
0000
0000
0000
0000
0000
0000
0000
0100
0001
0100
0010
,
1000
0000
0010
0000
1001
0000
0100
0000
1000
0000
0010
0000
0101
0000
1000
0000
0000
0000
0000
0000
0010
0000
0000
0000
0000
0000
0000
0000
1000
0100
0010
0001
,
1001
0000
0001
0000
0100
0000
0010
1000
0010
1000
0001
0000
0100
0000
0010
1000
0001
0000
0001
0000
1000
0000
0010
0100
0001
1000
0010
0000
0100
0001
0100
0001
,
1000
0000
1000
0000
0001
0000
1000
0010
0100
0001
0010
0000
0001
1000
0010
0100
0001
1000
0010
0100
0001
0000
1000
0001
0010
0001
1000
0010
0100
0001
1000
0010
,
0100
0000
0100
0000
0001
0000
1000
0100
0010
0001
1000
0000
0010
0000
0100
0001
1000
0000
1000
0000
0001
0000
0010
0100
1000
0010
0100
0000
0001
0100
0010
1000
,
0001
0000
0001
0000
1001
0000
0100
0010
1000
0010
0100
0000
0001
0100
1000
0000
0000
0000
0000
0000
0000
0000
0000
0000
0000
0000
0000
0000
0000
0000
0000
0000
,
1001
0010
1000
0010
1000
0010
1000
0010
1000
0000
0010
0000
0100
0000
0000
0000
,
0001
0100
0001
0100
0001
0100
0001
0100
0001
0000
0010
0000
0100
0000
0000
0000
,
1000
0100
1000
0100
1000
0100
1000
0100
1000
0000
0010
0000
0100
0000
0000
0000
,
0001
0010
0001
0010
0001
0010
0001
0010
0001
0000
0100
0000
1000
0000
0001
0000
,
1010
0100
0010
0100
0010
0100
0010
0100
0010
0000
1000
0000
0010
0000
0000
0000
,
1100
0010
0100
0010
0100
0010
0100
0010
0100
0000
1000
0000
0001
0000
0000
0000
,
1001
0010
1000
0010
1000
0010
1000
0010
1000
0000
1000
0000
1010
0000
0000
0000
,
1001
0100
1000
0100
1000
0100
1000
0100
1000
0000
1100
0000
1001
0000
0010
0000
,
0100
0001
0100
0001
0100
0001
1000
0010
1000
0010
1000
0001
0100
0001
0010
0100
,
1000
0001
1000
0001
1000
0001
0100
0010
0100
0010
0100
0001
1000
0100
0010
0001
,
1000
0010
1000
0010
1000
0010
0100
0001
0100
0001
0100
0010
1000
0001
0010
0100
,
1000
0010
1000
0010
1000
0010
0100
0001
0100
0001
0100
0010
1000
0001
0010
0100
,
1000
0001
1000
0001
1000
0001
0100
0010
0100
0010
0100
0001
1000
0010
0100
0001
,
1000
0100
1000
0100
1000
0100
0010
0001
0010
0001
0010
0100
1000
0001
1000
0100
,
0010
0001
0010
0001
0010
0001
1000
0100
1000
0001
0010
0100
1000
0100
0010
0001
,
1000
0000
0000
0000
0000
0000
0000
0000
0000
0001
0010
0100
1000
0001
0010
0100
,
1000
0010
1000
0001
0100
0001
1000
0010
1000
0001
0100
0001
1000
0010
1000
0001
,
0100
0001
1000
0010
1000
0001
0100
0001
1000
0100
0010
0001
1000
0100
0010
0001
,
1000
0001
0100
0001
0010
0001
0100
0001
1000
0001
0100
0001
1000
0001
0010
0001
,
1000
0100
0010
0001
1000
0100
0010
0001
1000
0100
1000
0010
0100
0001
0010
0100
,
1000
0010
0100
0001
0100
0010
1000
0100
0010
0001
0010
0100
0010
0001
1000
0100
,
0010
0001
0010
0100
0010
0001
1000
0100
0010
0001
0010
0001
0010
0001
0010
0001
,
1000
0100
0010
0001
1000
0100
1000
0010
0100
0010
1000
0001
1000
0010
0100
0001
,
0010
0001
0100
0010
1000
0100
0010
0001
1000
0100
0010
0001
1000
0100
0010
0001
,
0010
0000
0000
0010
0001
0000
0100
0010
1000
0000
0000
0100
0010
0000
1000
0100
,
0010
0001
0010
0100
1000
0010
0000
1000
0000
0010
0100
0001
0010
0000
0001
0000
,
1001
0000
0100
0000
0010
0000
0001
1000
0001
0100
0010
1000
0001
0010
0001
0100
,
0010
1000
0100
1000
0010
0100
0010
1000
0001
0010
0100
1000
0001
0000
1000
0000
,
1001
0000
0100
0000
0010
0000
0001
0000
1000
0100
0010
0001
1000
0100
0010
0001
,
1000
0100
0010
0001
1000
0100
0010
0001
1000
0010
0100
0001
0010
0100
1000
0001
,
1000
0010
0100
0010
1000
0001
1000
0010
0100
0010
1000
0100
1000
0010
1000
0100
,
1000
0010
0100
0001
0010
0100
1000
0010
0100
0001
1000
0100
0010
0001
1000
0000
,
1010
0100
0010
0100
1000
0100
0010
0100
0010
0100
1000
0001
0010
0100
1000
0010
,
1000
0100
0010
0100
1000
0100
0010
0100
0010
0100
1000
0010
0001
0100
1000
0010
,
1000
0100
0010
0100
1000
0100
0010
0100
0010
0100
1000
0001
0010
0100
1000
0010
,
1000
0100
0010
0100
1000
0100
0010
0100
0010
0100
1000
0010
0001
0100
0010
0001
,
1010
0000
0100
0010
0000
0001
1000
0000
0010
0000
0000
0001
0000
0000
0010
0100
,
1010
0100
0010
0100
0000
0001
1000
0000
0010
0100
0000
0001
0000
0010
0100
1000
,
0110
0000
1000
0100
0000
0001
1000
0000
0010
0000
0000
0001
0000
0000
0010
0100
,
1100
0100
0010
0001
0000
0010
0100
0000
1000
0010
0000
0100
0000
0001
0010
0100
,
1010
0000
0100
0010
0000
0001
0100
0000
1100
0000
0010
0001
0000
0010
0100
0000
,
1010
0000
0100
0010
0000
0001
0010
0000
1010
0000
0100
0010
0000
0001
1000
0000
,
0101
0010
1000
0010
0000
0100
0001
0000
1000
0100
1000
0010
0000
0100
0001
0000
,
1010
0100
0000
0010
1000
0001
0010
0000
0100
0010
0000
0001
1000
0001
0100
0000
,
1100
0000
1000
0001
1000
0000
0100
0001
1000
0000
0100
0001
1000
0000
0100
0001
,
1000
0100
0010
0001
0100
0010
0001
0010
0100
1000
0100
0010
0001
0010
0100
1000
,
0001
0001
0001
0001
,
1010
0000
0100
1000
0100
0010
0001
0010
0100
0000
1000
0001
0100
0010
1000
0001
,
1000
0100
0010
0001
1000
0010
0100
0001
1000
0000
0100
0000
0010
0000
0001
0000
,
1010
0000
0000
0000
0000
0000
0100
0010
0000
0001
0100
0000
0000
0000
1000
0000
,
0010
0100
0010
1000
0001
0010
0100
1000
,
0001
0010
0100
1000
0001
0100
0010
0000
1000
0000
0000
0000
0001
0000
0100
0000
,
0000
0000
0010
1000
0000
0000
0000
0100
0001
0000
1000
0000
0100
0000
0000
0000
,
0011
0000
0100
1000
0010
0100
0001
1000
0100
0010
0001
1000
0001
0010
0100
1000
,
0100
0010
0001
0010
0100
1000
0001
0100
0001
0010
0100
1000
0001
0010
0100
1000
,
0010
0000
0000
0000
1000
0000
0100
0010
0001
0000
1000
0010
0100
0000
1001
0000
,
0000
0000
1000
0000
0100
0000
0010
0001
1000
0000
0010
0100
0001
0000
1000
0000
,
0011
0000
0000
0000
0100
0000
1000
0010
0100
0000
0001
0010
0100
0000
1001
0000
,
0000
0000
1000
0000
0100
0000
0010
0001
1000
0000
1010
0000
0101
0000
0010
0000
,
1001
0000
0110
0000
1010
0100
0011
1010
,
0000
0000
1000
0000
0100
0000
0010
0001
1000
0000
1000
0000
0101
0000
0000
0000
,
1010
0000
0000
0100
0010
0001
1000
0100
0010
0001
1000
0100
0010
0001
1000
0010
,
1000
0000
0001
0000
0100
0000
0000
0010
1000
0000
1000
0000
1010
0000
0000
0000
,
1000
0001
0010
0100
1000
0000
0010
0001
0010
0100
1000
0000
0010
0001
0010
0100
,
1000
0100
0010
0001
0010
0000
0100
1000
0100
0000
0010
0001
0010
0000
0100
0000
,
1001
0110
1000
0100
0010
0001
0000
0001
,
1000
0100
0010
0010
0100
0000
0100
1000
,
1001
0100
1010
0001
1001
0100
1010
1001
,
0000
0000
1000
0000
0100
0000
0000
0000
1001
0000
1000
0010
0100
0000
0010
0000
,
1001
0010
0100
0010
1001
0001
0100
1000
,
0001
1000
0100
0000
1010
1000
1001
0010
,
1001
0100
0010
0100
0010
0001
0100
0000
,
0000
0000
1000
0000
0100
0000
0010
0000
1001
0000
0100
0010
0000
0000
0000
0000
,
1010
0101
0011
0100
1000
0001
0100
0010
,
0001
1000
0100
0010
0001
0010
1000
0000
,
1010
0100
0010
0001
0010
0100
1000
0100
,
0010
0000
0000
0000
0000
0000
0000
0000
0001
0000
0000
0000
0000
0010
0000
0000
,
1001
0100
0010
0001
0010
0100
1000
0000
;

//---------------dance-single - Darkmage----------------
#NOTES:
     dance-single:
     Darkmage:
     Medium:
     9:
     0.937,1.000,0.324,0.019,0.633,653.000,34.000,2.000,0.000,0.000:
0000
0000
0000
0000
0000
0000
0000
0120
,
1030
0000
0001
0100
0000
0010
1000
0000
0000
0001
0000
0000
0000
1000
0001
0100
,
0010
1000
0010
0100
0001
1000
0100
0000
0000
0000
0010
0000
0000
0000
0001
0010
,
0100
1000
0010
0100
0001
1000
0010
0000
0000
0100
0000
0000
0000
1000
0010
0100
,
0010
0100
0001
1000
0100
0010
0001
0000
0000
1000
0000
0000
0000
0001
1000
0100
,
0010
0001
0010
0100
1000
0010
0100
0001
1000
0100
1000
0010
0100
0001
0010
0001
,
1000
0010
0100
0010
1000
0100
0010
0001
1000
0010
0100
0001
0010
0001
0100
0010
,
1000
0100
0010
0001
1000
0010
0100
0010
1000
0001
0010
0001
0100
0010
1000
0010
,
0100
0001
0010
0100
1000
0010
0100
0001
2001
0000
0000
0000
0000
0000
0000
0000
,
3010
0000
0100
0000
0000
0001
0100
0000
,
0010
0000
1000
0000
0000
0001
1000
0000
,
0010
0000
0100
0000
0000
0010
1000
0000
,
0001
0000
0100
0000
0000
0001
0010
0100
,
1000
0000
0010
0000
0000
0100
0001
0000
,
1000
0000
0010
0000
0000
0100
0010
0000
,
1000
0000
0001
0000
0000
0100
0001
0000
,
1000
1000
1000
1000
0001
0001
0001
0001
,
1000
0100
0010
0001
1000
0010
0100
0001
,
1000
0100
0010
0001
1000
0010
0100
0001
,
1000
0100
0010
0100
1000
0010
0100
0010
,
0100
0001
0010
0001
0100
0001
0010
0100
,
1000
0100
0010
0001
0010
0100
1000
0001
,
0010
0001
0010
0100
1000
0100
0010
0100
,
1000
0100
0010
0001
1000
0100
0010
0001
,
1001
0000
0000
0000
0000
0000
0000
0000
0000
1000
0001
1000
0001
1000
0001
1000
,
0001
0100
0010
1000
0100
0010
0001
0100
,
0010
1000
0100
0010
0001
0100
0010
1000
,
0001
0010
0100
1000
0001
0010
0100
1000
,
0100
0010
0001
1000
0100
0010
0001
1000
,
0001
0100
0010
1000
0100
0010
0001
0100
,
0010
1000
0100
0010
0001
0100
0010
1000
,
0001
0010
0100
0001
0100
1000
0001
0100
,
0010
0100
1000
0100
0010
1000
0001
0010
,
1100
0011
1010
0101
,
1010
0101
0011
1100
,
1001
0100
0000
0000
0010
1000
0001
1000
,
0001
0010
0100
1000
0100
0001
0100
1000
,
0001
0000
0000
1000
0100
0010
0001
1000
,
0001
1000
0010
0100
0010
0100
0001
1000
,
0010
1000
0000
0001
0010
1000
0000
0001
,
0100
1000
0010
0100
0001
0010
0100
1000
,
0001
0010
0000
0100
0000
1000
0010
0000
0100
0001
0000
0010
0000
0100
1000
0000
,
0001
0100
0000
0010
0000
1000
0010
0000
0100
0001
0000
0100
0000
0010
1000
0000
,
0001
0010
0000
1000
0000
0010
0001
0000
1000
0010
0000
0001
0000
0010
1000
0000
,
0001
0100
0000
1000
0000
0100
0001
0000
1000
0100
0000
0001
0000
0100
1000
0000
,
0100
0010
0000
1000
0000
0010
0100
0000
0001
0100
0000
0010
0000
0100
0001
0000
,
1000
0100
0000
0010
0000
0100
0001
0000
0100
0010
0000
0100
0000
1000
0001
0000
,
1000
0010
0000
0100
0000
0001
0100
0000
0010
1000
0000
0001
0000
0010
0100
0000
,
1000
0001
0000
0100
0000
0010
1000
0000
0001
0100
0000
0010
0000
1000
0001
0000
,
1000
0100
0000
0010
0000
0100
1000
0000
0001
0010
0000
0100
0000
0010
0001
0000
,
1000
0010
0000
0100
0000
1000
0100
0000
0010
1000
0000
0001
0000
0010
0100
0000
,
1000
1000
0000
0001
0001
0001
0000
1000
,
1001
0101
1001
1010
,
1000
1000
0001
0001
1010
1010
0101
0101
,
1000
0001
1000
0001
1000
0001
1000
0001
1000
0001
1000
0001
1000
0001
1000
0001
,
1000
0000
0000
0000
,
1001
0000
0000
1000
0100
0010
0001
0010
,
0100
1000
0010
0100
0001
0100
0010
1000
,
0001
0000
0001
0000
0000
0000
1000
0100
0010
0000
0001
0000
1000
0000
0010
0000
,
0100
0001
0010
0100
1000
0001
0100
0010
,
1000
1000
0001
0001
0010
0000
0000
0000
,
0000
0000
1000
0100
1000
0000
0001
0010
0001
0000
1000
0000
0010
0000
0100
0000
,
0001
0010
0100
1000
0001
0010
0100
1000
,
0100
0010
0001
1000
0100
0010
0001
1000
,
0100
0000
0100
0000
0000
0000
0010
0001
0010
0000
0010
0001
0010
0000
0010
0000
,
0000
0000
0010
0000
0000
0000
0100
1000
0100
0000
0100
1000
0100
0000
0100
0000
,
0000
0000
0100
0000
0000
0000
0010
0001
0010
0000
0100
1000
0100
0000
0010
0000
,
0000
0000
0010
0000
0000
0000
0010
0001
0010
0000
0100
0000
1000
0000
0001
0000
,
1001
0000
0101
0000
0011
0000
1000
1010
,
0000
0000
0000
0000
0001
0100
0001
1000
,
0100
0000
0010
1000
0001
0100
1000
0010
,
0100
1000
0001
0010
0100
0000
0000
0000
,
0001
0010
1000
0001
0100
1000
0010
0100
,
0001
0010
1000
0001
0100
1000
0010
0100
,
0001
0001
0000
0000
0100
0010
1000
0010
,
0100
0001
0010
0000
0100
0000
1000
0001
,
1001
0000
0000
0000
0000
0010
0001
0011
,
0000
0000
0000
0000
0000
0000
0000
0000
1100
0000
0000
0110
0000
0000
0101
0000
,
0011
0000
0000
0100
1000
0001
0000
0000
,
0010
0000
0000
0000
0010
0000
0100
0001
,
1001
0100
0010
0001
1000
0010
0100
0001
,
1000
0100
0001
0100
1000
0001
0100
1000
,
0100
0001
1000
0100
0001
0100
1000
0100
,
0001
0100
1000
0001
1000
0100
0010
0001
,
1001
0100
0010
0001
1000
0010
0100
0001
,
1000
0000
0000
0000
0000
0000
0000
0000
0010
0000
0000
0000
0000
0100
0000
0000
,
1001
0000
0000
0100
0001
0010
1000
0000
;

//---------------dance-single - Darkmage----------------
#NOTES:
     dance-single:
     Darkmage:
     Edit:
     25:
     1.000,1.000,1.000,0.010,1.000,1179.000,549.000,1.000,0.000,197.000:
0000
0000
0000
0000
0000
0000
0000
0210
,
0301
0000
0100
0000
1001
0000
1010
0000
1100
0000
1010
0000
0101
0000
0010
0000
1000
0000
0000
0000
0001
0000
0000
0000
0000
0000
0000
0000
0001
0010
1000
0010
,
1000
0000
0100
0000
1010
0000
0100
0000
1000
0000
0010
0000
1001
0000
0100
0000
0000
0000
0000
0000
0001
0000
0000
0000
0000
0000
0000
0000
0001
0010
0100
1000
,
0100
0000
0010
0000
1001
0000
1100
0000
1010
0000
0110
0000
0101
0000
0100
0000
1000
0000
0000
0000
1001
0000
0000
0000
0000
0000
0000
0000
0001
1000
0010
0100
,
1000
0000
0100
0000
1001
0000
0100
0000
1000
0000
0010
0000
0101
0000
1000
0000
0000
0000
0000
0000
0010
0000
0000
0000
0000
0000
0000
0000
1000
0010
0001
0010
,
1100
0000
1000
0000
0101
0000
0011
1000
0110
1000
0110
0000
0111
1000
0100
1000
1010
0000
1000
0000
0111
0000
0100
0010
1000
0100
0010
0000
1001
1100
0011
0110
,
1010
0000
1010
0000
0110
0000
1101
0010
1101
0010
1011
0000
0111
1000
0110
1000
0100
1000
0100
1000
0101
0000
0010
0100
1000
0010
0110
1000
0111
1010
1110
0101
,
1101
0000
1001
0000
1101
0000
0111
0010
0111
1000
0111
0000
1111
0100
0011
0001
1001
0000
1001
0000
0111
0000
0011
0010
1100
1000
0101
0000
1000
0101
1010
0101
,
1001
0000
1001
0000
1110
0000
1011
0100
1011
1000
0111
0000
1101
0100
1010
0000
0000
0000
0000
0000
0000
0000
0000
0000
0000
0000
0000
0000
0000
0000
0000
0000
,
1011
0100
0001
0100
1001
0010
0101
1000
0001
0010
1001
0100
1101
0010
0100
0010
,
1110
1000
0100
0010
1001
0001
0100
1000
0010
0100
1001
0100
1111
0100
0010
0100
,
1110
1000
0100
0010
1001
0001
0100
1000
0010
0100
1001
0100
1101
0010
0100
0010
,
1101
1000
0100
0010
1010
0001
0100
1000
0010
0100
1001
0100
1011
0100
0010
0100
,
1011
1000
0100
0010
1001
0001
1010
0100
1001
0100
1001
0100
1011
0100
1010
0100
,
1101
1000
0100
0010
1001
0001
1010
0100
1001
0010
1101
0010
1101
0010
0100
0010
,
1110
1000
0100
0010
1001
0001
1010
0100
1001
0010
1101
0010
1101
0010
0100
0010
,
1101
1000
0100
0010
1001
0001
0100
1000
0010
0100
1001
0100
1011
0100
0010
0100
,
1110
1000
0100
0010
1001
0001
0100
1000
0010
0100
1001
0100
1011
0100
1010
0100
,
1110
0100
0010
0001
1001
1000
1010
0100
1001
0010
1101
0100
1011
0100
0010
0100
,
1011
1000
0100
0010
1001
0001
1010
0100
1001
0010
1101
0100
1011
0100
0010
0100
,
1101
1000
0100
0010
1001
0010
0100
1000
0010
0100
1001
0100
1011
0100
0010
0100
,
1011
0100
0010
0001
1001
0001
1010
0100
1001
0010
1101
0010
1110
0100
0010
0100
,
1100
1000
0100
0010
1001
0001
1010
0100
1001
0010
1101
0100
1110
0100
0010
0100
,
1100
0100
0010
0001
1001
0001
0011
1110
0011
1010
1111
0010
1111
0010
1101
0010
,
1000
0000
0000
0000
0000
0000
0000
0000
0000
0001
1110
0100
1010
0100
0011
0100
,
1011
0100
0010
0100
1010
0100
0001
0010
1101
0010
0100
1000
1001
0010
1100
0010
,
0100
1000
1010
0100
0011
0100
0010
1000
1001
0010
1100
0010
1010
0001
0010
0001
,
1010
0001
1010
0100
1010
0001
0010
0001
1010
0001
0010
0100
1011
0100
1010
0100
,
0001
0010
1100
0010
1001
0010
1100
0010
1001
0010
1001
0100
1010
0100
0010
0001
,
1111
0010
0100
0001
1110
0100
0001
0100
1011
0001
0010
0001
1111
0100
1010
0100
,
0001
0010
1100
0001
1010
0100
0010
0100
1100
0010
1010
0100
1010
0100
0010
0100
,
1110
0100
1000
0010
1001
0010
0100
0010
1010
0100
0001
0010
1100
0010
1010
0100
,
0010
0100
1100
0100
0110
0010
1100
0001
1001
0010
1100
1000
1101
0010
0100
1000
,
1111
0100
0000
0010
1111
0000
0100
0010
1111
0000
0000
0010
1111
0000
1010
0001
,
0111
0010
1100
0010
1110
0001
0000
0101
1100
0010
1001
0010
1101
0100
0001
0010
,
1111
0000
0100
0000
1010
0000
0001
0100
1001
0100
0010
0100
1011
0100
1001
0100
,
1001
0010
1010
0100
1001
0100
1010
0001
1001
0010
1001
0010
0101
0000
0010
0000
,
1111
0000
0100
0000
1010
0000
0010
0000
1111
0010
0100
1000
1011
0010
1100
0010
,
0001
0010
1010
0010
1101
0010
0100
1000
1001
0010
1100
0010
1101
0001
0010
0100
,
1111
0010
1100
0001
1110
0100
0001
0100
1100
0001
1010
0100
1011
0100
1010
0001
,
0010
0100
1010
0001
1100
0100
0010
0001
1000
0010
1001
0010
0101
0010
0001
0000
,
1110
0101
0010
0101
1000
0101
0110
1000
0101
0100
1000
0101
0100
1000
1001
0110
,
1000
0110
0011
0101
1000
1001
0110
1000
0101
1010
1000
0101
0100
1001
1010
0110
,
1100
0100
0110
1001
1000
1001
0110
1000
0101
1000
0100
0101
0100
1000
1001
0110
,
1000
1100
0110
0101
1000
1001
0110
1000
0101
1010
1000
0101
0100
1001
1010
1100
,
1111
1000
0110
1001
1000
1001
0110
1000
0101
1000
1000
0101
0100
1000
1001
0110
,
1110
1100
0110
1001
1000
1001
0110
1000
0101
1010
1000
0101
0100
1001
1010
0110
,
1111
1000
0110
1001
1000
1001
0110
1000
0101
1000
1000
0110
1000
1000
1001
0110
,
1101
1100
0110
1001
1000
1001
0110
1000
0101
1010
1000
0101
0100
1001
1010
0110
,
1111
0100
0011
1001
1000
1001
0110
0100
1111
0100
0101
0011
0100
1001
1010
0100
,
1111
0100
0011
1001
1000
1001
0110
1000
1111
1000
1010
0101
0100
1001
1010
0100
,
1111
0101
1110
0101
0100
0101
1111
0100
1111
0101
1110
0101
0100
0101
1111
0100
,
1111
0101
0010
0101
1011
0101
0110
0100
1111
0101
0100
0011
1110
0101
0110
1000
,
1111
0100
1111
0010
1111
0100
1111
0010
1111
0001
1111
0010
1111
0100
1111
1000
,
1010
0110
1001
0101
1010
0101
1010
1110
1001
0110
1001
0110
0101
0110
1010
1100
,
1010
0100
0010
0001
1010
0100
0010
0001
1010
0100
0010
0001
1010
0100
0010
0001
1010
0100
0010
0001
1010
0100
0010
0001
1010
0100
0010
0001
1010
0100
0010
0001
,
1111
0000
0011
0100
1101
0010
0001
0100
1010
0000
0100
0010
1111
0010
1100
0100
,
0010
0100
1010
0100
0011
0100
1010
0100
1010
0000
1010
0000
1111
0000
0010
0000
,
1110
0000
1000
0000
0100
0000
1010
0001
1110
0001
0011
0000
1111
0000
1100
0000
,
0110
1101
1011
0010
1111
1010
1111
0010
,
1101
0010
0100
1000
1011
0100
1010
0000
1110
0000
0000
0000
1111
0000
1000
0000
,
0100
0000
1100
0010
1101
0000
0000
0100
1011
0000
1101
0000
1111
0000
0100
0000
,
1111
0100
0010
0001
1001
0010
0100
1000
1101
0010
0100
0010
1001
0010
1100
0010
,
0001
1010
0001
0110
0001
0010
1100
0010
1001
0010
1001
0100
1111
0001
0010
0100
,
1111
0000
0000
0000
1110
0000
0100
0010
1011
0000
0100
0010
1011
0000
1111
0000
,
0110
0000
1000
0000
0100
0000
0010
0101
1011
0000
1100
0010
1011
0000
0101
0000
,
1111
0000
0000
0000
1100
0000
0100
0010
1111
0000
0100
0010
0101
0000
1111
0000
,
0000
0000
1000
0000
1100
0000
0100
0010
1001
0000
1110
0000
1111
0000
0111
0000
,
1111
0000
1111
1000
1111
1010
1111
1110
,
0110
0000
1100
0000
0110
0000
1100
0110
1011
0000
1000
0000
1111
0000
0000
0000
,
1111
0000
0000
0100
1101
0010
0100
0010
1001
0100
0010
0001
1100
0010
1001
0010
,
1101
0000
1000
0000
1111
0000
0000
0011
1111
0000
1000
0000
1111
0000
0000
0000
,
1111
0011
0010
0100
1110
0000
0010
0001
1010
0100
1000
0000
1110
0001
1010
0100
,
1101
0010
1110
0010
1110
0000
1100
0110
1111
0000
1110
0001
1010
0000
0100
0000
,
1111
0011
1110
0010
1101
0011
1100
1011
,
1110
1001
0111
0001
1111
1000
1111
0010
,
1111
0100
1111
0110
1111
0110
1111
1110
,
0011
0000
1110
0000
1111
0000
0010
0000
1111
0000
1010
0100
1011
0000
1110
0000
,
1111
0000
0101
0000
1011
0000
0101
0010
1111
0010
1110
0000
1111
0000
1100
0010
,
1101
0000
1100
0100
1101
0000
0100
0010
1111
0100
1011
0000
1111
0000
0110
0000
,
1101
0100
0010
1000
0010
0001
0010
0000
,
0000
0000
1000
0000
0100
0000
0010
0000
1001
0000
0100
0010
0000
0000
0000
0000
,
1010
0101
0011
0010
0100
0001
1000
0100
,
0010
0100
1000
0001
0010
0100
1000
0000
,
0101
0010
1000
0100
0010
0001
0010
1000
,
0100
0000
0000
0000
0000
0000
0000
0000
0010
0000
0000
0000
0000
1000
0000
0000
,
1001
0100
0010
0100
1000
0010
0001
0000
;
