#TITLE:Giudecca;
#SUBTITLE:;
#ARTIST:D.J.SETUP;
#TITLETRANSLIT:;
#SUBTITLETRANSLIT:;
#ARTISTTRANSLIT:;
#CREDIT:owenviau1;
#BANNER:../BN.png;
#BACKGROUND:../BG.png;
#LYRICSPATH:;
#CDTITLE:../CDTitleOV1.png;
#MUSIC:Giudecca - D.J.SETUP.ogg;
#OFFSET:-0.081;
#SAMPLESTART:38.017;
#SAMPLELENGTH:29.999;
#SELECTABLE:YES;
#BPMS:0.000=155.000;
#STOPS:;
#BGCHANGES:;
// cache tags:
#FIRSTBEAT:1.250;
#LASTBEAT:289.750;
#SONGFILENAME:Songs/Index Gradation/Giudecca - [Owen71]/Giudecca.sm;
#HASMUSIC:1;
#HASBANNER:1;
#MUSICLENGTH:116.099;
// end cache tags

//---------------dance-single - ----------------
#NOTES:
     dance-single:
     :
     Challenge:
     13:
     1.000,1.000,0.138,0.009,1.000,1085.000,16.000,1.000,1.000,0.000:
0000
0000
0000
0000
0000
1000
0100
0010
0001
0000
1000
0010
0000
0100
0001
1000
,
0100
0000
0010
0001
0000
1000
0100
1000
0010
0000
0100
0001
0000
0100
0010
1000
,
0001
0000
0010
0001
0000
1000
0100
0010
0001
0000
0100
0001
0000
1000
0010
0100
,
0001
0000
1000
0100
0000
0010
0001
1000
0001
0000
0100
0010
0000
1000
0010
0100
,
0001
0000
1000
0100
0000
0010
0001
1000
0010
0000
0100
0001
0000
1000
0100
1000
,
0010
0000
0100
0001
0000
1000
0100
0010
0100
0000
1000
0001
0000
0100
0001
1000
,
0010
0000
0100
0010
0000
1000
0001
0100
0001
0000
0010
0100
0000
1000
0001
1000
,
0010
0000
0000
0000
0000
0000
0100
0000
0000
0001
0000
0000
0000
0000
0000
0000
0000
0000
0000
0000
0000
0000
0000
0000
0000
0000
0000
0000
0000
0000
1000
0000
0100
0000
0010
0000
0001
0000
0000
1000
0000
0000
0010
0000
0000
0100
0000
0000
,
0001
0000
1001
0000
0000
0000
0000
0000
1000
0100
0010
0001
1000
0001
0100
0010
,
1000
0010
0100
0001
0100
0010
1000
0001
1000
0100
0010
0001
1000
0100
1000
0001
,
0010
0100
0010
0001
1000
0010
1000
0001
0100
0010
0100
0001
1000
0100
0010
0001
,
1000
0100
1000
0001
0010
0001
0100
0010
1000
0010
0100
0001
1000
0001
0100
0010
,
0100
0000
0000
0001
0000
0000
1000
0000
0000
0100
0000
0000
0010
0000
0001
0000
1000
0000
0001
0000
0100
0000
0010
0000
1000
0000
0000
0010
0000
0000
0100
0000
0000
0001
0000
0000
1000
0000
0000
0100
0000
0000
1000
0000
0000
0001
0000
0000
,
0010
0001
0100
0010
1000
0010
0100
0001
1000
0001
0010
0100
1000
0001
0010
0001
,
0100
0010
0100
0001
1000
0100
0010
0100
1000
0001
0010
0001
0100
0010
1000
0010
,
0100
0001
1000
0100
0010
0001
0010
0100
1000
0000
1001
0000
0101
0000
0011
0000
,
1100
0000
0110
0000
0010
0000
0001
0000
1000
0010
0100
0001
1000
0100
1000
0001
,
0010
0001
0100
0010
1000
0010
0100
0001
1000
0100
0010
0001
0010
0100
1000
0001
,
0010
0001
0100
0010
1000
0010
0100
0001
1000
0100
1000
0001
0010
0001
0100
0010
,
1000
0010
0100
0001
1000
0100
0010
0001
1000
0100
1000
0001
0010
0001
0100
0010
,
1000
0010
0100
0001
1000
0100
0010
0100
1000
0001
0010
0001
1000
0100
1000
0001
,
0010
0100
0010
0001
1000
0001
0100
0010
1000
0010
0100
0001
1000
0001
0100
0010
,
0100
0001
1000
0100
0010
0001
1000
0100
1000
0001
0100
0010
1000
0010
0100
0001
,
1000
0100
0010
0001
0100
0001
1000
0010
0100
0000
0101
0000
1010
0000
0110
0000
,
1001
0000
0011
0000
1000
0000
0100
0010
0001
1000
0100
1000
0001
0100
0010
0100
,
0001
1000
0100
0010
0001
1000
0100
1000
0001
0010
0001
0100
0010
1000
0010
0100
,
0001
1000
0100
1000
0010
0100
0010
1000
0001
0100
0001
0010
0100
1000
0001
0010
,
0001
1000
0100
1000
0001
0100
0010
1000
0010
0100
0001
1000
0100
1000
0010
0100
,
0001
1000
0001
0100
0010
1000
0010
0100
0001
1000
0100
0010
0001
1000
0100
1000
,
0001
0100
0010
1000
0010
0100
0001
1000
0001
0100
0010
0100
0001
1000
0010
1000
,
0001
0100
0010
1000
0010
0100
0001
1000
0100
1000
0001
0010
0001
1000
0100
0010
,
0001
1000
0001
0010
0100
1000
0001
0100
0001
1000
0010
0100
0001
1000
0100
0010
,
0001
1000
0010
0100
0001
0000
0010
0100
1000
0001
0100
0010
0100
0001
1000
0100
,
0010
0001
1000
0100
1000
0010
0100
0001
1000
0001
0100
0010
1000
0010
0100
0001
,
0100
0010
1000
0001
0010
0100
1000
0001
0010
0001
0100
0010
1000
0010
0100
0001
,
1000
0100
1000
0001
0010
0100
1000
0100
0010
0001
1000
0100
1000
0001
0010
0100
,
0010
0001
1000
0010
1000
0001
0100
0010
1000
0010
0100
0001
1000
0100
1000
0001
,
0010
0001
0100
0010
1000
0010
0100
0001
0100
0010
1000
0001
0010
0001
0100
0010
,
0100
0001
1000
0100
0010
0001
1000
0010
1000
0100
0010
0001
0100
0001
1000
0100
,
1000
0010
0100
0001
1000
0001
0100
0010
0100
0001
1000
0100
0010
0001
1000
0100
,
1000
0010
0100
0001
1000
0001
0100
0010
1000
0010
0100
0001
1000
0100
0010
0001
,
1000
0001
0100
0010
0100
0001
1000
0100
0010
0001
1000
0100
1000
0010
0100
0001
,
1000
0001
0100
0010
1000
0010
0100
0001
0100
0010
1000
0001
0010
0100
1000
0001
,
0010
0001
0100
0010
1000
0010
0100
0001
1000
0100
1000
0001
0010
0100
1000
0100
,
0010
0001
1000
0100
1000
0001
0010
0100
0010
0001
1000
0010
1000
0001
0100
0010
,
1000
0010
0100
0001
1000
0100
1000
0001
0010
0001
0100
0010
1000
0010
0100
0001
,
0100
0010
1000
0001
0010
0001
0100
0010
0100
0001
1000
0100
0010
0001
1000
0010
,
1000
0100
0010
0001
0100
0001
1000
0100
0010
0000
0101
0000
0110
0000
1010
0000
,
1001
0000
1100
0000
0100
0000
0010
0000
0001
1000
0100
1000
0001
0100
0010
0100
,
0001
1000
0100
0010
0001
1000
0100
1000
0001
0010
0001
0100
0010
1000
0010
0100
,
0001
1000
0100
1000
0010
0100
0010
1000
0001
0100
0001
0010
0100
1000
0001
0010
,
0001
1000
0100
1000
0001
0100
0010
1000
0010
0100
0001
1000
0100
1000
0010
0100
,
0001
1000
0001
0100
0010
1000
0010
0100
0001
1000
0100
0010
0001
1000
0100
1000
,
0001
0100
0010
1000
0010
0100
0001
1000
0001
0100
0010
0100
0001
1000
0010
1000
,
0001
0100
0010
1000
0010
0100
0001
1000
0100
1000
0001
0010
0001
1000
0100
0010
,
0001
1000
0001
0010
0100
1000
0001
0100
0001
1000
0010
0100
0001
1000
0100
0010
,
0001
1000
0010
0100
0001
0000
0010
0100
1000
0001
0100
0010
0100
0001
1000
0100
,
0010
0001
1000
0100
1000
0010
0100
0001
1000
0001
0100
0010
1000
0010
0100
0001
,
0100
0010
1000
0001
0010
0100
1000
0001
0010
0001
0100
0010
1000
0010
0100
0001
,
1000
0100
1000
0001
0010
0100
1000
0100
0010
0001
1000
0100
1000
0001
0010
0100
,
0010
0001
1000
0010
1000
0001
0100
0010
1000
0010
0100
0001
1000
0100
1000
0001
,
0010
0001
0100
0010
1000
0010
0100
0001
0100
0010
1000
0001
0010
0001
0100
0010
,
0100
0001
1000
0100
0010
0001
1000
0010
1000
0100
0010
0001
0100
0001
1000
0100
,
1000
0010
0100
0001
1000
0001
0100
0010
0100
0001
1000
0100
0010
0001
0000
1000
,
0010
0000
0100
0000
0002
0000
0003
0000
1000
0010
0100
0001
1000
0100
0010
0001
,
1000
0001
0100
0010
0100
0001
1000
0100
0010
0001
1000
0100
1000
0010
0100
0001
,
1000
0001
0100
0010
1000
0010
0100
0001
0100
0010
1000
0001
0010
0100
1000
0001
,
0010
0001
0100
0010
1000
0010
0100
0001
1000
0100
1000
0001
0010
0100
1000
0100
,
0010
0001
1000
0100
1000
0001
0010
0100
0010
0001
1000
0010
1000
0001
0100
0010
,
1000
0010
0100
0001
1000
0100
1000
0001
0010
0001
0100
0010
1000
0010
0100
0001
,
0100
0010
1000
0001
0010
0001
0100
0010
0100
0001
1000
0100
0010
0001
1000
0010
,
1000
0100
0010
0001
0100
0001
1000
0100
0010
0001
1000
0001
0100
0010
1000
0010
,
0100
0001
1000
0100
0010
0000
0000
00M0
0000
0000
0000
0000
0000
0000
0000
0000
,
0000
0000
0000
0000
,
0000
0000
0000
0000
;
